<?xml version="1.0" standalone="no"?>
<!DOCTYPE svg PUBLIC "-//W3C//DTD SVG 1.1//EN" "http://www.w3.org/Graphics/SVG/1.1/DTD/svg11.dtd" >
<svg xmlns="http://www.w3.org/2000/svg" xmlns:xlink="http://www.w3.org/1999/xlink" version="1.1">
<metadata>
Created by FontForge 20170924 at Tue Oct 31 14:58:11 2017
 By www-data
Copyright 2011 The Montserrat Project Authors (https://github.com/JulietaUla/Montserrat)
</metadata>
<defs>
<font id="Montserrat-ExtraLight" horiz-adv-x="0" >
  <font-face 
    font-family="Montserrat ExtraLight"
    font-weight="275"
    font-stretch="normal"
    units-per-em="1000"
    panose-1="0 0 3 0 0 0 0 0 0 0"
    ascent="800"
    descent="-200"
    x-height="519"
    cap-height="700"
    bbox="-797 -260 1543 1027"
    underline-thickness="50"
    underline-position="-100"
    unicode-range="U+000D-FB02"
  />
<missing-glyph horiz-adv-x="587" 
d="M40 700h507v-700h-507v700zM467 70v560h-347v-560h347z" />
    <glyph glyph-name="fi" unicode="fi" horiz-adv-x="653" 
d="M178.5 688.5q-25.5 -27.5 -25.5 -81.5v-88h171v-29h-171v-490h-33v490h-98v29h98v92q0 62 35 98t98 36q30 0 57.5 -9t45.5 -26l-17 -25q-34 31 -84 31q-51 0 -76.5 -27.5zM509 519h33v-519h-33v519zM502 664.5q-10 9.5 -10 22.5q0 14 9.5 23.5t23.5 9.5q13 0 23 -9.5
t10 -22.5t-10 -23t-23 -10t-23 9.5z" />
    <glyph glyph-name="fl" unicode="fl" horiz-adv-x="573" 
d="M178.5 688.5q-25.5 -27.5 -25.5 -81.5v-88h171v-29h-171v-490h-33v490h-98v29h98v92q0 62 35 98t98 36q30 0 57.5 -9t45.5 -26l-17 -25q-34 31 -84 31q-51 0 -76.5 -27.5zM429 742h33v-742h-33v742z" />
    <glyph glyph-name=".notdef" horiz-adv-x="587" 
d="M40 700h507v-700h-507v700zM467 70v560h-347v-560h347z" />
    <glyph glyph-name="NULL" 
 />
    <glyph glyph-name="NULL" 
 />
    <glyph glyph-name="nonmarkingreturn" unicode="&#xd;" horiz-adv-x="253" 
 />
    <glyph glyph-name="space" unicode=" " horiz-adv-x="253" 
 />
    <glyph glyph-name="A" unicode="A" horiz-adv-x="696" 
d="M557 205h-419l-94 -205h-37l324 700h33l324 -700h-37zM544 234l-196 427l-197 -427h393z" />
    <glyph glyph-name="Aacute" unicode="&#xc1;" horiz-adv-x="696" 
d="M557 205h-419l-94 -205h-37l324 700h33l324 -700h-37zM544 234l-196 427l-197 -427h393zM437 870h54l-153 -113h-40z" />
    <glyph glyph-name="Abreve" unicode="&#x102;" horiz-adv-x="696" 
d="M557 205h-419l-94 -205h-37l324 700h33l324 -700h-37zM544 234l-196 427l-197 -427h393zM251 785.5q-39 31.5 -40 84.5h27q1 -41 32.5 -66t77.5 -25t77.5 25t32.5 66h27q-1 -53 -40 -84.5t-97 -31.5t-97 31.5z" />
    <glyph glyph-name="uni1EAE" unicode="&#x1eae;" horiz-adv-x="696" 
d="M557 205h-419l-94 -205h-37l324 700h33l324 -700h-37zM544 234l-196 427l-197 -427h393zM255 776.5q-37 22.5 -44 63.5h27q6 -30 35 -46t75 -16t75 16t35 46h27q-7 -41 -44 -63.5t-93 -22.5t-93 22.5zM424 958h52l-139 -102h-38z" />
    <glyph glyph-name="uni1EB6" unicode="&#x1eb6;" horiz-adv-x="696" 
d="M557 205h-419l-94 -205h-37l324 700h33l324 -700h-37zM544 234l-196 427l-197 -427h393zM327 -170.5q-9 8.5 -9 21.5q0 12 9 21t21 9t21 -9t9 -21q0 -13 -9 -21.5t-21 -8.5t-21 8.5zM251 785.5q-39 31.5 -40 84.5h27q1 -41 32.5 -66t77.5 -25t77.5 25t32.5 66h27
q-1 -53 -40 -84.5t-97 -31.5t-97 31.5z" />
    <glyph glyph-name="uni1EB0" unicode="&#x1eb0;" horiz-adv-x="696" 
d="M557 205h-419l-94 -205h-37l324 700h33l324 -700h-37zM544 234l-196 427l-197 -427h393zM255 776.5q-37 22.5 -44 63.5h27q6 -30 35 -46t75 -16t75 16t35 46h27q-7 -41 -44 -63.5t-93 -22.5t-93 22.5zM220 958h52l125 -102h-38z" />
    <glyph glyph-name="uni1EB2" unicode="&#x1eb2;" horiz-adv-x="696" 
d="M557 205h-419l-94 -205h-37l324 700h33l324 -700h-37zM544 234l-196 427l-197 -427h393zM255 776.5q-37 22.5 -44 63.5h27q6 -30 35 -46t75 -16t75 16t35 46h27q-7 -41 -44 -63.5t-93 -22.5t-93 22.5zM340 849q21 10 33 24t12 30t-11.5 26t-30.5 10q-23 0 -43 -13l-9 19
q22 17 55 17q29 0 46 -16t17 -42q0 -23 -14.5 -42t-41.5 -31z" />
    <glyph glyph-name="uni1EB4" unicode="&#x1eb4;" horiz-adv-x="696" 
d="M557 205h-419l-94 -205h-37l324 700h33l324 -700h-37zM544 234l-196 427l-197 -427h393zM255 776.5q-37 22.5 -44 63.5h27q6 -30 35 -46t75 -16t75 16t35 46h27q-7 -41 -44 -63.5t-93 -22.5t-93 22.5zM375 877q-16 8 -35 22q-20 13 -30.5 18.5t-23.5 5.5q-23 0 -37 -13.5
t-15 -37.5h-25q1 35 22 55.5t55 20.5q19 0 34.5 -7.5t35.5 -22.5q20 -13 30.5 -18.5t23.5 -5.5q23 0 37.5 13t15.5 37h24q-1 -34 -21.5 -54.5t-54.5 -20.5q-20 0 -36 8z" />
    <glyph glyph-name="uni01CD" unicode="&#x1cd;" horiz-adv-x="696" 
d="M557 205h-419l-94 -205h-37l324 700h33l324 -700h-37zM544 234l-196 427l-197 -427h393zM493 870l-124 -113h-42l-124 113h37l108 -90l108 90h37z" />
    <glyph glyph-name="Acircumflex" unicode="&#xc2;" horiz-adv-x="696" 
d="M557 205h-419l-94 -205h-37l324 700h33l324 -700h-37zM544 234l-196 427l-197 -427h393zM456 757l-108 90l-108 -90h-37l124 113h42l124 -113h-37z" />
    <glyph glyph-name="uni1EA4" unicode="&#x1ea4;" horiz-adv-x="696" 
d="M557 205h-419l-94 -205h-37l324 700h33l324 -700h-37zM544 234l-196 427l-197 -427h393zM453 757l-105 62l-105 -62h-40l125 83h40l125 -83h-40zM552 936h52l-139 -102h-38z" />
    <glyph glyph-name="uni1EAC" unicode="&#x1eac;" horiz-adv-x="696" 
d="M557 205h-419l-94 -205h-37l324 700h33l324 -700h-37zM544 234l-196 427l-197 -427h393zM327 -170.5q-9 8.5 -9 21.5q0 12 9 21t21 9t21 -9t9 -21q0 -13 -9 -21.5t-21 -8.5t-21 8.5zM456 757l-108 90l-108 -90h-37l124 113h42l124 -113h-37z" />
    <glyph glyph-name="uni1EA6" unicode="&#x1ea6;" horiz-adv-x="696" 
d="M557 205h-419l-94 -205h-37l324 700h33l324 -700h-37zM544 234l-196 427l-197 -427h393zM453 757l-105 62l-105 -62h-40l125 83h40l125 -83h-40zM348 936h52l125 -102h-38z" />
    <glyph glyph-name="uni1EA8" unicode="&#x1ea8;" horiz-adv-x="696" 
d="M557 205h-419l-94 -205h-37l324 700h33l324 -700h-37zM544 234l-196 427l-197 -427h393zM453 757l-105 62l-105 -62h-40l125 83h40l125 -83h-40zM445 837q21 10 33 24t12 30t-11.5 26t-30.5 10q-23 0 -43 -13l-9 19q22 17 55 17q29 0 46 -16t17 -42q0 -23 -14.5 -42
t-41.5 -31z" />
    <glyph glyph-name="uni1EAA" unicode="&#x1eaa;" horiz-adv-x="696" 
d="M557 205h-419l-94 -205h-37l324 700h33l324 -700h-37zM544 234l-196 427l-197 -427h393zM453 757l-105 62l-105 -62h-40l125 83h40l125 -83h-40zM375 882q-16 8 -35 22q-20 13 -30.5 18.5t-23.5 5.5q-23 0 -37 -13.5t-15 -37.5h-25q1 35 22 55.5t55 20.5q19 0 34.5 -7.5
t35.5 -22.5q20 -13 30.5 -18.5t23.5 -5.5q23 0 37.5 13t15.5 37h24q-1 -34 -21.5 -54.5t-54.5 -20.5q-20 0 -36 8z" />
    <glyph glyph-name="uni0200" unicode="&#x200;" horiz-adv-x="696" 
d="M557 205h-419l-94 -205h-37l324 700h33l324 -700h-37zM544 234l-196 427l-197 -427h393zM141 870h45l108 -113h-37zM286 870h45l108 -113h-37z" />
    <glyph glyph-name="Adieresis" unicode="&#xc4;" horiz-adv-x="696" 
d="M557 205h-419l-94 -205h-37l324 700h33l324 -700h-37zM544 234l-196 427l-197 -427h393zM243 797q-9 9 -9 21q0 13 9 22t21 9q13 0 21.5 -9t8.5 -22q0 -12 -8.5 -21t-21.5 -9q-12 0 -21 9zM410.5 797q-8.5 9 -8.5 21q0 13 8.5 22t21.5 9q12 0 21 -9t9 -22q0 -12 -9 -21
t-21 -9q-13 0 -21.5 9z" />
    <glyph glyph-name="uni1EA0" unicode="&#x1ea0;" horiz-adv-x="696" 
d="M557 205h-419l-94 -205h-37l324 700h33l324 -700h-37zM544 234l-196 427l-197 -427h393zM327 -170.5q-9 8.5 -9 21.5q0 12 9 21t21 9t21 -9t9 -21q0 -13 -9 -21.5t-21 -8.5t-21 8.5z" />
    <glyph glyph-name="Agrave" unicode="&#xc0;" horiz-adv-x="696" 
d="M557 205h-419l-94 -205h-37l324 700h33l324 -700h-37zM544 234l-196 427l-197 -427h393zM205 870h54l139 -113h-40z" />
    <glyph glyph-name="uni1EA2" unicode="&#x1ea2;" horiz-adv-x="696" 
d="M557 205h-419l-94 -205h-37l324 700h33l324 -700h-37zM544 234l-196 427l-197 -427h393zM339 772q62 27 62 75q0 23 -16 38t-41 15q-33 0 -62 -19l-10 22q14 10 34 16t39 6q38 0 60 -20.5t22 -54.5q0 -32 -18 -55.5t-56 -42.5z" />
    <glyph glyph-name="uni0202" unicode="&#x202;" horiz-adv-x="696" 
d="M557 205h-419l-94 -205h-37l324 700h33l324 -700h-37zM544 234l-196 427l-197 -427h393zM251 842q39 32 97 32t97 -32t40 -85h-27q-1 42 -32.5 67t-77.5 25t-77.5 -25t-32.5 -67h-27q1 53 40 85z" />
    <glyph glyph-name="Amacron" unicode="&#x100;" horiz-adv-x="696" 
d="M557 205h-419l-94 -205h-37l324 700h33l324 -700h-37zM544 234l-196 427l-197 -427h393zM207 827h282v-27h-282v27z" />
    <glyph glyph-name="Aogonek" unicode="&#x104;" horiz-adv-x="696" 
d="M557 205h-419l-94 -205h-37l324 700h33l324 -700h-37zM544 234l-196 427l-197 -427h393zM560.5 -191.5q-26.5 23.5 -26.5 62.5q0 87 138 148l16 -19q-72 -31 -99 -63t-27 -65q0 -30 19.5 -46t51.5 -16q17 0 33 6t28 16l13 -20q-33 -27 -77 -27q-43 0 -69.5 23.5z" />
    <glyph glyph-name="Aring" unicode="&#xc5;" horiz-adv-x="696" 
d="M557 205h-419l-94 -205h-37l324 700h33l324 -700h-37zM544 234l-196 427l-197 -427h393zM279 805q-27 27 -27 66t27 67t68 28t68.5 -28t27.5 -67t-27.5 -66t-68.5 -27t-68 27zM398.5 820.5q20.5 20.5 20.5 50.5t-21 51t-51 21t-50.5 -21t-20.5 -51t20 -50.5t51 -20.5
t51.5 20.5z" />
    <glyph glyph-name="Aringacute" unicode="&#x1fa;" horiz-adv-x="696" 
d="M557 205h-419l-94 -205h-37l324 700h33l324 -700h-37zM544 234l-196 427l-197 -427h393zM421 932q22 -27 22 -61q0 -39 -27.5 -66t-68.5 -27t-68 27t-27 66t27 67t68 28q30 0 55 -17l81 78l23 -18zM398.5 820.5q20.5 20.5 20.5 50.5t-21 51t-51 21t-50.5 -21t-20.5 -51
t20 -50.5t51 -20.5t51.5 20.5z" />
    <glyph glyph-name="Atilde" unicode="&#xc3;" horiz-adv-x="696" 
d="M557 205h-419l-94 -205h-37l324 700h33l324 -700h-37zM544 234l-196 427l-197 -427h393zM375.5 776.5q-15.5 9.5 -36.5 28.5q-16 15 -28.5 23t-25.5 8q-24 0 -37.5 -17.5t-15.5 -48.5h-25q2 42 22.5 67t54.5 25q21 0 36.5 -9.5t36.5 -28.5q16 -15 28.5 -23t25.5 -8
q24 0 37.5 17.5t15.5 46.5h25q-2 -40 -22.5 -65t-54.5 -25q-21 0 -36.5 9.5z" />
    <glyph glyph-name="AE" unicode="&#xc6;" horiz-adv-x="1012" 
d="M945 31v-31h-473v205h-299l-129 -205h-37l441 700h483v-31h-425v-298h380v-31h-380v-309h439zM472 234v435h-8l-273 -435h281z" />
    <glyph glyph-name="AEacute" unicode="&#x1fc;" horiz-adv-x="1012" 
d="M945 31v-31h-473v205h-299l-129 -205h-37l441 700h483v-31h-425v-298h380v-31h-380v-309h439zM472 234v435h-8l-273 -435h281zM578 870h54l-153 -113h-40z" />
    <glyph glyph-name="B" unicode="B" horiz-adv-x="750" 
d="M645 302.5q42 -44.5 42 -118.5q0 -90 -64 -137t-191 -47h-304v700h284q111 0 174 -46t63 -132q0 -63 -34 -104t-94 -58q82 -13 124 -57.5zM162 670v-300h251q97 0 150 38.5t53 111.5t-53 111.5t-150 38.5h-251zM598 68q55 38 55 117q0 80 -55 118t-164 38h-272v-311h272
q109 0 164 38z" />
    <glyph glyph-name="C" unicode="C" horiz-adv-x="713" 
d="M233.5 42q-82.5 46 -129.5 127t-47 181t47 181t129.5 127t184.5 46q72 0 135 -23.5t108 -69.5l-21 -22q-87 84 -221 84q-92 0 -167 -42.5t-118 -116.5t-43 -164t43 -164t118 -116.5t167 -42.5q133 0 221 85l21 -22q-45 -46 -107.5 -70t-135.5 -24q-102 0 -184.5 46z" />
    <glyph glyph-name="Cacute" unicode="&#x106;" horiz-adv-x="713" 
d="M233.5 42q-82.5 46 -129.5 127t-47 181t47 181t129.5 127t184.5 46q72 0 135 -23.5t108 -69.5l-21 -22q-87 84 -221 84q-92 0 -167 -42.5t-118 -116.5t-43 -164t43 -164t118 -116.5t167 -42.5q133 0 221 85l21 -22q-45 -46 -107.5 -70t-135.5 -24q-102 0 -184.5 46z
M498 870h54l-153 -113h-40z" />
    <glyph glyph-name="Ccaron" unicode="&#x10c;" horiz-adv-x="713" 
d="M233.5 42q-82.5 46 -129.5 127t-47 181t47 181t129.5 127t184.5 46q72 0 135 -23.5t108 -69.5l-21 -22q-87 84 -221 84q-92 0 -167 -42.5t-118 -116.5t-43 -164t43 -164t118 -116.5t167 -42.5q133 0 221 85l21 -22q-45 -46 -107.5 -70t-135.5 -24q-102 0 -184.5 46z
M554 870l-124 -113h-42l-124 113h37l108 -90l108 90h37z" />
    <glyph glyph-name="Ccedilla" unicode="&#xc7;" horiz-adv-x="713" 
d="M233.5 42q-82.5 46 -129.5 127t-47 181t47 181t129.5 127t184.5 46q72 0 135 -23.5t108 -69.5l-21 -22q-87 84 -221 84q-92 0 -167 -42.5t-118 -116.5t-43 -164t43 -164t118 -116.5t167 -42.5q133 0 221 85l21 -22q-45 -46 -107.5 -70t-135.5 -24q-102 0 -184.5 46z
M313 -189l13 21q25 -22 63 -22q31 0 50 15t19 42q0 25 -18.5 40.5t-50.5 15.5h-18l23 82h25l-17 -60q39 -2 61.5 -23.5t22.5 -55.5q0 -36 -27.5 -58.5t-69.5 -22.5q-44 0 -76 26z" />
    <glyph glyph-name="uni1E08" unicode="&#x1e08;" horiz-adv-x="713" 
d="M233.5 42q-82.5 46 -129.5 127t-47 181t47 181t129.5 127t184.5 46q72 0 135 -23.5t108 -69.5l-21 -22q-87 84 -221 84q-92 0 -167 -42.5t-118 -116.5t-43 -164t43 -164t118 -116.5t167 -42.5q133 0 221 85l21 -22q-45 -46 -107.5 -70t-135.5 -24q-102 0 -184.5 46z
M313 -189l13 21q25 -22 63 -22q31 0 50 15t19 42q0 25 -18.5 40.5t-50.5 15.5h-18l23 82h25l-17 -60q39 -2 61.5 -23.5t22.5 -55.5q0 -36 -27.5 -58.5t-69.5 -22.5q-44 0 -76 26zM498 870h54l-153 -113h-40z" />
    <glyph glyph-name="Ccircumflex" unicode="&#x108;" horiz-adv-x="713" 
d="M233.5 42q-82.5 46 -129.5 127t-47 181t47 181t129.5 127t184.5 46q72 0 135 -23.5t108 -69.5l-21 -22q-87 84 -221 84q-92 0 -167 -42.5t-118 -116.5t-43 -164t43 -164t118 -116.5t167 -42.5q133 0 221 85l21 -22q-45 -46 -107.5 -70t-135.5 -24q-102 0 -184.5 46z
M517 757l-108 90l-108 -90h-37l124 113h42l124 -113h-37z" />
    <glyph glyph-name="Cdotaccent" unicode="&#x10a;" horiz-adv-x="713" 
d="M233.5 42q-82.5 46 -129.5 127t-47 181t47 181t129.5 127t184.5 46q72 0 135 -23.5t108 -69.5l-21 -22q-87 84 -221 84q-92 0 -167 -42.5t-118 -116.5t-43 -164t43 -164t118 -116.5t167 -42.5q133 0 221 85l21 -22q-45 -46 -107.5 -70t-135.5 -24q-102 0 -184.5 46z
M386.5 797.5q-9.5 9.5 -9.5 22.5t9.5 22.5t22.5 9.5t22.5 -9.5t9.5 -22.5t-9.5 -22.5t-22.5 -9.5t-22.5 9.5z" />
    <glyph glyph-name="D" unicode="D" horiz-adv-x="826" 
d="M128 700h270q109 0 193.5 -45t131 -124.5t46.5 -180.5t-46.5 -180.5t-131 -124.5t-193.5 -45h-270v700zM396 31q102 0 178.5 41t118.5 113.5t42 164.5t-42 164.5t-118.5 113.5t-178.5 41h-234v-638h234z" />
    <glyph glyph-name="uni01C4" unicode="&#x1c4;" horiz-adv-x="1460" 
d="M128 700h270q109 0 193.5 -45t131 -124.5t46.5 -180.5t-46.5 -180.5t-131 -124.5t-193.5 -45h-270v700zM396 31q102 0 178.5 41t118.5 113.5t42 164.5t-42 164.5t-118.5 113.5t-178.5 41h-234v-638h234zM1413 31v-31h-556v24l499 645h-494v31h540v-24l-499 -645h510z
M1280 870l-124 -113h-42l-124 113h37l108 -90l108 90h37z" />
    <glyph glyph-name="Eth" unicode="&#xd0;" horiz-adv-x="827" 
d="M129 700h270q109 0 193.5 -45t131 -124.5t46.5 -180.5t-46.5 -180.5t-131 -124.5t-193.5 -45h-270v700zM397 31q102 0 178.5 41t118.5 113.5t42 164.5t-42 164.5t-118.5 113.5t-178.5 41h-234v-638h234zM18 370h366v-29h-366v29z" />
    <glyph glyph-name="Dcaron" unicode="&#x10e;" horiz-adv-x="826" 
d="M128 700h270q109 0 193.5 -45t131 -124.5t46.5 -180.5t-46.5 -180.5t-131 -124.5t-193.5 -45h-270v700zM396 31q102 0 178.5 41t118.5 113.5t42 164.5t-42 164.5t-118.5 113.5t-178.5 41h-234v-638h234zM534 869l-124 -113h-42l-124 113h37l108 -90l108 90h37z" />
    <glyph glyph-name="Dcroat" unicode="&#x110;" horiz-adv-x="827" 
d="M129 700h270q109 0 193.5 -45t131 -124.5t46.5 -180.5t-46.5 -180.5t-131 -124.5t-193.5 -45h-270v700zM397 31q102 0 178.5 41t118.5 113.5t42 164.5t-42 164.5t-118.5 113.5t-178.5 41h-234v-638h234zM18 370h366v-29h-366v29z" />
    <glyph glyph-name="uni1E0C" unicode="&#x1e0c;" horiz-adv-x="826" 
d="M128 700h270q109 0 193.5 -45t131 -124.5t46.5 -180.5t-46.5 -180.5t-131 -124.5t-193.5 -45h-270v700zM396 31q102 0 178.5 41t118.5 113.5t42 164.5t-42 164.5t-118.5 113.5t-178.5 41h-234v-638h234zM373 -170.5q-9 8.5 -9 21.5q0 12 9 21t21 9t21 -9t9 -21
q0 -13 -9 -21.5t-21 -8.5t-21 8.5z" />
    <glyph glyph-name="uni1E0E" unicode="&#x1e0e;" horiz-adv-x="826" 
d="M128 700h270q109 0 193.5 -45t131 -124.5t46.5 -180.5t-46.5 -180.5t-131 -124.5t-193.5 -45h-270v700zM396 31q102 0 178.5 41t118.5 113.5t42 164.5t-42 164.5t-118.5 113.5t-178.5 41h-234v-638h234zM253 -135h282v-27h-282v27z" />
    <glyph glyph-name="uni01C5" unicode="&#x1c5;" horiz-adv-x="1322" 
d="M128 700h270q109 0 193.5 -45t131 -124.5t46.5 -180.5t-46.5 -180.5t-131 -124.5t-193.5 -45h-270v700zM396 31q102 0 178.5 41t118.5 113.5t42 164.5t-42 164.5t-118.5 113.5t-178.5 41h-234v-638h234zM1276 29v-29h-405v23l356 467h-351v29h395v-23l-357 -467h362z
M1219 720l-124 -113h-42l-124 113h37l108 -90l108 90h37z" />
    <glyph glyph-name="E" unicode="E" horiz-adv-x="668" 
d="M601 31v-31h-473v700h459v-31h-425v-298h380v-31h-380v-309h439z" />
    <glyph glyph-name="Eacute" unicode="&#xc9;" horiz-adv-x="668" 
d="M601 31v-31h-473v700h459v-31h-425v-298h380v-31h-380v-309h439zM447 870h54l-153 -113h-40z" />
    <glyph glyph-name="Ebreve" unicode="&#x114;" horiz-adv-x="668" 
d="M601 31v-31h-473v700h459v-31h-425v-298h380v-31h-380v-309h439zM261 785.5q-39 31.5 -40 84.5h27q1 -41 32.5 -66t77.5 -25t77.5 25t32.5 66h27q-1 -53 -40 -84.5t-97 -31.5t-97 31.5z" />
    <glyph glyph-name="Ecaron" unicode="&#x11a;" horiz-adv-x="668" 
d="M601 31v-31h-473v700h459v-31h-425v-298h380v-31h-380v-309h439zM503 870l-124 -113h-42l-124 113h37l108 -90l108 90h37z" />
    <glyph glyph-name="uni1E1C" unicode="&#x1e1c;" horiz-adv-x="668" 
d="M601 31v-31h-473v700h459v-31h-425v-298h380v-31h-380v-309h439zM280 -189l13 21q25 -22 63 -22q31 0 50 15t19 42q0 25 -18.5 40.5t-50.5 15.5h-18l23 82h25l-17 -60q39 -2 61.5 -23.5t22.5 -55.5q0 -36 -27.5 -58.5t-69.5 -22.5q-44 0 -76 26zM261 785.5
q-39 31.5 -40 84.5h27q1 -41 32.5 -66t77.5 -25t77.5 25t32.5 66h27q-1 -53 -40 -84.5t-97 -31.5t-97 31.5z" />
    <glyph glyph-name="Ecircumflex" unicode="&#xca;" horiz-adv-x="668" 
d="M601 31v-31h-473v700h459v-31h-425v-298h380v-31h-380v-309h439zM466 757l-108 90l-108 -90h-37l124 113h42l124 -113h-37z" />
    <glyph glyph-name="uni1EBE" unicode="&#x1ebe;" horiz-adv-x="668" 
d="M601 31v-31h-473v700h459v-31h-425v-298h380v-31h-380v-309h439zM463 757l-105 62l-105 -62h-40l125 83h40l125 -83h-40zM562 936h52l-139 -102h-38z" />
    <glyph glyph-name="uni1EC6" unicode="&#x1ec6;" horiz-adv-x="668" 
d="M601 31v-31h-473v700h459v-31h-425v-298h380v-31h-380v-309h439zM353 -170.5q-9 8.5 -9 21.5q0 12 9 21t21 9t21 -9t9 -21q0 -13 -9 -21.5t-21 -8.5t-21 8.5zM466 757l-108 90l-108 -90h-37l124 113h42l124 -113h-37z" />
    <glyph glyph-name="uni1EC0" unicode="&#x1ec0;" horiz-adv-x="668" 
d="M601 31v-31h-473v700h459v-31h-425v-298h380v-31h-380v-309h439zM463 757l-105 62l-105 -62h-40l125 83h40l125 -83h-40zM358 936h52l125 -102h-38z" />
    <glyph glyph-name="uni1EC2" unicode="&#x1ec2;" horiz-adv-x="668" 
d="M601 31v-31h-473v700h459v-31h-425v-298h380v-31h-380v-309h439zM463 757l-105 62l-105 -62h-40l125 83h40l125 -83h-40zM455 837q21 10 33 24t12 30t-11.5 26t-30.5 10q-23 0 -43 -13l-9 19q22 17 55 17q29 0 46 -16t17 -42q0 -23 -14.5 -42t-41.5 -31z" />
    <glyph glyph-name="uni1EC4" unicode="&#x1ec4;" horiz-adv-x="668" 
d="M601 31v-31h-473v700h459v-31h-425v-298h380v-31h-380v-309h439zM463 757l-105 62l-105 -62h-40l125 83h40l125 -83h-40zM385 882q-16 8 -35 22q-20 13 -30.5 18.5t-23.5 5.5q-23 0 -37 -13.5t-15 -37.5h-25q1 35 22 55.5t55 20.5q19 0 34.5 -7.5t35.5 -22.5
q20 -13 30.5 -18.5t23.5 -5.5q23 0 37.5 13t15.5 37h24q-1 -34 -21.5 -54.5t-54.5 -20.5q-20 0 -36 8z" />
    <glyph glyph-name="uni0204" unicode="&#x204;" horiz-adv-x="668" 
d="M601 31v-31h-473v700h459v-31h-425v-298h380v-31h-380v-309h439zM151 870h45l108 -113h-37zM296 870h45l108 -113h-37z" />
    <glyph glyph-name="Edieresis" unicode="&#xcb;" horiz-adv-x="668" 
d="M601 31v-31h-473v700h459v-31h-425v-298h380v-31h-380v-309h439zM253 797q-9 9 -9 21q0 13 9 22t21 9q13 0 21.5 -9t8.5 -22q0 -12 -8.5 -21t-21.5 -9q-12 0 -21 9zM420.5 797q-8.5 9 -8.5 21q0 13 8.5 22t21.5 9q12 0 21 -9t9 -22q0 -12 -9 -21t-21 -9q-13 0 -21.5 9z
" />
    <glyph glyph-name="Edotaccent" unicode="&#x116;" horiz-adv-x="668" 
d="M601 31v-31h-473v700h459v-31h-425v-298h380v-31h-380v-309h439zM335.5 797.5q-9.5 9.5 -9.5 22.5t9.5 22.5t22.5 9.5t22.5 -9.5t9.5 -22.5t-9.5 -22.5t-22.5 -9.5t-22.5 9.5z" />
    <glyph glyph-name="uni1EB8" unicode="&#x1eb8;" horiz-adv-x="668" 
d="M601 31v-31h-473v700h459v-31h-425v-298h380v-31h-380v-309h439zM353 -170.5q-9 8.5 -9 21.5q0 12 9 21t21 9t21 -9t9 -21q0 -13 -9 -21.5t-21 -8.5t-21 8.5z" />
    <glyph glyph-name="Egrave" unicode="&#xc8;" horiz-adv-x="668" 
d="M601 31v-31h-473v700h459v-31h-425v-298h380v-31h-380v-309h439zM215 870h54l139 -113h-40z" />
    <glyph glyph-name="uni1EBA" unicode="&#x1eba;" horiz-adv-x="668" 
d="M601 31v-31h-473v700h459v-31h-425v-298h380v-31h-380v-309h439zM349 772q62 27 62 75q0 23 -16 38t-41 15q-33 0 -62 -19l-10 22q14 10 34 16t39 6q38 0 60 -20.5t22 -54.5q0 -32 -18 -55.5t-56 -42.5z" />
    <glyph glyph-name="uni0206" unicode="&#x206;" horiz-adv-x="668" 
d="M601 31v-31h-473v700h459v-31h-425v-298h380v-31h-380v-309h439zM261 842q39 32 97 32t97 -32t40 -85h-27q-1 42 -32.5 67t-77.5 25t-77.5 -25t-32.5 -67h-27q1 53 40 85z" />
    <glyph glyph-name="Emacron" unicode="&#x112;" horiz-adv-x="668" 
d="M601 31v-31h-473v700h459v-31h-425v-298h380v-31h-380v-309h439zM217 827h282v-27h-282v27z" />
    <glyph glyph-name="uni1E16" unicode="&#x1e16;" horiz-adv-x="668" 
d="M601 31v-31h-473v700h459v-31h-425v-298h380v-31h-380v-309h439zM217 812h282v-26h-282v26zM434 977h52l-139 -102h-38z" />
    <glyph glyph-name="uni1E14" unicode="&#x1e14;" horiz-adv-x="668" 
d="M601 31v-31h-473v700h459v-31h-425v-298h380v-31h-380v-309h439zM217 812h282v-26h-282v26zM230 977h52l125 -102h-38z" />
    <glyph glyph-name="Eogonek" unicode="&#x118;" horiz-adv-x="668" 
d="M601 31v-31h-473v700h459v-31h-425v-298h380v-31h-380v-309h439zM473.5 -191.5q-26.5 23.5 -26.5 62.5q0 87 138 148l16 -19q-72 -31 -99 -63t-27 -65q0 -30 19.5 -46t51.5 -16q17 0 33 6t28 16l13 -20q-33 -27 -77 -27q-43 0 -69.5 23.5z" />
    <glyph glyph-name="uni1EBC" unicode="&#x1ebc;" horiz-adv-x="668" 
d="M601 31v-31h-473v700h459v-31h-425v-298h380v-31h-380v-309h439zM385.5 776.5q-15.5 9.5 -36.5 28.5q-16 15 -28.5 23t-25.5 8q-24 0 -37.5 -17.5t-15.5 -48.5h-25q2 42 22.5 67t54.5 25q21 0 36.5 -9.5t36.5 -28.5q16 -15 28.5 -23t25.5 -8q24 0 37.5 17.5t15.5 46.5h25
q-2 -40 -22.5 -65t-54.5 -25q-21 0 -36.5 9.5z" />
    <glyph glyph-name="uni01B7" unicode="&#x1b7;" horiz-adv-x="603" 
d="M473.5 337q66.5 -53 66.5 -143q0 -89 -65.5 -143.5t-184.5 -54.5q-83 0 -152 26.5t-104 70.5l17 24q34 -40 97.5 -65t142.5 -25q103 0 159 44.5t56 122.5q0 79 -57.5 123t-172.5 44h-40v24l232 285h-411v30h454v-24l-233 -286h1q128 0 194.5 -53z" />
    <glyph glyph-name="uni01EE" unicode="&#x1ee;" horiz-adv-x="603" 
d="M473.5 337q66.5 -53 66.5 -143q0 -89 -65.5 -143.5t-184.5 -54.5q-83 0 -152 26.5t-104 70.5l17 24q34 -40 97.5 -65t142.5 -25q103 0 159 44.5t56 122.5q0 79 -57.5 123t-172.5 44h-40v24l232 285h-411v30h454v-24l-233 -286h1q128 0 194.5 -53zM435 870l-124 -113h-42
l-124 113h37l108 -90l108 90h37z" />
    <glyph glyph-name="F" unicode="F" horiz-adv-x="630" 
d="M162 669v-320h380v-30h-380v-319h-34v700h459v-31h-425z" />
    <glyph glyph-name="G" unicode="G" horiz-adv-x="774" 
d="M634 345h32v-259q-46 -44 -109.5 -67t-135.5 -23q-103 0 -186 46t-130.5 127t-47.5 181t47.5 181t130.5 127t186 46q75 0 138 -23t108 -69l-20 -23q-87 84 -225 84q-94 0 -169.5 -42.5t-118.5 -116.5t-43 -164t43 -164t118.5 -116.5t169.5 -42.5q131 0 212 73v245z" />
    <glyph glyph-name="Gbreve" unicode="&#x11e;" horiz-adv-x="774" 
d="M634 345h32v-259q-46 -44 -109.5 -67t-135.5 -23q-103 0 -186 46t-130.5 127t-47.5 181t47.5 181t130.5 127t186 46q75 0 138 -23t108 -69l-20 -23q-87 84 -225 84q-94 0 -169.5 -42.5t-118.5 -116.5t-43 -164t43 -164t118.5 -116.5t169.5 -42.5q131 0 212 73v245z
M306 784.5q-39 31.5 -40 84.5h27q1 -41 32.5 -66t77.5 -25t77.5 25t32.5 66h27q-1 -53 -40 -84.5t-97 -31.5t-97 31.5z" />
    <glyph glyph-name="Gcaron" unicode="&#x1e6;" horiz-adv-x="774" 
d="M634 345h32v-259q-46 -44 -109.5 -67t-135.5 -23q-103 0 -186 46t-130.5 127t-47.5 181t47.5 181t130.5 127t186 46q75 0 138 -23t108 -69l-20 -23q-87 84 -225 84q-94 0 -169.5 -42.5t-118.5 -116.5t-43 -164t43 -164t118.5 -116.5t169.5 -42.5q131 0 212 73v245z
M548 869l-124 -113h-42l-124 113h37l108 -90l108 90h37z" />
    <glyph glyph-name="Gcircumflex" unicode="&#x11c;" horiz-adv-x="774" 
d="M634 345h32v-259q-46 -44 -109.5 -67t-135.5 -23q-103 0 -186 46t-130.5 127t-47.5 181t47.5 181t130.5 127t186 46q75 0 138 -23t108 -69l-20 -23q-87 84 -225 84q-94 0 -169.5 -42.5t-118.5 -116.5t-43 -164t43 -164t118.5 -116.5t169.5 -42.5q131 0 212 73v245z
M511 756l-108 90l-108 -90h-37l124 113h42l124 -113h-37z" />
    <glyph glyph-name="Gcommaaccent" unicode="&#x122;" horiz-adv-x="774" 
d="M634 345h32v-259q-46 -44 -109.5 -67t-135.5 -23q-103 0 -186 46t-130.5 127t-47.5 181t47.5 181t130.5 127t186 46q75 0 138 -23t108 -69l-20 -23q-87 84 -225 84q-94 0 -169.5 -42.5t-118.5 -116.5t-43 -164t43 -164t118.5 -116.5t169.5 -42.5q131 0 212 73v245z
M424 -128q8 -9 8 -20q0 -13 -7 -36l-24 -76h-24l19 83q-10 1 -17 9.5t-7 19.5q0 12 8.5 20.5t21.5 8.5q14 0 22 -9z" />
    <glyph glyph-name="Gdotaccent" unicode="&#x120;" horiz-adv-x="774" 
d="M634 345h32v-259q-46 -44 -109.5 -67t-135.5 -23q-103 0 -186 46t-130.5 127t-47.5 181t47.5 181t130.5 127t186 46q75 0 138 -23t108 -69l-20 -23q-87 84 -225 84q-94 0 -169.5 -42.5t-118.5 -116.5t-43 -164t43 -164t118.5 -116.5t169.5 -42.5q131 0 212 73v245z
M380.5 796.5q-9.5 9.5 -9.5 22.5t9.5 22.5t22.5 9.5t22.5 -9.5t9.5 -22.5t-9.5 -22.5t-22.5 -9.5t-22.5 9.5z" />
    <glyph glyph-name="uni1E20" unicode="&#x1e20;" horiz-adv-x="774" 
d="M634 345h32v-259q-46 -44 -109.5 -67t-135.5 -23q-103 0 -186 46t-130.5 127t-47.5 181t47.5 181t130.5 127t186 46q75 0 138 -23t108 -69l-20 -23q-87 84 -225 84q-94 0 -169.5 -42.5t-118.5 -116.5t-43 -164t43 -164t118.5 -116.5t169.5 -42.5q131 0 212 73v245z
M262 826h282v-27h-282v27z" />
    <glyph glyph-name="uni01E4" unicode="&#x1e4;" horiz-adv-x="805" 
d="M634 345h32v-259q-46 -44 -109.5 -67t-135.5 -23q-103 0 -186 46t-130.5 127t-47.5 181t47.5 181t130.5 127t186 46q75 0 138 -23t108 -69l-20 -23q-87 84 -225 84q-94 0 -169.5 -42.5t-118.5 -116.5t-43 -164t43 -164t118.5 -116.5t169.5 -42.5q131 0 212 73v245z
M414 249h366v-29h-366v29z" />
    <glyph glyph-name="H" unicode="H" horiz-adv-x="815" 
d="M687 700v-700h-34v340h-491v-340h-34v700h34v-329h491v329h34z" />
    <glyph glyph-name="Hbar" unicode="&#x126;" horiz-adv-x="817" 
d="M688 700v-700h-34v340h-491v-340h-34v700h34v-329h491v329h34zM19 556h781v-29h-781v29z" />
    <glyph glyph-name="uni1E2A" unicode="&#x1e2a;" horiz-adv-x="815" 
d="M687 700v-700h-34v340h-491v-340h-34v700h34v-329h491v329h34zM311 -169.5q-39 30.5 -40 81.5h26q1 -40 32.5 -63.5t78.5 -23.5t78.5 23.5t32.5 63.5h26q-1 -51 -40 -81.5t-97 -30.5t-97 30.5z" />
    <glyph glyph-name="uni021E" unicode="&#x21e;" horiz-adv-x="815" 
d="M687 700v-700h-34v340h-491v-340h-34v700h34v-329h491v329h34zM553 870l-124 -113h-42l-124 113h37l108 -90l108 90h37z" />
    <glyph glyph-name="Hcircumflex" unicode="&#x124;" horiz-adv-x="815" 
d="M687 700v-700h-34v340h-491v-340h-34v700h34v-329h491v329h34zM516 757l-108 90l-108 -90h-37l124 113h42l124 -113h-37z" />
    <glyph glyph-name="uni1E24" unicode="&#x1e24;" horiz-adv-x="815" 
d="M687 700v-700h-34v340h-491v-340h-34v700h34v-329h491v329h34zM387 -170.5q-9 8.5 -9 21.5q0 12 9 21t21 9t21 -9t9 -21q0 -13 -9 -21.5t-21 -8.5t-21 8.5z" />
    <glyph glyph-name="I" unicode="I" horiz-adv-x="290" 
d="M128 700h34v-700h-34v700z" />
    <glyph glyph-name="IJ" unicode="&#x132;" horiz-adv-x="715" 
d="M213 13.5q-55 17.5 -99 48.5l17 27q41 -30 91.5 -46t105.5 -16q110 0 170.5 67.5t60.5 200.5v405h34v-405q0 -146 -71.5 -222.5t-194.5 -76.5q-59 0 -114 17.5zM122 700h34v-407h-34v407z" />
    <glyph glyph-name="Iacute" unicode="&#xcd;" horiz-adv-x="290" 
d="M128 700h34v-700h-34v700zM234 870h54l-153 -113h-40z" />
    <glyph glyph-name="Ibreve" unicode="&#x12c;" horiz-adv-x="290" 
d="M128 700h34v-700h-34v700zM48 785.5q-39 31.5 -40 84.5h27q1 -41 32.5 -66t77.5 -25t77.5 25t32.5 66h27q-1 -53 -40 -84.5t-97 -31.5t-97 31.5z" />
    <glyph glyph-name="Icircumflex" unicode="&#xce;" horiz-adv-x="290" 
d="M128 700h34v-700h-34v700zM253 757l-108 90l-108 -90h-37l124 113h42l124 -113h-37z" />
    <glyph glyph-name="uni0208" unicode="&#x208;" horiz-adv-x="290" 
d="M128 700h34v-700h-34v700zM-62 870h45l108 -113h-37zM83 870h45l108 -113h-37z" />
    <glyph glyph-name="Idieresis" unicode="&#xcf;" horiz-adv-x="290" 
d="M128 700h34v-700h-34v700zM40 797q-9 9 -9 21q0 13 9 22t21 9q13 0 21.5 -9t8.5 -22q0 -12 -8.5 -21t-21.5 -9q-12 0 -21 9zM207.5 797q-8.5 9 -8.5 21q0 13 8.5 22t21.5 9q12 0 21 -9t9 -22q0 -12 -9 -21t-21 -9q-13 0 -21.5 9z" />
    <glyph glyph-name="uni1E2E" unicode="&#x1e2e;" horiz-adv-x="290" 
d="M128 700h34v-700h-34v700zM40.5 797q-8.5 9 -8.5 21q0 13 8.5 21.5t21.5 8.5q12 0 21 -8.5t9 -21.5q0 -12 -9 -21t-21 -9q-13 0 -21.5 9zM207.5 797q-8.5 9 -8.5 21q0 13 8.5 21.5t21.5 8.5q12 0 21 -8.5t9 -21.5q0 -12 -9 -21t-21 -9q-13 0 -21.5 9zM221 977h52
l-139 -102h-38z" />
    <glyph glyph-name="Idotaccent" unicode="&#x130;" horiz-adv-x="290" 
d="M128 700h34v-700h-34v700zM122.5 797.5q-9.5 9.5 -9.5 22.5t9.5 22.5t22.5 9.5t22.5 -9.5t9.5 -22.5t-9.5 -22.5t-22.5 -9.5t-22.5 9.5z" />
    <glyph glyph-name="uni1ECA" unicode="&#x1eca;" horiz-adv-x="290" 
d="M128 700h34v-700h-34v700zM124 -170.5q-9 8.5 -9 21.5q0 12 9 21t21 9t21 -9t9 -21q0 -13 -9 -21.5t-21 -8.5t-21 8.5z" />
    <glyph glyph-name="Igrave" unicode="&#xcc;" horiz-adv-x="290" 
d="M128 700h34v-700h-34v700zM2 870h54l139 -113h-40z" />
    <glyph glyph-name="uni1EC8" unicode="&#x1ec8;" horiz-adv-x="290" 
d="M128 700h34v-700h-34v700zM136 772q62 27 62 75q0 23 -16 38t-41 15q-33 0 -62 -19l-10 22q14 10 34 16t39 6q38 0 60 -20.5t22 -54.5q0 -32 -18 -55.5t-56 -42.5z" />
    <glyph glyph-name="uni020A" unicode="&#x20a;" horiz-adv-x="290" 
d="M128 700h34v-700h-34v700zM48 842q39 32 97 32t97 -32t40 -85h-27q-1 42 -32.5 67t-77.5 25t-77.5 -25t-32.5 -67h-27q1 53 40 85z" />
    <glyph glyph-name="Imacron" unicode="&#x12a;" horiz-adv-x="290" 
d="M128 700h34v-700h-34v700zM30 828h230v-27h-230v27z" />
    <glyph glyph-name="Iogonek" unicode="&#x12e;" horiz-adv-x="290" 
d="M128 700h34v-700h-34v700zM98 -192.5q-20 22.5 -20 58.5q0 83 71 153l13 -19q-35 -38 -45.5 -68.5t-10.5 -62.5q0 -28 13.5 -43.5t33.5 -15.5q23 0 39 18l12 -20q-21 -23 -53 -23q-33 0 -53 22.5z" />
    <glyph glyph-name="Itilde" unicode="&#x128;" horiz-adv-x="290" 
d="M128 700h34v-700h-34v700zM172.5 776.5q-15.5 9.5 -36.5 28.5q-16 15 -28.5 23t-25.5 8q-24 0 -37.5 -17.5t-15.5 -48.5h-25q2 42 22.5 67t54.5 25q21 0 36.5 -9.5t36.5 -28.5q16 -15 28.5 -23t25.5 -8q24 0 37.5 17.5t15.5 46.5h25q-2 -40 -22.5 -65t-54.5 -25
q-21 0 -36.5 9.5z" />
    <glyph glyph-name="J" unicode="J" horiz-adv-x="483" 
d="M78 22.5q-48 26.5 -76 72.5l21 22q29 -44 69.5 -67t89.5 -23q74 0 109.5 42.5t35.5 130.5v469h-260v31h294v-501q0 -203 -180 -203q-55 0 -103 26.5z" />
    <glyph glyph-name="Jcircumflex" unicode="&#x134;" horiz-adv-x="483" 
d="M78 22.5q-48 26.5 -76 72.5l21 22q29 -44 69.5 -67t89.5 -23q74 0 109.5 42.5t35.5 130.5v469h-260v31h294v-501q0 -203 -180 -203q-55 0 -103 26.5zM322 757l-108 90l-108 -90h-37l124 113h42l124 -113h-37z" />
    <glyph glyph-name="K" unicode="K" horiz-adv-x="697" 
d="M329 357l-167 -172v-185h-34v700h34v-471l458 471h42l-310 -320l332 -380h-42z" />
    <glyph glyph-name="uni01E8" unicode="&#x1e8;" horiz-adv-x="697" 
d="M329 357l-167 -172v-185h-34v700h34v-471l458 471h42l-310 -320l332 -380h-42zM516 870l-124 -113h-42l-124 113h37l108 -90l108 90h37z" />
    <glyph glyph-name="Kcommaaccent" unicode="&#x136;" horiz-adv-x="697" 
d="M329 357l-167 -172v-185h-34v700h34v-471l458 471h42l-310 -320l332 -380h-42zM393 -128q8 -9 8 -20q0 -13 -7 -36l-24 -76h-24l19 83q-10 1 -17 9.5t-7 19.5q0 12 8.5 20.5t21.5 8.5q14 0 22 -9z" />
    <glyph glyph-name="L" unicode="L" horiz-adv-x="582" 
d="M128 700h34v-669h410v-31h-444v700z" />
    <glyph glyph-name="uni01C7" unicode="&#x1c7;" horiz-adv-x="1065" 
d="M128 700h34v-669h410v-31h-444v700zM660 22.5q-48 26.5 -76 72.5l21 22q29 -44 69.5 -67t89.5 -23q74 0 109.5 42.5t35.5 130.5v469h-260v31h294v-501q0 -203 -180 -203q-55 0 -103 26.5z" />
    <glyph glyph-name="Lacute" unicode="&#x139;" horiz-adv-x="582" 
d="M128 700h34v-669h410v-31h-444v700zM234 870h54l-153 -113h-40z" />
    <glyph glyph-name="Lcaron" unicode="&#x13d;" horiz-adv-x="582" 
d="M128 700h34v-669h410v-31h-444v700zM445 722h30l-4 -182h-26v182z" />
    <glyph glyph-name="Lcommaaccent" unicode="&#x13b;" horiz-adv-x="582" 
d="M128 700h34v-669h410v-31h-444v700zM383 -128q8 -9 8 -20q0 -13 -7 -36l-24 -76h-24l19 83q-10 1 -17 9.5t-7 19.5q0 12 8.5 20.5t21.5 8.5q14 0 22 -9z" />
    <glyph glyph-name="Ldot" unicode="&#x13f;" horiz-adv-x="582" 
d="M128 700h34v-669h410v-31h-444v700zM413.5 343.5q-9.5 9.5 -9.5 22.5t9.5 22.5t22.5 9.5t22.5 -9.5t9.5 -22.5t-9.5 -22.5t-22.5 -9.5t-22.5 9.5z" />
    <glyph glyph-name="uni1E36" unicode="&#x1e36;" horiz-adv-x="582" 
d="M128 700h34v-669h410v-31h-444v700zM340 -170.5q-9 8.5 -9 21.5q0 12 9 21t21 9t21 -9t9 -21q0 -13 -9 -21.5t-21 -8.5t-21 8.5z" />
    <glyph glyph-name="uni01C8" unicode="&#x1c8;" horiz-adv-x="842" 
d="M128 700h34v-669h410v-31h-444v700zM541 -188q-28 9 -46 27l17 24q33 -31 87 -31q48 0 73.5 28.5t25.5 81.5v577h33v-581q0 -62 -34 -98.5t-96 -36.5q-32 0 -60 9zM691 664.5q-10 9.5 -10 22.5q0 14 9.5 23.5t23.5 9.5q13 0 23 -9.5t10 -22.5t-10 -23t-23 -10t-23 9.5z
" />
    <glyph glyph-name="uni1E3A" unicode="&#x1e3a;" horiz-adv-x="582" 
d="M128 700h34v-669h410v-31h-444v700zM220 -135h282v-27h-282v27z" />
    <glyph glyph-name="Lslash" unicode="&#x141;" horiz-adv-x="583" 
d="M129 700h34v-669h410v-31h-444v700zM35 297l256 189l16 -21l-255 -189z" />
    <glyph glyph-name="M" unicode="M" horiz-adv-x="956" 
d="M795 0l-1 631l-307 -534h-18l-308 532v-629h-33v700h28l322 -560l321 560h28l1 -700h-33z" />
    <glyph glyph-name="uni1E42" unicode="&#x1e42;" horiz-adv-x="956" 
d="M795 0l-1 631l-307 -534h-18l-308 532v-629h-33v700h28l322 -560l321 560h28l1 -700h-33zM457 -170.5q-9 8.5 -9 21.5q0 12 9 21t21 9t21 -9t9 -21q0 -13 -9 -21.5t-21 -8.5t-21 8.5z" />
    <glyph glyph-name="N" unicode="N" horiz-adv-x="815" 
d="M687 700v-700h-28l-497 638v-638h-34v700h28l497 -638v638h34z" />
    <glyph glyph-name="uni01CA" unicode="&#x1ca;" horiz-adv-x="1298" 
d="M687 700v-700h-28l-497 638v-638h-34v700h28l497 -638v638h34zM893 22.5q-48 26.5 -76 72.5l21 22q29 -44 69.5 -67t89.5 -23q74 0 109.5 42.5t35.5 130.5v469h-260v31h294v-501q0 -203 -180 -203q-55 0 -103 26.5z" />
    <glyph glyph-name="Nacute" unicode="&#x143;" horiz-adv-x="815" 
d="M687 700v-700h-28l-497 638v-638h-34v700h28l497 -638v638h34zM497 870h54l-153 -113h-40z" />
    <glyph glyph-name="Ncaron" unicode="&#x147;" horiz-adv-x="815" 
d="M687 700v-700h-28l-497 638v-638h-34v700h28l497 -638v638h34zM553 870l-124 -113h-42l-124 113h37l108 -90l108 90h37z" />
    <glyph glyph-name="Ncommaaccent" unicode="&#x145;" horiz-adv-x="815" 
d="M687 700v-700h-28l-497 638v-638h-34v700h28l497 -638v638h34zM430 -128q8 -9 8 -20q0 -13 -7 -36l-24 -76h-24l19 83q-10 1 -17 9.5t-7 19.5q0 12 8.5 20.5t21.5 8.5q14 0 22 -9z" />
    <glyph glyph-name="uni1E44" unicode="&#x1e44;" horiz-adv-x="815" 
d="M687 700v-700h-28l-497 638v-638h-34v700h28l497 -638v638h34zM385.5 797.5q-9.5 9.5 -9.5 22.5t9.5 22.5t22.5 9.5t22.5 -9.5t9.5 -22.5t-9.5 -22.5t-22.5 -9.5t-22.5 9.5z" />
    <glyph glyph-name="uni1E46" unicode="&#x1e46;" horiz-adv-x="815" 
d="M687 700v-700h-28l-497 638v-638h-34v700h28l497 -638v638h34zM387 -170.5q-9 8.5 -9 21.5q0 12 9 21t21 9t21 -9t9 -21q0 -13 -9 -21.5t-21 -8.5t-21 8.5z" />
    <glyph glyph-name="Eng" unicode="&#x14a;" horiz-adv-x="815" 
d="M687 700v-693q0 -204 -180 -204q-53 0 -99.5 25t-75.5 70l20 22q28 -42 68 -64.5t88 -22.5q74 0 109.5 43t35.5 131v1l-491 630v-638h-34v700h28l497 -638v638h34z" />
    <glyph glyph-name="uni01CB" unicode="&#x1cb;" horiz-adv-x="1075" 
d="M687 700v-700h-28l-497 638v-638h-34v700h28l497 -638v638h34zM774 -188q-28 9 -46 27l17 24q33 -31 87 -31q48 0 73.5 28.5t25.5 81.5v577h33v-581q0 -62 -34 -98.5t-96 -36.5q-32 0 -60 9zM924 664.5q-10 9.5 -10 22.5q0 14 9.5 23.5t23.5 9.5q13 0 23 -9.5t10 -22.5
t-10 -23t-23 -10t-23 9.5z" />
    <glyph glyph-name="uni1E48" unicode="&#x1e48;" horiz-adv-x="815" 
d="M687 700v-700h-28l-497 638v-638h-34v700h28l497 -638v638h34zM267 -135h282v-27h-282v27z" />
    <glyph glyph-name="Ntilde" unicode="&#xd1;" horiz-adv-x="815" 
d="M687 700v-700h-28l-497 638v-638h-34v700h28l497 -638v638h34zM435.5 776.5q-15.5 9.5 -36.5 28.5q-16 15 -28.5 23t-25.5 8q-24 0 -37.5 -17.5t-15.5 -48.5h-25q2 42 22.5 67t54.5 25q21 0 36.5 -9.5t36.5 -28.5q16 -15 28.5 -23t25.5 -8q24 0 37.5 17.5t15.5 46.5h25
q-2 -40 -22.5 -65t-54.5 -25q-21 0 -36.5 9.5z" />
    <glyph glyph-name="O" unicode="O" horiz-adv-x="837" 
d="M233.5 42q-82.5 46 -129.5 127t-47 181t47 181t129.5 127t184.5 46t185 -46t130 -127t47 -181t-47 -181t-130 -127t-185 -46t-184.5 46zM585 69q75 42 118 116t43 165t-43 165t-118 116t-167 42t-166.5 -42t-117.5 -116t-43 -165t43 -165t117.5 -116t166.5 -42t167 42z
" />
    <glyph glyph-name="Oacute" unicode="&#xd3;" horiz-adv-x="837" 
d="M233.5 42q-82.5 46 -129.5 127t-47 181t47 181t129.5 127t184.5 46t185 -46t130 -127t47 -181t-47 -181t-130 -127t-185 -46t-184.5 46zM585 69q75 42 118 116t43 165t-43 165t-118 116t-167 42t-166.5 -42t-117.5 -116t-43 -165t43 -165t117.5 -116t166.5 -42t167 42z
M507 870h54l-153 -113h-40z" />
    <glyph glyph-name="Obreve" unicode="&#x14e;" horiz-adv-x="837" 
d="M233.5 42q-82.5 46 -129.5 127t-47 181t47 181t129.5 127t184.5 46t185 -46t130 -127t47 -181t-47 -181t-130 -127t-185 -46t-184.5 46zM585 69q75 42 118 116t43 165t-43 165t-118 116t-167 42t-166.5 -42t-117.5 -116t-43 -165t43 -165t117.5 -116t166.5 -42t167 42z
M321 785.5q-39 31.5 -40 84.5h27q1 -41 32.5 -66t77.5 -25t77.5 25t32.5 66h27q-1 -53 -40 -84.5t-97 -31.5t-97 31.5z" />
    <glyph glyph-name="Ocircumflex" unicode="&#xd4;" horiz-adv-x="837" 
d="M233.5 42q-82.5 46 -129.5 127t-47 181t47 181t129.5 127t184.5 46t185 -46t130 -127t47 -181t-47 -181t-130 -127t-185 -46t-184.5 46zM585 69q75 42 118 116t43 165t-43 165t-118 116t-167 42t-166.5 -42t-117.5 -116t-43 -165t43 -165t117.5 -116t166.5 -42t167 42z
M526 757l-108 90l-108 -90h-37l124 113h42l124 -113h-37z" />
    <glyph glyph-name="uni1ED0" unicode="&#x1ed0;" horiz-adv-x="837" 
d="M233.5 42q-82.5 46 -129.5 127t-47 181t47 181t129.5 127t184.5 46t185 -46t130 -127t47 -181t-47 -181t-130 -127t-185 -46t-184.5 46zM585 69q75 42 118 116t43 165t-43 165t-118 116t-167 42t-166.5 -42t-117.5 -116t-43 -165t43 -165t117.5 -116t166.5 -42t167 42z
M523 757l-105 62l-105 -62h-40l125 83h40l125 -83h-40zM622 936h52l-139 -102h-38z" />
    <glyph glyph-name="uni1ED8" unicode="&#x1ed8;" horiz-adv-x="837" 
d="M233.5 42q-82.5 46 -129.5 127t-47 181t47 181t129.5 127t184.5 46t185 -46t130 -127t47 -181t-47 -181t-130 -127t-185 -46t-184.5 46zM585 69q75 42 118 116t43 165t-43 165t-118 116t-167 42t-166.5 -42t-117.5 -116t-43 -165t43 -165t117.5 -116t166.5 -42t167 42z
M397 -170.5q-9 8.5 -9 21.5q0 12 9 21t21 9t21 -9t9 -21q0 -13 -9 -21.5t-21 -8.5t-21 8.5zM526 757l-108 90l-108 -90h-37l124 113h42l124 -113h-37z" />
    <glyph glyph-name="uni1ED2" unicode="&#x1ed2;" horiz-adv-x="837" 
d="M233.5 42q-82.5 46 -129.5 127t-47 181t47 181t129.5 127t184.5 46t185 -46t130 -127t47 -181t-47 -181t-130 -127t-185 -46t-184.5 46zM585 69q75 42 118 116t43 165t-43 165t-118 116t-167 42t-166.5 -42t-117.5 -116t-43 -165t43 -165t117.5 -116t166.5 -42t167 42z
M523 757l-105 62l-105 -62h-40l125 83h40l125 -83h-40zM418 936h52l125 -102h-38z" />
    <glyph glyph-name="uni1ED4" unicode="&#x1ed4;" horiz-adv-x="837" 
d="M233.5 42q-82.5 46 -129.5 127t-47 181t47 181t129.5 127t184.5 46t185 -46t130 -127t47 -181t-47 -181t-130 -127t-185 -46t-184.5 46zM585 69q75 42 118 116t43 165t-43 165t-118 116t-167 42t-166.5 -42t-117.5 -116t-43 -165t43 -165t117.5 -116t166.5 -42t167 42z
M523 757l-105 62l-105 -62h-40l125 83h40l125 -83h-40zM515 837q21 10 33 24t12 30t-11.5 26t-30.5 10q-23 0 -43 -13l-9 19q22 17 55 17q29 0 46 -16t17 -42q0 -23 -14.5 -42t-41.5 -31z" />
    <glyph glyph-name="uni1ED6" unicode="&#x1ed6;" horiz-adv-x="837" 
d="M233.5 42q-82.5 46 -129.5 127t-47 181t47 181t129.5 127t184.5 46t185 -46t130 -127t47 -181t-47 -181t-130 -127t-185 -46t-184.5 46zM585 69q75 42 118 116t43 165t-43 165t-118 116t-167 42t-166.5 -42t-117.5 -116t-43 -165t43 -165t117.5 -116t166.5 -42t167 42z
M523 757l-105 62l-105 -62h-40l125 83h40l125 -83h-40zM445 882q-16 8 -35 22q-20 13 -30.5 18.5t-23.5 5.5q-23 0 -37 -13.5t-15 -37.5h-25q1 35 22 55.5t55 20.5q19 0 34.5 -7.5t35.5 -22.5q20 -13 30.5 -18.5t23.5 -5.5q23 0 37.5 13t15.5 37h24q-1 -34 -21.5 -54.5
t-54.5 -20.5q-20 0 -36 8z" />
    <glyph glyph-name="uni020C" unicode="&#x20c;" horiz-adv-x="837" 
d="M233.5 42q-82.5 46 -129.5 127t-47 181t47 181t129.5 127t184.5 46t185 -46t130 -127t47 -181t-47 -181t-130 -127t-185 -46t-184.5 46zM585 69q75 42 118 116t43 165t-43 165t-118 116t-167 42t-166.5 -42t-117.5 -116t-43 -165t43 -165t117.5 -116t166.5 -42t167 42z
M211 870h45l108 -113h-37zM356 870h45l108 -113h-37z" />
    <glyph glyph-name="Odieresis" unicode="&#xd6;" horiz-adv-x="837" 
d="M233.5 42q-82.5 46 -129.5 127t-47 181t47 181t129.5 127t184.5 46t185 -46t130 -127t47 -181t-47 -181t-130 -127t-185 -46t-184.5 46zM585 69q75 42 118 116t43 165t-43 165t-118 116t-167 42t-166.5 -42t-117.5 -116t-43 -165t43 -165t117.5 -116t166.5 -42t167 42z
M313 797q-9 9 -9 21q0 13 9 22t21 9q13 0 21.5 -9t8.5 -22q0 -12 -8.5 -21t-21.5 -9q-12 0 -21 9zM480.5 797q-8.5 9 -8.5 21q0 13 8.5 22t21.5 9q12 0 21 -9t9 -22q0 -12 -9 -21t-21 -9q-13 0 -21.5 9z" />
    <glyph glyph-name="uni022A" unicode="&#x22a;" horiz-adv-x="837" 
d="M233.5 42q-82.5 46 -129.5 127t-47 181t47 181t129.5 127t184.5 46t185 -46t130 -127t47 -181t-47 -181t-130 -127t-185 -46t-184.5 46zM585 69q75 42 118 116t43 165t-43 165t-118 116t-167 42t-166.5 -42t-117.5 -116t-43 -165t43 -165t117.5 -116t166.5 -42t167 42z
M313.5 797q-8.5 9 -8.5 21q0 13 8.5 21.5t21.5 8.5q12 0 21 -8.5t9 -21.5q0 -12 -9 -21t-21 -9q-13 0 -21.5 9zM480.5 797q-8.5 9 -8.5 21q0 13 8.5 21.5t21.5 8.5q12 0 21 -8.5t9 -21.5q0 -12 -9 -21t-21 -9q-13 0 -21.5 9zM277 930h282v-26h-282v26z" />
    <glyph glyph-name="uni0230" unicode="&#x230;" horiz-adv-x="837" 
d="M233.5 42q-82.5 46 -129.5 127t-47 181t47 181t129.5 127t184.5 46t185 -46t130 -127t47 -181t-47 -181t-130 -127t-185 -46t-184.5 46zM585 69q75 42 118 116t43 165t-43 165t-118 116t-167 42t-166.5 -42t-117.5 -116t-43 -165t43 -165t117.5 -116t166.5 -42t167 42z
M397 797q-9 9 -9 21q0 13 9 22t21 9t21 -9t9 -22q0 -12 -9 -21t-21 -9t-21 9zM277 930h282v-26h-282v26z" />
    <glyph glyph-name="uni1ECC" unicode="&#x1ecc;" horiz-adv-x="837" 
d="M233.5 42q-82.5 46 -129.5 127t-47 181t47 181t129.5 127t184.5 46t185 -46t130 -127t47 -181t-47 -181t-130 -127t-185 -46t-184.5 46zM585 69q75 42 118 116t43 165t-43 165t-118 116t-167 42t-166.5 -42t-117.5 -116t-43 -165t43 -165t117.5 -116t166.5 -42t167 42z
M397 -170.5q-9 8.5 -9 21.5q0 12 9 21t21 9t21 -9t9 -21q0 -13 -9 -21.5t-21 -8.5t-21 8.5z" />
    <glyph glyph-name="Ograve" unicode="&#xd2;" horiz-adv-x="837" 
d="M233.5 42q-82.5 46 -129.5 127t-47 181t47 181t129.5 127t184.5 46t185 -46t130 -127t47 -181t-47 -181t-130 -127t-185 -46t-184.5 46zM585 69q75 42 118 116t43 165t-43 165t-118 116t-167 42t-166.5 -42t-117.5 -116t-43 -165t43 -165t117.5 -116t166.5 -42t167 42z
M275 870h54l139 -113h-40z" />
    <glyph glyph-name="uni1ECE" unicode="&#x1ece;" horiz-adv-x="837" 
d="M233.5 42q-82.5 46 -129.5 127t-47 181t47 181t129.5 127t184.5 46t185 -46t130 -127t47 -181t-47 -181t-130 -127t-185 -46t-184.5 46zM585 69q75 42 118 116t43 165t-43 165t-118 116t-167 42t-166.5 -42t-117.5 -116t-43 -165t43 -165t117.5 -116t166.5 -42t167 42z
M409 772q62 27 62 75q0 23 -16 38t-41 15q-33 0 -62 -19l-10 22q14 10 34 16t39 6q38 0 60 -20.5t22 -54.5q0 -32 -18 -55.5t-56 -42.5z" />
    <glyph glyph-name="Ohorn" unicode="&#x1a0;" horiz-adv-x="837" 
d="M728 537.5q52 -84.5 52 -187.5q0 -100 -47 -181t-130 -127t-185 -46t-184.5 46t-129.5 127t-47 181t47 181t130 127t185 46q48 0 118 -8q53 -7 88 -7q108 0 108 80q0 32 -20 67l25 10q10 -16 16.5 -36t6.5 -40q0 -107 -137 -107q-10 0 -38 2q90 -43 142 -127.5zM585 69.5
q75 42.5 118 116.5t43 164t-43 164t-118 116.5t-167 42.5t-166.5 -42.5t-117.5 -116.5t-43 -164t43 -164t117.5 -116.5t166.5 -42.5t167 42.5z" />
    <glyph glyph-name="uni1EDA" unicode="&#x1eda;" horiz-adv-x="837" 
d="M728 537.5q52 -84.5 52 -187.5q0 -100 -47 -181t-130 -127t-185 -46t-184.5 46t-129.5 127t-47 181t47 181t130 127t185 46q48 0 118 -8q53 -7 88 -7q108 0 108 80q0 32 -20 67l25 10q10 -16 16.5 -36t6.5 -40q0 -107 -137 -107q-10 0 -38 2q90 -43 142 -127.5zM585 69.5
q75 42.5 118 116.5t43 164t-43 164t-118 116.5t-167 42.5t-166.5 -42.5t-117.5 -116.5t-43 -164t43 -164t117.5 -116.5t166.5 -42.5t167 42.5zM507 870h54l-153 -113h-40z" />
    <glyph glyph-name="uni1EE2" unicode="&#x1ee2;" horiz-adv-x="837" 
d="M728 537.5q52 -84.5 52 -187.5q0 -100 -47 -181t-130 -127t-185 -46t-184.5 46t-129.5 127t-47 181t47 181t130 127t185 46q48 0 118 -8q53 -7 88 -7q108 0 108 80q0 32 -20 67l25 10q10 -16 16.5 -36t6.5 -40q0 -107 -137 -107q-10 0 -38 2q90 -43 142 -127.5zM585 69.5
q75 42.5 118 116.5t43 164t-43 164t-118 116.5t-167 42.5t-166.5 -42.5t-117.5 -116.5t-43 -164t43 -164t117.5 -116.5t166.5 -42.5t167 42.5zM397 -170.5q-9 8.5 -9 21.5q0 12 9 21t21 9t21 -9t9 -21q0 -13 -9 -21.5t-21 -8.5t-21 8.5z" />
    <glyph glyph-name="uni1EDC" unicode="&#x1edc;" horiz-adv-x="837" 
d="M728 537.5q52 -84.5 52 -187.5q0 -100 -47 -181t-130 -127t-185 -46t-184.5 46t-129.5 127t-47 181t47 181t130 127t185 46q48 0 118 -8q53 -7 88 -7q108 0 108 80q0 32 -20 67l25 10q10 -16 16.5 -36t6.5 -40q0 -107 -137 -107q-10 0 -38 2q90 -43 142 -127.5zM585 69.5
q75 42.5 118 116.5t43 164t-43 164t-118 116.5t-167 42.5t-166.5 -42.5t-117.5 -116.5t-43 -164t43 -164t117.5 -116.5t166.5 -42.5t167 42.5zM275 870h54l139 -113h-40z" />
    <glyph glyph-name="uni1EDE" unicode="&#x1ede;" horiz-adv-x="837" 
d="M728 537.5q52 -84.5 52 -187.5q0 -100 -47 -181t-130 -127t-185 -46t-184.5 46t-129.5 127t-47 181t47 181t130 127t185 46q48 0 118 -8q53 -7 88 -7q108 0 108 80q0 32 -20 67l25 10q10 -16 16.5 -36t6.5 -40q0 -107 -137 -107q-10 0 -38 2q90 -43 142 -127.5zM585 69.5
q75 42.5 118 116.5t43 164t-43 164t-118 116.5t-167 42.5t-166.5 -42.5t-117.5 -116.5t-43 -164t43 -164t117.5 -116.5t166.5 -42.5t167 42.5zM409 772q62 27 62 75q0 23 -16 38t-41 15q-33 0 -62 -19l-10 22q14 10 34 16t39 6q38 0 60 -20.5t22 -54.5q0 -32 -18 -55.5
t-56 -42.5z" />
    <glyph glyph-name="uni1EE0" unicode="&#x1ee0;" horiz-adv-x="837" 
d="M728 537.5q52 -84.5 52 -187.5q0 -100 -47 -181t-130 -127t-185 -46t-184.5 46t-129.5 127t-47 181t47 181t130 127t185 46q48 0 118 -8q53 -7 88 -7q108 0 108 80q0 32 -20 67l25 10q10 -16 16.5 -36t6.5 -40q0 -107 -137 -107q-10 0 -38 2q90 -43 142 -127.5zM585 69.5
q75 42.5 118 116.5t43 164t-43 164t-118 116.5t-167 42.5t-166.5 -42.5t-117.5 -116.5t-43 -164t43 -164t117.5 -116.5t166.5 -42.5t167 42.5zM445.5 776.5q-15.5 9.5 -36.5 28.5q-16 15 -28.5 23t-25.5 8q-24 0 -37.5 -17.5t-15.5 -48.5h-25q2 42 22.5 67t54.5 25
q21 0 36.5 -9.5t36.5 -28.5q16 -15 28.5 -23t25.5 -8q24 0 37.5 17.5t15.5 46.5h25q-2 -40 -22.5 -65t-54.5 -25q-21 0 -36.5 9.5z" />
    <glyph glyph-name="Ohungarumlaut" unicode="&#x150;" horiz-adv-x="837" 
d="M233.5 42q-82.5 46 -129.5 127t-47 181t47 181t129.5 127t184.5 46t185 -46t130 -127t47 -181t-47 -181t-130 -127t-185 -46t-184.5 46zM585 69q75 42 118 116t43 165t-43 165t-118 116t-167 42t-166.5 -42t-117.5 -116t-43 -165t43 -165t117.5 -116t166.5 -42t167 42z
M435 870h45l-116 -113h-37zM580 870h45l-116 -113h-37z" />
    <glyph glyph-name="uni020E" unicode="&#x20e;" horiz-adv-x="837" 
d="M233.5 42q-82.5 46 -129.5 127t-47 181t47 181t129.5 127t184.5 46t185 -46t130 -127t47 -181t-47 -181t-130 -127t-185 -46t-184.5 46zM585 69q75 42 118 116t43 165t-43 165t-118 116t-167 42t-166.5 -42t-117.5 -116t-43 -165t43 -165t117.5 -116t166.5 -42t167 42z
M321 842q39 32 97 32t97 -32t40 -85h-27q-1 42 -32.5 67t-77.5 25t-77.5 -25t-32.5 -67h-27q1 53 40 85z" />
    <glyph glyph-name="Omacron" unicode="&#x14c;" horiz-adv-x="837" 
d="M233.5 42q-82.5 46 -129.5 127t-47 181t47 181t129.5 127t184.5 46t185 -46t130 -127t47 -181t-47 -181t-130 -127t-185 -46t-184.5 46zM585 69q75 42 118 116t43 165t-43 165t-118 116t-167 42t-166.5 -42t-117.5 -116t-43 -165t43 -165t117.5 -116t166.5 -42t167 42z
M277 827h282v-27h-282v27z" />
    <glyph glyph-name="uni1E52" unicode="&#x1e52;" horiz-adv-x="837" 
d="M233.5 42q-82.5 46 -129.5 127t-47 181t47 181t129.5 127t184.5 46t185 -46t130 -127t47 -181t-47 -181t-130 -127t-185 -46t-184.5 46zM585 69q75 42 118 116t43 165t-43 165t-118 116t-167 42t-166.5 -42t-117.5 -116t-43 -165t43 -165t117.5 -116t166.5 -42t167 42z
M277 812h282v-26h-282v26zM494 977h52l-139 -102h-38z" />
    <glyph glyph-name="uni1E50" unicode="&#x1e50;" horiz-adv-x="837" 
d="M233.5 42q-82.5 46 -129.5 127t-47 181t47 181t129.5 127t184.5 46t185 -46t130 -127t47 -181t-47 -181t-130 -127t-185 -46t-184.5 46zM585 69q75 42 118 116t43 165t-43 165t-118 116t-167 42t-166.5 -42t-117.5 -116t-43 -165t43 -165t117.5 -116t166.5 -42t167 42z
M277 812h282v-26h-282v26zM290 977h52l125 -102h-38z" />
    <glyph glyph-name="uni01EA" unicode="&#x1ea;" horiz-adv-x="837" 
d="M603 658q83 -46 130 -127t47 -181q0 -89 -37 -161.5t-99.5 -119.5t-139.5 -63q-65 -13 -110.5 -50.5t-45.5 -83.5q0 -30 19.5 -46t50.5 -16q37 0 62 22l12 -20q-31 -27 -76 -27q-43 0 -69.5 23.5t-26.5 62.5q0 31 21 63.5t71 61.5q-100 1 -181 47.5t-127.5 127
t-46.5 179.5q0 100 47 181t129.5 127t184.5 46t185 -46zM585 69q75 42 118 116t43 165t-43 165t-118 116t-167 42t-166.5 -42t-117.5 -116t-43 -165t43 -165t117.5 -116t166.5 -42t167 42z" />
    <glyph glyph-name="Oslash" unicode="&#xd8;" horiz-adv-x="837" 
d="M233.5 42q-82.5 46 -129.5 127t-47 181t47 181t129.5 127t184.5 46t185 -46t130 -127t47 -181t-47 -181t-130 -127t-185 -46t-184.5 46zM585 69q75 42 118 116t43 165t-43 165t-118 116t-167 42t-166.5 -42t-117.5 -116t-43 -165t43 -165t117.5 -116t166.5 -42t167 42z
M709 770h32l-613 -840h-32z" />
    <glyph glyph-name="Oslashacute" unicode="&#x1fe;" horiz-adv-x="837" 
d="M233.5 42q-82.5 46 -129.5 127t-47 181t47 181t129.5 127t184.5 46t185 -46t130 -127t47 -181t-47 -181t-130 -127t-185 -46t-184.5 46zM585 69q75 42 118 116t43 165t-43 165t-118 116t-167 42t-166.5 -42t-117.5 -116t-43 -165t43 -165t117.5 -116t166.5 -42t167 42z
M709 770h32l-613 -840h-32zM507 870h54l-153 -113h-40z" />
    <glyph glyph-name="Otilde" unicode="&#xd5;" horiz-adv-x="837" 
d="M233.5 42q-82.5 46 -129.5 127t-47 181t47 181t129.5 127t184.5 46t185 -46t130 -127t47 -181t-47 -181t-130 -127t-185 -46t-184.5 46zM585 69q75 42 118 116t43 165t-43 165t-118 116t-167 42t-166.5 -42t-117.5 -116t-43 -165t43 -165t117.5 -116t166.5 -42t167 42z
M445.5 776.5q-15.5 9.5 -36.5 28.5q-16 15 -28.5 23t-25.5 8q-24 0 -37.5 -17.5t-15.5 -48.5h-25q2 42 22.5 67t54.5 25q21 0 36.5 -9.5t36.5 -28.5q16 -15 28.5 -23t25.5 -8q24 0 37.5 17.5t15.5 46.5h25q-2 -40 -22.5 -65t-54.5 -25q-21 0 -36.5 9.5z" />
    <glyph glyph-name="uni1E4C" unicode="&#x1e4c;" horiz-adv-x="837" 
d="M233.5 42q-82.5 46 -129.5 127t-47 181t47 181t129.5 127t184.5 46t185 -46t130 -127t47 -181t-47 -181t-130 -127t-185 -46t-184.5 46zM585 69q75 42 118 116t43 165t-43 165t-118 116t-167 42t-166.5 -42t-117.5 -116t-43 -165t43 -165t117.5 -116t166.5 -42t167 42z
M445 778q-16 8 -35 22q-20 13 -30.5 18.5t-23.5 5.5q-23 0 -37 -13.5t-15 -37.5h-25q1 35 22 55.5t55 20.5q19 0 34.5 -7.5t35.5 -22.5q20 -13 30.5 -18.5t23.5 -5.5q23 0 37.5 13t15.5 37h24q-1 -34 -21.5 -54.5t-54.5 -20.5q-20 0 -36 8zM494 977h52l-139 -102h-38z" />
    <glyph glyph-name="uni1E4E" unicode="&#x1e4e;" horiz-adv-x="837" 
d="M233.5 42q-82.5 46 -129.5 127t-47 181t47 181t129.5 127t184.5 46t185 -46t130 -127t47 -181t-47 -181t-130 -127t-185 -46t-184.5 46zM585 69q75 42 118 116t43 165t-43 165t-118 116t-167 42t-166.5 -42t-117.5 -116t-43 -165t43 -165t117.5 -116t166.5 -42t167 42z
M445 778q-16 8 -35 22q-20 13 -30.5 18.5t-23.5 5.5q-23 0 -37 -13.5t-15 -37.5h-25q1 35 22 55.5t55 20.5q19 0 34.5 -7.5t35.5 -22.5q20 -13 30.5 -18.5t23.5 -5.5q23 0 37.5 13t15.5 37h24q-1 -34 -21.5 -54.5t-54.5 -20.5q-20 0 -36 8zM313.5 915q-8.5 9 -8.5 21
q0 13 8.5 21.5t21.5 8.5q12 0 21 -8.5t9 -21.5q0 -12 -9 -21t-21 -9q-13 0 -21.5 9zM480.5 915q-8.5 9 -8.5 21q0 13 8.5 21.5t21.5 8.5q12 0 21 -8.5t9 -21.5q0 -12 -9 -21t-21 -9q-13 0 -21.5 9z" />
    <glyph glyph-name="uni022C" unicode="&#x22c;" horiz-adv-x="837" 
d="M233.5 42q-82.5 46 -129.5 127t-47 181t47 181t129.5 127t184.5 46t185 -46t130 -127t47 -181t-47 -181t-130 -127t-185 -46t-184.5 46zM585 69q75 42 118 116t43 165t-43 165t-118 116t-167 42t-166.5 -42t-117.5 -116t-43 -165t43 -165t117.5 -116t166.5 -42t167 42z
M445 778q-16 8 -35 22q-20 13 -30.5 18.5t-23.5 5.5q-23 0 -37 -13.5t-15 -37.5h-25q1 35 22 55.5t55 20.5q19 0 34.5 -7.5t35.5 -22.5q20 -13 30.5 -18.5t23.5 -5.5q23 0 37.5 13t15.5 37h24q-1 -34 -21.5 -54.5t-54.5 -20.5q-20 0 -36 8zM277 930h282v-26h-282v26z" />
    <glyph glyph-name="OE" unicode="&#x152;" horiz-adv-x="1114" 
d="M1047 31v-31h-619q-109 0 -193.5 44.5t-131 124t-46.5 180.5t46.5 181t131 125t193.5 45h605v-31h-425v-298h380v-31h-380v-309h439zM574 31v638h-145q-101 0 -177.5 -41t-118.5 -114t-42 -165t42 -164.5t118.5 -113t177.5 -40.5h145z" />
    <glyph glyph-name="P" unicode="P" horiz-adv-x="712" 
d="M575.5 638.5q73.5 -61.5 73.5 -170.5q0 -110 -73.5 -171.5t-204.5 -61.5h-209v-235h-34v700h243q131 0 204.5 -61.5zM553 318.5q63 52.5 63 149.5q0 96 -63 148.5t-180 52.5h-211v-403h211q117 0 180 52.5z" />
    <glyph glyph-name="Thorn" unicode="&#xde;" horiz-adv-x="712" 
d="M575.5 540.5q73.5 -61.5 73.5 -170.5q0 -110 -73.5 -171.5t-204.5 -61.5h-209v-137h-34v700h34v-98h209q131 0 204.5 -61.5zM553 220q63 53 63 150q0 96 -63 149t-180 53h-211v-405h211q117 0 180 53z" />
    <glyph glyph-name="Q" unicode="Q" horiz-adv-x="837" 
d="M810 -51q-31 -38 -72 -57.5t-90 -19.5q-54 0 -107 29.5t-116 94.5h-7q-102 0 -184.5 46t-129.5 127t-47 181t47 181t129.5 127t184.5 46t185 -46t130 -127t47 -181q0 -92 -40 -167.5t-110.5 -124t-159.5 -59.5q92 -98 179 -98q82 0 142 70zM134 186q43 -74 117.5 -116.5
t166.5 -42.5t167 42.5t118 116.5t43 164t-43 164t-118 116.5t-167 42.5t-166.5 -42.5t-117.5 -116.5t-43 -164t43 -164z" />
    <glyph glyph-name="R" unicode="R" horiz-adv-x="718" 
d="M620 0l-173 241q-34 -6 -76 -6h-209v-235h-34v700h243q131 0 204.5 -61.5t73.5 -170.5q0 -84 -43.5 -140.5t-124.5 -78.5l179 -249h-40zM373 266q117 0 180 52.5t63 149.5q0 96 -63 148.5t-180 52.5h-211v-403h211z" />
    <glyph glyph-name="Racute" unicode="&#x154;" horiz-adv-x="718" 
d="M620 0l-173 241q-34 -6 -76 -6h-209v-235h-34v700h243q131 0 204.5 -61.5t73.5 -170.5q0 -84 -43.5 -140.5t-124.5 -78.5l179 -249h-40zM373 266q117 0 180 52.5t63 149.5q0 96 -63 148.5t-180 52.5h-211v-403h211zM456 870h54l-153 -113h-40z" />
    <glyph glyph-name="Rcaron" unicode="&#x158;" horiz-adv-x="718" 
d="M620 0l-173 241q-34 -6 -76 -6h-209v-235h-34v700h243q131 0 204.5 -61.5t73.5 -170.5q0 -84 -43.5 -140.5t-124.5 -78.5l179 -249h-40zM373 266q117 0 180 52.5t63 149.5q0 96 -63 148.5t-180 52.5h-211v-403h211zM512 870l-124 -113h-42l-124 113h37l108 -90l108 90h37
z" />
    <glyph glyph-name="Rcommaaccent" unicode="&#x156;" horiz-adv-x="718" 
d="M620 0l-173 241q-34 -6 -76 -6h-209v-235h-34v700h243q131 0 204.5 -61.5t73.5 -170.5q0 -84 -43.5 -140.5t-124.5 -78.5l179 -249h-40zM373 266q117 0 180 52.5t63 149.5q0 96 -63 148.5t-180 52.5h-211v-403h211zM389 -128q8 -9 8 -20q0 -13 -7 -36l-24 -76h-24l19 83
q-10 1 -17 9.5t-7 19.5q0 12 8.5 20.5t21.5 8.5q14 0 22 -9z" />
    <glyph glyph-name="uni0210" unicode="&#x210;" horiz-adv-x="718" 
d="M620 0l-173 241q-34 -6 -76 -6h-209v-235h-34v700h243q131 0 204.5 -61.5t73.5 -170.5q0 -84 -43.5 -140.5t-124.5 -78.5l179 -249h-40zM373 266q117 0 180 52.5t63 149.5q0 96 -63 148.5t-180 52.5h-211v-403h211zM160 870h45l108 -113h-37zM305 870h45l108 -113h-37z
" />
    <glyph glyph-name="uni1E5A" unicode="&#x1e5a;" horiz-adv-x="718" 
d="M620 0l-173 241q-34 -6 -76 -6h-209v-235h-34v700h243q131 0 204.5 -61.5t73.5 -170.5q0 -84 -43.5 -140.5t-124.5 -78.5l179 -249h-40zM373 266q117 0 180 52.5t63 149.5q0 96 -63 148.5t-180 52.5h-211v-403h211zM346 -170.5q-9 8.5 -9 21.5q0 12 9 21t21 9t21 -9
t9 -21q0 -13 -9 -21.5t-21 -8.5t-21 8.5z" />
    <glyph glyph-name="uni0212" unicode="&#x212;" horiz-adv-x="718" 
d="M620 0l-173 241q-34 -6 -76 -6h-209v-235h-34v700h243q131 0 204.5 -61.5t73.5 -170.5q0 -84 -43.5 -140.5t-124.5 -78.5l179 -249h-40zM373 266q117 0 180 52.5t63 149.5q0 96 -63 148.5t-180 52.5h-211v-403h211zM270 842q39 32 97 32t97 -32t40 -85h-27
q-1 42 -32.5 67t-77.5 25t-77.5 -25t-32.5 -67h-27q1 53 40 85z" />
    <glyph glyph-name="uni1E5E" unicode="&#x1e5e;" horiz-adv-x="718" 
d="M620 0l-173 241q-34 -6 -76 -6h-209v-235h-34v700h243q131 0 204.5 -61.5t73.5 -170.5q0 -84 -43.5 -140.5t-124.5 -78.5l179 -249h-40zM373 266q117 0 180 52.5t63 149.5q0 96 -63 148.5t-180 52.5h-211v-403h211zM226 -135h282v-27h-282v27z" />
    <glyph glyph-name="S" unicode="S" horiz-adv-x="604" 
d="M160.5 23q-68.5 27 -105.5 70l18 24q35 -40 97.5 -65.5t133.5 -25.5q105 0 158.5 41.5t53.5 106.5q0 50 -28 80.5t-69 46t-112 32.5q-76 19 -122 37t-78 55t-32 99q0 49 26 90t79.5 65.5t133.5 24.5q57 0 112.5 -17t94.5 -47l-15 -27q-41 30 -91.5 45.5t-99.5 15.5
q-102 0 -154.5 -42.5t-52.5 -107.5q0 -51 28.5 -81.5t70 -46.5t111.5 -33q76 -19 122 -36.5t77.5 -54t31.5 -97.5q0 -49 -26.5 -90t-81.5 -65t-136 -24q-76 0 -144.5 27z" />
    <glyph glyph-name="Sacute" unicode="&#x15a;" horiz-adv-x="604" 
d="M160.5 23q-68.5 27 -105.5 70l18 24q35 -40 97.5 -65.5t133.5 -25.5q105 0 158.5 41.5t53.5 106.5q0 50 -28 80.5t-69 46t-112 32.5q-76 19 -122 37t-78 55t-32 99q0 49 26 90t79.5 65.5t133.5 24.5q57 0 112.5 -17t94.5 -47l-15 -27q-41 30 -91.5 45.5t-99.5 15.5
q-102 0 -154.5 -42.5t-52.5 -107.5q0 -51 28.5 -81.5t70 -46.5t111.5 -33q76 -19 122 -36.5t77.5 -54t31.5 -97.5q0 -49 -26.5 -90t-81.5 -65t-136 -24q-76 0 -144.5 27zM408 870h54l-153 -113h-40z" />
    <glyph glyph-name="uni1E64" unicode="&#x1e64;" horiz-adv-x="604" 
d="M160.5 23q-68.5 27 -105.5 70l18 24q35 -40 97.5 -65.5t133.5 -25.5q105 0 158.5 41.5t53.5 106.5q0 50 -28 80.5t-69 46t-112 32.5q-76 19 -122 37t-78 55t-32 99q0 49 26 90t79.5 65.5t133.5 24.5q57 0 112.5 -17t94.5 -47l-15 -27q-41 30 -91.5 45.5t-99.5 15.5
q-102 0 -154.5 -42.5t-52.5 -107.5q0 -51 28.5 -81.5t70 -46.5t111.5 -33q76 -19 122 -36.5t77.5 -54t31.5 -97.5q0 -49 -26.5 -90t-81.5 -65t-136 -24q-76 0 -144.5 27zM395 859h52l-139 -102h-38zM298 915q-9 9 -9 21q0 13 9 22t21 9t21 -9t9 -22q0 -12 -9 -21t-21 -9
t-21 9z" />
    <glyph glyph-name="uniA78B" unicode="&#xa78b;" horiz-adv-x="217" 
d="M92 700h33l-2 -401h-31v401z" />
    <glyph glyph-name="Scaron" unicode="&#x160;" horiz-adv-x="604" 
d="M160.5 23q-68.5 27 -105.5 70l18 24q35 -40 97.5 -65.5t133.5 -25.5q105 0 158.5 41.5t53.5 106.5q0 50 -28 80.5t-69 46t-112 32.5q-76 19 -122 37t-78 55t-32 99q0 49 26 90t79.5 65.5t133.5 24.5q57 0 112.5 -17t94.5 -47l-15 -27q-41 30 -91.5 45.5t-99.5 15.5
q-102 0 -154.5 -42.5t-52.5 -107.5q0 -51 28.5 -81.5t70 -46.5t111.5 -33q76 -19 122 -36.5t77.5 -54t31.5 -97.5q0 -49 -26.5 -90t-81.5 -65t-136 -24q-76 0 -144.5 27zM464 870l-124 -113h-42l-124 113h37l108 -90l108 90h37z" />
    <glyph glyph-name="uni1E66" unicode="&#x1e66;" horiz-adv-x="604" 
d="M160.5 23q-68.5 27 -105.5 70l18 24q35 -40 97.5 -65.5t133.5 -25.5q105 0 158.5 41.5t53.5 106.5q0 50 -28 80.5t-69 46t-112 32.5q-76 19 -122 37t-78 55t-32 99q0 49 26 90t79.5 65.5t133.5 24.5q57 0 112.5 -17t94.5 -47l-15 -27q-41 30 -91.5 45.5t-99.5 15.5
q-102 0 -154.5 -42.5t-52.5 -107.5q0 -51 28.5 -81.5t70 -46.5t111.5 -33q76 -19 122 -36.5t77.5 -54t31.5 -97.5q0 -49 -26.5 -90t-81.5 -65t-136 -24q-76 0 -144.5 27zM464 840l-125 -83h-40l-125 83h40l105 -62l105 62h40zM298 892q-9 9 -9 21q0 13 9 22t21 9t21 -9
t9 -22q0 -12 -9 -21t-21 -9t-21 9z" />
    <glyph glyph-name="Scedilla" unicode="&#x15e;" horiz-adv-x="604" 
d="M160.5 23q-68.5 27 -105.5 70l18 24q35 -40 97.5 -65.5t133.5 -25.5q105 0 158.5 41.5t53.5 106.5q0 50 -28 80.5t-69 46t-112 32.5q-76 19 -122 37t-78 55t-32 99q0 49 26 90t79.5 65.5t133.5 24.5q57 0 112.5 -17t94.5 -47l-15 -27q-41 30 -91.5 45.5t-99.5 15.5
q-102 0 -154.5 -42.5t-52.5 -107.5q0 -51 28.5 -81.5t70 -46.5t111.5 -33q76 -19 122 -36.5t77.5 -54t31.5 -97.5q0 -49 -26.5 -90t-81.5 -65t-136 -24q-76 0 -144.5 27zM225 -189l13 21q25 -22 63 -22q31 0 50 15t19 42q0 25 -18.5 40.5t-50.5 15.5h-18l23 82h25l-17 -60
q39 -2 61.5 -23.5t22.5 -55.5q0 -36 -27.5 -58.5t-69.5 -22.5q-44 0 -76 26z" />
    <glyph glyph-name="Scircumflex" unicode="&#x15c;" horiz-adv-x="604" 
d="M160.5 23q-68.5 27 -105.5 70l18 24q35 -40 97.5 -65.5t133.5 -25.5q105 0 158.5 41.5t53.5 106.5q0 50 -28 80.5t-69 46t-112 32.5q-76 19 -122 37t-78 55t-32 99q0 49 26 90t79.5 65.5t133.5 24.5q57 0 112.5 -17t94.5 -47l-15 -27q-41 30 -91.5 45.5t-99.5 15.5
q-102 0 -154.5 -42.5t-52.5 -107.5q0 -51 28.5 -81.5t70 -46.5t111.5 -33q76 -19 122 -36.5t77.5 -54t31.5 -97.5q0 -49 -26.5 -90t-81.5 -65t-136 -24q-76 0 -144.5 27zM427 757l-108 90l-108 -90h-37l124 113h42l124 -113h-37z" />
    <glyph glyph-name="Scommaaccent" unicode="&#x218;" horiz-adv-x="604" 
d="M160.5 23q-68.5 27 -105.5 70l18 24q35 -40 97.5 -65.5t133.5 -25.5q105 0 158.5 41.5t53.5 106.5q0 50 -28 80.5t-69 46t-112 32.5q-76 19 -122 37t-78 55t-32 99q0 49 26 90t79.5 65.5t133.5 24.5q57 0 112.5 -17t94.5 -47l-15 -27q-41 30 -91.5 45.5t-99.5 15.5
q-102 0 -154.5 -42.5t-52.5 -107.5q0 -51 28.5 -81.5t70 -46.5t111.5 -33q76 -19 122 -36.5t77.5 -54t31.5 -97.5q0 -49 -26.5 -90t-81.5 -65t-136 -24q-76 0 -144.5 27zM341 -128q8 -9 8 -20q0 -13 -7 -36l-24 -76h-24l19 83q-10 1 -17 9.5t-7 19.5q0 12 8.5 20.5t21.5 8.5
q14 0 22 -9z" />
    <glyph glyph-name="uni1E60" unicode="&#x1e60;" horiz-adv-x="604" 
d="M160.5 23q-68.5 27 -105.5 70l18 24q35 -40 97.5 -65.5t133.5 -25.5q105 0 158.5 41.5t53.5 106.5q0 50 -28 80.5t-69 46t-112 32.5q-76 19 -122 37t-78 55t-32 99q0 49 26 90t79.5 65.5t133.5 24.5q57 0 112.5 -17t94.5 -47l-15 -27q-41 30 -91.5 45.5t-99.5 15.5
q-102 0 -154.5 -42.5t-52.5 -107.5q0 -51 28.5 -81.5t70 -46.5t111.5 -33q76 -19 122 -36.5t77.5 -54t31.5 -97.5q0 -49 -26.5 -90t-81.5 -65t-136 -24q-76 0 -144.5 27zM296.5 797.5q-9.5 9.5 -9.5 22.5t9.5 22.5t22.5 9.5t22.5 -9.5t9.5 -22.5t-9.5 -22.5t-22.5 -9.5
t-22.5 9.5z" />
    <glyph glyph-name="uni1E62" unicode="&#x1e62;" horiz-adv-x="604" 
d="M160.5 23q-68.5 27 -105.5 70l18 24q35 -40 97.5 -65.5t133.5 -25.5q105 0 158.5 41.5t53.5 106.5q0 50 -28 80.5t-69 46t-112 32.5q-76 19 -122 37t-78 55t-32 99q0 49 26 90t79.5 65.5t133.5 24.5q57 0 112.5 -17t94.5 -47l-15 -27q-41 30 -91.5 45.5t-99.5 15.5
q-102 0 -154.5 -42.5t-52.5 -107.5q0 -51 28.5 -81.5t70 -46.5t111.5 -33q76 -19 122 -36.5t77.5 -54t31.5 -97.5q0 -49 -26.5 -90t-81.5 -65t-136 -24q-76 0 -144.5 27zM298 -170.5q-9 8.5 -9 21.5q0 12 9 21t21 9t21 -9t9 -21q0 -13 -9 -21.5t-21 -8.5t-21 8.5z" />
    <glyph glyph-name="uni1E68" unicode="&#x1e68;" horiz-adv-x="604" 
d="M160.5 23q-68.5 27 -105.5 70l18 24q35 -40 97.5 -65.5t133.5 -25.5q105 0 158.5 41.5t53.5 106.5q0 50 -28 80.5t-69 46t-112 32.5q-76 19 -122 37t-78 55t-32 99q0 49 26 90t79.5 65.5t133.5 24.5q57 0 112.5 -17t94.5 -47l-15 -27q-41 30 -91.5 45.5t-99.5 15.5
q-102 0 -154.5 -42.5t-52.5 -107.5q0 -51 28.5 -81.5t70 -46.5t111.5 -33q76 -19 122 -36.5t77.5 -54t31.5 -97.5q0 -49 -26.5 -90t-81.5 -65t-136 -24q-76 0 -144.5 27zM298 -170.5q-9 8.5 -9 21.5q0 12 9 21t21 9t21 -9t9 -21q0 -13 -9 -21.5t-21 -8.5t-21 8.5z
M296.5 797.5q-9.5 9.5 -9.5 22.5t9.5 22.5t22.5 9.5t22.5 -9.5t9.5 -22.5t-9.5 -22.5t-22.5 -9.5t-22.5 9.5z" />
    <glyph glyph-name="uni1E9E" unicode="&#x1e9e;" horiz-adv-x="746" 
d="M621.5 344q61.5 -52 61.5 -148t-60.5 -148t-162.5 -52q-43 0 -75.5 6.5t-64.5 21.5l10 30q55 -28 128 -28q89 0 140 44t51 127t-51.5 126.5t-142.5 43.5q-52 0 -90 -12l-9 22l235 247q-71 55 -191 55q-117 0 -180.5 -67t-63.5 -193v-419h-34v421q0 136 73.5 212t204.5 76
q137 0 221 -71v-25l-210 -220q23 3 45 3q104 0 165.5 -52z" />
    <glyph glyph-name="uni018F" unicode="&#x18f;" horiz-adv-x="816" 
d="M583 658q82 -46 129 -126.5t47 -180.5q0 -97 -47 -178.5t-127.5 -129t-176.5 -47.5q-100 0 -180 46t-125.5 127t-45.5 182v13h668q-3 86 -46.5 157t-117 111.5t-162.5 40.5q-137 0 -229 -81l-20 24q48 43 111.5 65.5t137.5 22.5q102 0 184 -46zM563 67q71 40 114.5 110
t47.5 156h-634q4 -87 46 -157t113 -109.5t158 -39.5q84 0 155 40z" />
    <glyph glyph-name="T" unicode="T" horiz-adv-x="555" 
d="M261 669h-257v31h547v-31h-257v-669h-33v669z" />
    <glyph glyph-name="Tbar" unicode="&#x166;" horiz-adv-x="555" 
d="M261 669h-257v31h547v-31h-257v-669h-33v669zM94 367h366v-29h-366v29z" />
    <glyph glyph-name="Tcaron" unicode="&#x164;" horiz-adv-x="555" 
d="M261 669h-257v31h547v-31h-257v-669h-33v669zM422 870l-124 -113h-42l-124 113h37l108 -90l108 90h37z" />
    <glyph glyph-name="uni0162" unicode="&#x162;" horiz-adv-x="555" 
d="M261 669h-257v31h547v-31h-257v-669h-33v669zM183 -189l13 21q25 -22 63 -22q31 0 50 15t19 42q0 25 -18.5 40.5t-50.5 15.5h-18l23 82h25l-17 -60q39 -2 61.5 -23.5t22.5 -55.5q0 -36 -27.5 -58.5t-69.5 -22.5q-44 0 -76 26z" />
    <glyph glyph-name="uni021A" unicode="&#x21a;" horiz-adv-x="555" 
d="M261 669h-257v31h547v-31h-257v-669h-33v669zM299 -128q8 -9 8 -20q0 -13 -7 -36l-24 -76h-24l19 83q-10 1 -17 9.5t-7 19.5q0 12 8.5 20.5t21.5 8.5q14 0 22 -9z" />
    <glyph glyph-name="uni1E6C" unicode="&#x1e6c;" horiz-adv-x="555" 
d="M261 669h-257v31h547v-31h-257v-669h-33v669zM256 -170.5q-9 8.5 -9 21.5q0 12 9 21t21 9t21 -9t9 -21q0 -13 -9 -21.5t-21 -8.5t-21 8.5z" />
    <glyph glyph-name="uni1E6E" unicode="&#x1e6e;" horiz-adv-x="555" 
d="M261 669h-257v31h547v-31h-257v-669h-33v669zM136 -135h282v-27h-282v27z" />
    <glyph glyph-name="U" unicode="U" horiz-adv-x="793" 
d="M194.5 72q-72.5 76 -72.5 223v405h34v-404q0 -134 62 -201.5t179 -67.5q116 0 178.5 67.5t62.5 201.5v404h33v-405q0 -147 -72 -223t-202 -76t-202.5 76z" />
    <glyph glyph-name="Uacute" unicode="&#xda;" horiz-adv-x="793" 
d="M194.5 72q-72.5 76 -72.5 223v405h34v-404q0 -134 62 -201.5t179 -67.5q116 0 178.5 67.5t62.5 201.5v404h33v-405q0 -147 -72 -223t-202 -76t-202.5 76zM486 870h54l-153 -113h-40z" />
    <glyph glyph-name="Ubreve" unicode="&#x16c;" horiz-adv-x="793" 
d="M194.5 72q-72.5 76 -72.5 223v405h34v-404q0 -134 62 -201.5t179 -67.5q116 0 178.5 67.5t62.5 201.5v404h33v-405q0 -147 -72 -223t-202 -76t-202.5 76zM300 785.5q-39 31.5 -40 84.5h27q1 -41 32.5 -66t77.5 -25t77.5 25t32.5 66h27q-1 -53 -40 -84.5t-97 -31.5
t-97 31.5z" />
    <glyph glyph-name="uni01D3" unicode="&#x1d3;" horiz-adv-x="793" 
d="M194.5 72q-72.5 76 -72.5 223v405h34v-404q0 -134 62 -201.5t179 -67.5q116 0 178.5 67.5t62.5 201.5v404h33v-405q0 -147 -72 -223t-202 -76t-202.5 76zM542 870l-124 -113h-42l-124 113h37l108 -90l108 90h37z" />
    <glyph glyph-name="Ucircumflex" unicode="&#xdb;" horiz-adv-x="793" 
d="M194.5 72q-72.5 76 -72.5 223v405h34v-404q0 -134 62 -201.5t179 -67.5q116 0 178.5 67.5t62.5 201.5v404h33v-405q0 -147 -72 -223t-202 -76t-202.5 76zM505 757l-108 90l-108 -90h-37l124 113h42l124 -113h-37z" />
    <glyph glyph-name="uni0214" unicode="&#x214;" horiz-adv-x="793" 
d="M194.5 72q-72.5 76 -72.5 223v405h34v-404q0 -134 62 -201.5t179 -67.5q116 0 178.5 67.5t62.5 201.5v404h33v-405q0 -147 -72 -223t-202 -76t-202.5 76zM190 870h45l108 -113h-37zM335 870h45l108 -113h-37z" />
    <glyph glyph-name="Udieresis" unicode="&#xdc;" horiz-adv-x="793" 
d="M194.5 72q-72.5 76 -72.5 223v405h34v-404q0 -134 62 -201.5t179 -67.5q116 0 178.5 67.5t62.5 201.5v404h33v-405q0 -147 -72 -223t-202 -76t-202.5 76zM292 797q-9 9 -9 21q0 13 9 22t21 9q13 0 21.5 -9t8.5 -22q0 -12 -8.5 -21t-21.5 -9q-12 0 -21 9zM459.5 797
q-8.5 9 -8.5 21q0 13 8.5 22t21.5 9q12 0 21 -9t9 -22q0 -12 -9 -21t-21 -9q-13 0 -21.5 9z" />
    <glyph glyph-name="uni1EE4" unicode="&#x1ee4;" horiz-adv-x="793" 
d="M194.5 72q-72.5 76 -72.5 223v405h34v-404q0 -134 62 -201.5t179 -67.5q116 0 178.5 67.5t62.5 201.5v404h33v-405q0 -147 -72 -223t-202 -76t-202.5 76zM376 -170.5q-9 8.5 -9 21.5q0 12 9 21t21 9t21 -9t9 -21q0 -13 -9 -21.5t-21 -8.5t-21 8.5z" />
    <glyph glyph-name="Ugrave" unicode="&#xd9;" horiz-adv-x="793" 
d="M194.5 72q-72.5 76 -72.5 223v405h34v-404q0 -134 62 -201.5t179 -67.5q116 0 178.5 67.5t62.5 201.5v404h33v-405q0 -147 -72 -223t-202 -76t-202.5 76zM254 870h54l139 -113h-40z" />
    <glyph glyph-name="uni1EE6" unicode="&#x1ee6;" horiz-adv-x="793" 
d="M194.5 72q-72.5 76 -72.5 223v405h34v-404q0 -134 62 -201.5t179 -67.5q116 0 178.5 67.5t62.5 201.5v404h33v-405q0 -147 -72 -223t-202 -76t-202.5 76zM388 772q62 27 62 75q0 23 -16 38t-41 15q-33 0 -62 -19l-10 22q14 10 34 16t39 6q38 0 60 -20.5t22 -54.5
q0 -32 -18 -55.5t-56 -42.5z" />
    <glyph glyph-name="Uhorn" unicode="&#x1af;" horiz-adv-x="794" 
d="M194.5 72q-72.5 76 -72.5 223v405h34v-404q0 -134 62 -201.5t179 -67.5q116 0 178.5 67.5t62.5 201.5v404h33v-405q0 -147 -72 -223t-202 -76t-202.5 76zM659 700h11q36 0 52.5 19t16.5 50q0 32 -20 67l25 10q11 -15 17 -35.5t6 -40.5q0 -44 -24 -71t-73 -27h-11v28z" />
    <glyph glyph-name="uni1EE8" unicode="&#x1ee8;" horiz-adv-x="794" 
d="M194.5 72q-72.5 76 -72.5 223v405h34v-404q0 -134 62 -201.5t179 -67.5q116 0 178.5 67.5t62.5 201.5v404h33v-405q0 -147 -72 -223t-202 -76t-202.5 76zM659 700h11q36 0 52.5 19t16.5 50q0 32 -20 67l25 10q11 -15 17 -35.5t6 -40.5q0 -44 -24 -71t-73 -27h-11v28z
M486 870h54l-153 -113h-40z" />
    <glyph glyph-name="uni1EF0" unicode="&#x1ef0;" horiz-adv-x="794" 
d="M194.5 72q-72.5 76 -72.5 223v405h34v-404q0 -134 62 -201.5t179 -67.5q116 0 178.5 67.5t62.5 201.5v404h33v-405q0 -147 -72 -223t-202 -76t-202.5 76zM659 700h11q36 0 52.5 19t16.5 50q0 32 -20 67l25 10q11 -15 17 -35.5t6 -40.5q0 -44 -24 -71t-73 -27h-11v28z
M376 -170.5q-9 8.5 -9 21.5q0 12 9 21t21 9t21 -9t9 -21q0 -13 -9 -21.5t-21 -8.5t-21 8.5z" />
    <glyph glyph-name="uni1EEA" unicode="&#x1eea;" horiz-adv-x="794" 
d="M194.5 72q-72.5 76 -72.5 223v405h34v-404q0 -134 62 -201.5t179 -67.5q116 0 178.5 67.5t62.5 201.5v404h33v-405q0 -147 -72 -223t-202 -76t-202.5 76zM659 700h11q36 0 52.5 19t16.5 50q0 32 -20 67l25 10q11 -15 17 -35.5t6 -40.5q0 -44 -24 -71t-73 -27h-11v28z
M254 870h54l139 -113h-40z" />
    <glyph glyph-name="uni1EEC" unicode="&#x1eec;" horiz-adv-x="794" 
d="M194.5 72q-72.5 76 -72.5 223v405h34v-404q0 -134 62 -201.5t179 -67.5q116 0 178.5 67.5t62.5 201.5v404h33v-405q0 -147 -72 -223t-202 -76t-202.5 76zM659 700h11q36 0 52.5 19t16.5 50q0 32 -20 67l25 10q11 -15 17 -35.5t6 -40.5q0 -44 -24 -71t-73 -27h-11v28z
M388 772q62 27 62 75q0 23 -16 38t-41 15q-33 0 -62 -19l-10 22q14 10 34 16t39 6q38 0 60 -20.5t22 -54.5q0 -32 -18 -55.5t-56 -42.5z" />
    <glyph glyph-name="uni1EEE" unicode="&#x1eee;" horiz-adv-x="794" 
d="M194.5 72q-72.5 76 -72.5 223v405h34v-404q0 -134 62 -201.5t179 -67.5q116 0 178.5 67.5t62.5 201.5v404h33v-405q0 -147 -72 -223t-202 -76t-202.5 76zM659 700h11q36 0 52.5 19t16.5 50q0 32 -20 67l25 10q11 -15 17 -35.5t6 -40.5q0 -44 -24 -71t-73 -27h-11v28z
M424.5 776.5q-15.5 9.5 -36.5 28.5q-16 15 -28.5 23t-25.5 8q-24 0 -37.5 -17.5t-15.5 -48.5h-25q2 42 22.5 67t54.5 25q21 0 36.5 -9.5t36.5 -28.5q16 -15 28.5 -23t25.5 -8q24 0 37.5 17.5t15.5 46.5h25q-2 -40 -22.5 -65t-54.5 -25q-21 0 -36.5 9.5z" />
    <glyph glyph-name="Uhungarumlaut" unicode="&#x170;" horiz-adv-x="793" 
d="M194.5 72q-72.5 76 -72.5 223v405h34v-404q0 -134 62 -201.5t179 -67.5q116 0 178.5 67.5t62.5 201.5v404h33v-405q0 -147 -72 -223t-202 -76t-202.5 76zM414 870h45l-116 -113h-37zM559 870h45l-116 -113h-37z" />
    <glyph glyph-name="uni0216" unicode="&#x216;" horiz-adv-x="793" 
d="M194.5 72q-72.5 76 -72.5 223v405h34v-404q0 -134 62 -201.5t179 -67.5q116 0 178.5 67.5t62.5 201.5v404h33v-405q0 -147 -72 -223t-202 -76t-202.5 76zM300 842q39 32 97 32t97 -32t40 -85h-27q-1 42 -32.5 67t-77.5 25t-77.5 -25t-32.5 -67h-27q1 53 40 85z" />
    <glyph glyph-name="Umacron" unicode="&#x16a;" horiz-adv-x="793" 
d="M194.5 72q-72.5 76 -72.5 223v405h34v-404q0 -134 62 -201.5t179 -67.5q116 0 178.5 67.5t62.5 201.5v404h33v-405q0 -147 -72 -223t-202 -76t-202.5 76zM256 827h282v-27h-282v27z" />
    <glyph glyph-name="uni1E7A" unicode="&#x1e7a;" horiz-adv-x="793" 
d="M194.5 72q-72.5 76 -72.5 223v405h34v-404q0 -134 62 -201.5t179 -67.5q116 0 178.5 67.5t62.5 201.5v404h33v-405q0 -147 -72 -223t-202 -76t-202.5 76zM256 813h282v-26h-282v26zM292.5 916q-8.5 9 -8.5 21q0 13 8.5 21.5t21.5 8.5q12 0 21 -8.5t9 -21.5q0 -12 -9 -21
t-21 -9q-13 0 -21.5 9zM459.5 916q-8.5 9 -8.5 21q0 13 8.5 21.5t21.5 8.5q12 0 21 -8.5t9 -21.5q0 -12 -9 -21t-21 -9q-13 0 -21.5 9z" />
    <glyph glyph-name="Uogonek" unicode="&#x172;" horiz-adv-x="793" 
d="M671 700v-405q0 -228 -178 -287q-154 -51 -154 -136q0 -30 20 -46t51 -16q17 0 33.5 6t28.5 16l12 -20q-33 -27 -77 -27q-43 0 -69.5 23.5t-26.5 62.5q0 74 93 125h-7q-130 0 -202.5 76t-72.5 223v405h34v-404q0 -134 62 -201.5t179 -67.5q116 0 178.5 67.5t62.5 201.5
v404h33z" />
    <glyph glyph-name="Uring" unicode="&#x16e;" horiz-adv-x="793" 
d="M194.5 72q-72.5 76 -72.5 223v405h34v-404q0 -134 62 -201.5t179 -67.5q116 0 178.5 67.5t62.5 201.5v404h33v-405q0 -147 -72 -223t-202 -76t-202.5 76zM328 805q-27 27 -27 66t27 67t68 28t68.5 -28t27.5 -67t-27.5 -66t-68.5 -27t-68 27zM447.5 820.5
q20.5 20.5 20.5 50.5t-21 51t-51 21t-50.5 -21t-20.5 -51t20 -50.5t51 -20.5t51.5 20.5z" />
    <glyph glyph-name="Utilde" unicode="&#x168;" horiz-adv-x="793" 
d="M194.5 72q-72.5 76 -72.5 223v405h34v-404q0 -134 62 -201.5t179 -67.5q116 0 178.5 67.5t62.5 201.5v404h33v-405q0 -147 -72 -223t-202 -76t-202.5 76zM424.5 776.5q-15.5 9.5 -36.5 28.5q-16 15 -28.5 23t-25.5 8q-24 0 -37.5 -17.5t-15.5 -48.5h-25q2 42 22.5 67
t54.5 25q21 0 36.5 -9.5t36.5 -28.5q16 -15 28.5 -23t25.5 -8q24 0 37.5 17.5t15.5 46.5h25q-2 -40 -22.5 -65t-54.5 -25q-21 0 -36.5 9.5z" />
    <glyph glyph-name="uni1E78" unicode="&#x1e78;" horiz-adv-x="793" 
d="M194.5 72q-72.5 76 -72.5 223v405h34v-404q0 -134 62 -201.5t179 -67.5q116 0 178.5 67.5t62.5 201.5v404h33v-405q0 -147 -72 -223t-202 -76t-202.5 76zM424 778q-16 8 -35 22q-20 13 -30.5 18.5t-23.5 5.5q-23 0 -37 -13.5t-15 -37.5h-25q1 35 22 55.5t55 20.5
q19 0 34.5 -7.5t35.5 -22.5q20 -13 30.5 -18.5t23.5 -5.5q23 0 37.5 13t15.5 37h24q-1 -34 -21.5 -54.5t-54.5 -20.5q-20 0 -36 8zM473 977h52l-139 -102h-38z" />
    <glyph glyph-name="V" unicode="V" horiz-adv-x="677" 
d="M669 700l-314 -700h-33l-314 700h38l294 -656l293 656h36z" />
    <glyph glyph-name="W" unicode="W" horiz-adv-x="1088" 
d="M1045 700l-239 -700h-34l-228 653l-227 -653h-35l-239 700h36l221 -651l228 651h33l227 -652l223 652h34z" />
    <glyph glyph-name="Wacute" unicode="&#x1e82;" horiz-adv-x="1088" 
d="M1045 700l-239 -700h-34l-228 653l-227 -653h-35l-239 700h36l221 -651l228 651h33l227 -652l223 652h34zM633 870h54l-153 -113h-40z" />
    <glyph glyph-name="Wcircumflex" unicode="&#x174;" horiz-adv-x="1088" 
d="M1045 700l-239 -700h-34l-228 653l-227 -653h-35l-239 700h36l221 -651l228 651h33l227 -652l223 652h34zM652 757l-108 90l-108 -90h-37l124 113h42l124 -113h-37z" />
    <glyph glyph-name="Wdieresis" unicode="&#x1e84;" horiz-adv-x="1088" 
d="M1045 700l-239 -700h-34l-228 653l-227 -653h-35l-239 700h36l221 -651l228 651h33l227 -652l223 652h34zM439 797q-9 9 -9 21q0 13 9 22t21 9q13 0 21.5 -9t8.5 -22q0 -12 -8.5 -21t-21.5 -9q-12 0 -21 9zM606.5 797q-8.5 9 -8.5 21q0 13 8.5 22t21.5 9q12 0 21 -9
t9 -22q0 -12 -9 -21t-21 -9q-13 0 -21.5 9z" />
    <glyph glyph-name="Wgrave" unicode="&#x1e80;" horiz-adv-x="1088" 
d="M1045 700l-239 -700h-34l-228 653l-227 -653h-35l-239 700h36l221 -651l228 651h33l227 -652l223 652h34zM401 870h54l139 -113h-40z" />
    <glyph glyph-name="X" unicode="X" horiz-adv-x="630" 
d="M567 0l-252 337l-253 -337h-39l271 362l-252 338h40l234 -313l233 313h38l-252 -338l272 -362h-40z" />
    <glyph glyph-name="Y" unicode="Y" horiz-adv-x="616" 
d="M325 239v-239h-34v239l-283 461h37l264 -428l264 428h36z" />
    <glyph glyph-name="Yacute" unicode="&#xdd;" horiz-adv-x="616" 
d="M325 239v-239h-34v239l-283 461h37l264 -428l264 428h36zM397 870h54l-153 -113h-40z" />
    <glyph glyph-name="Ycircumflex" unicode="&#x176;" horiz-adv-x="616" 
d="M325 239v-239h-34v239l-283 461h37l264 -428l264 428h36zM416 757l-108 90l-108 -90h-37l124 113h42l124 -113h-37z" />
    <glyph glyph-name="Ydieresis" unicode="&#x178;" horiz-adv-x="616" 
d="M325 239v-239h-34v239l-283 461h37l264 -428l264 428h36zM203 797q-9 9 -9 21q0 13 9 22t21 9q13 0 21.5 -9t8.5 -22q0 -12 -8.5 -21t-21.5 -9q-12 0 -21 9zM370.5 797q-8.5 9 -8.5 21q0 13 8.5 22t21.5 9q12 0 21 -9t9 -22q0 -12 -9 -21t-21 -9q-13 0 -21.5 9z" />
    <glyph glyph-name="uni1E8E" unicode="&#x1e8e;" horiz-adv-x="616" 
d="M325 239v-239h-34v239l-283 461h37l264 -428l264 428h36zM285.5 797.5q-9.5 9.5 -9.5 22.5t9.5 22.5t22.5 9.5t22.5 -9.5t9.5 -22.5t-9.5 -22.5t-22.5 -9.5t-22.5 9.5z" />
    <glyph glyph-name="uni1EF4" unicode="&#x1ef4;" horiz-adv-x="616" 
d="M325 239v-239h-34v239l-283 461h37l264 -428l264 428h36zM287 -170.5q-9 8.5 -9 21.5q0 12 9 21t21 9t21 -9t9 -21q0 -13 -9 -21.5t-21 -8.5t-21 8.5z" />
    <glyph glyph-name="Ygrave" unicode="&#x1ef2;" horiz-adv-x="616" 
d="M325 239v-239h-34v239l-283 461h37l264 -428l264 428h36zM165 870h54l139 -113h-40z" />
    <glyph glyph-name="uni1EF6" unicode="&#x1ef6;" horiz-adv-x="616" 
d="M325 239v-239h-34v239l-283 461h37l264 -428l264 428h36zM299 772q62 27 62 75q0 23 -16 38t-41 15q-33 0 -62 -19l-10 22q14 10 34 16t39 6q38 0 60 -20.5t22 -54.5q0 -32 -18 -55.5t-56 -42.5z" />
    <glyph glyph-name="uni0232" unicode="&#x232;" horiz-adv-x="616" 
d="M325 239v-239h-34v239l-283 461h37l264 -428l264 428h36zM167 827h282v-27h-282v27z" />
    <glyph glyph-name="uni1EF8" unicode="&#x1ef8;" horiz-adv-x="616" 
d="M325 239v-239h-34v239l-283 461h37l264 -428l264 428h36zM335.5 776.5q-15.5 9.5 -36.5 28.5q-16 15 -28.5 23t-25.5 8q-24 0 -37.5 -17.5t-15.5 -48.5h-25q2 42 22.5 67t54.5 25q21 0 36.5 -9.5t36.5 -28.5q16 -15 28.5 -23t25.5 -8q24 0 37.5 17.5t15.5 46.5h25
q-2 -40 -22.5 -65t-54.5 -25q-21 0 -36.5 9.5z" />
    <glyph glyph-name="Z" unicode="Z" horiz-adv-x="642" 
d="M605 31v-31h-556v24l499 645h-494v31h540v-24l-499 -645h510z" />
    <glyph glyph-name="Zacute" unicode="&#x179;" horiz-adv-x="642" 
d="M605 31v-31h-556v24l499 645h-494v31h540v-24l-499 -645h510zM416 870h54l-153 -113h-40z" />
    <glyph glyph-name="Zcaron" unicode="&#x17d;" horiz-adv-x="642" 
d="M605 31v-31h-556v24l499 645h-494v31h540v-24l-499 -645h510zM472 870l-124 -113h-42l-124 113h37l108 -90l108 90h37z" />
    <glyph glyph-name="Zdotaccent" unicode="&#x17b;" horiz-adv-x="642" 
d="M605 31v-31h-556v24l499 645h-494v31h540v-24l-499 -645h510zM304.5 797.5q-9.5 9.5 -9.5 22.5t9.5 22.5t22.5 9.5t22.5 -9.5t9.5 -22.5t-9.5 -22.5t-22.5 -9.5t-22.5 9.5z" />
    <glyph glyph-name="uni1E92" unicode="&#x1e92;" horiz-adv-x="642" 
d="M605 31v-31h-556v24l499 645h-494v31h540v-24l-499 -645h510zM315 -170.5q-9 8.5 -9 21.5q0 12 9 21t21 9t21 -9t9 -21q0 -13 -9 -21.5t-21 -8.5t-21 8.5z" />
    <glyph glyph-name="Iacute_J.loclNLD" horiz-adv-x="715" 
d="M258 870h51l-153 -113h-38zM696 870h52l-153 -113h-38zM213 14.5q-55 17.5 -99 48.5l17 27q41 -30 91 -46.5t105 -16.5q111 0 171.5 68t60.5 201v404h34v-404q0 -146 -71.5 -222.5t-194.5 -76.5q-59 0 -114 17.5zM122 700h34v-407h-34v407z" />
    <glyph glyph-name="A.ss01" horiz-adv-x="803" 
d="M606.5 627.5q74.5 -76.5 74.5 -222.5v-405h-34v225h-491v-225h-34v405q0 146 74.5 222.5t205.5 76.5q130 0 204.5 -76.5zM647 255v153q0 131 -64 198t-181 67t-181.5 -67t-64.5 -198v-153h491z" />
    <glyph glyph-name="Aacute.ss01" horiz-adv-x="803" 
d="M606.5 627.5q74.5 -76.5 74.5 -222.5v-405h-34v225h-491v-225h-34v405q0 146 74.5 222.5t205.5 76.5q130 0 204.5 -76.5zM647 255v153q0 131 -64 198t-181 67t-181.5 -67t-64.5 -198v-153h491zM491 870h54l-153 -113h-40z" />
    <glyph glyph-name="Abreve.ss01" horiz-adv-x="803" 
d="M606.5 627.5q74.5 -76.5 74.5 -222.5v-405h-34v225h-491v-225h-34v405q0 146 74.5 222.5t205.5 76.5q130 0 204.5 -76.5zM647 255v153q0 131 -64 198t-181 67t-181.5 -67t-64.5 -198v-153h491zM305 785.5q-39 31.5 -40 84.5h27q1 -41 32.5 -66t77.5 -25t77.5 25t32.5 66
h27q-1 -53 -40 -84.5t-97 -31.5t-97 31.5z" />
    <glyph glyph-name="uni1EAE.ss01" horiz-adv-x="803" 
d="M606.5 627.5q74.5 -76.5 74.5 -222.5v-405h-34v225h-491v-225h-34v405q0 146 74.5 222.5t205.5 76.5q130 0 204.5 -76.5zM647 255v153q0 131 -64 198t-181 67t-181.5 -67t-64.5 -198v-153h491zM309 776.5q-37 22.5 -44 63.5h27q6 -30 35 -46t75 -16t75 16t35 46h27
q-7 -41 -44 -63.5t-93 -22.5t-93 22.5zM478 958h52l-139 -102h-38z" />
    <glyph glyph-name="uni1EB6.ss01" horiz-adv-x="803" 
d="M606.5 627.5q74.5 -76.5 74.5 -222.5v-405h-34v225h-491v-225h-34v405q0 146 74.5 222.5t205.5 76.5q130 0 204.5 -76.5zM647 255v153q0 131 -64 198t-181 67t-181.5 -67t-64.5 -198v-153h491zM381 -170.5q-9 8.5 -9 21.5q0 12 9 21t21 9t21 -9t9 -21q0 -13 -9 -21.5
t-21 -8.5t-21 8.5zM305 785.5q-39 31.5 -40 84.5h27q1 -41 32.5 -66t77.5 -25t77.5 25t32.5 66h27q-1 -53 -40 -84.5t-97 -31.5t-97 31.5z" />
    <glyph glyph-name="uni1EB0.ss01" horiz-adv-x="803" 
d="M606.5 627.5q74.5 -76.5 74.5 -222.5v-405h-34v225h-491v-225h-34v405q0 146 74.5 222.5t205.5 76.5q130 0 204.5 -76.5zM647 255v153q0 131 -64 198t-181 67t-181.5 -67t-64.5 -198v-153h491zM309 776.5q-37 22.5 -44 63.5h27q6 -30 35 -46t75 -16t75 16t35 46h27
q-7 -41 -44 -63.5t-93 -22.5t-93 22.5zM274 958h52l125 -102h-38z" />
    <glyph glyph-name="uni1EB2.ss01" horiz-adv-x="803" 
d="M606.5 627.5q74.5 -76.5 74.5 -222.5v-405h-34v225h-491v-225h-34v405q0 146 74.5 222.5t205.5 76.5q130 0 204.5 -76.5zM647 255v153q0 131 -64 198t-181 67t-181.5 -67t-64.5 -198v-153h491zM309 776.5q-37 22.5 -44 63.5h27q6 -30 35 -46t75 -16t75 16t35 46h27
q-7 -41 -44 -63.5t-93 -22.5t-93 22.5zM394 849q21 10 33 24t12 30t-11.5 26t-30.5 10q-23 0 -43 -13l-9 19q22 17 55 17q29 0 46 -16t17 -42q0 -23 -14.5 -42t-41.5 -31z" />
    <glyph glyph-name="uni1EB4.ss01" horiz-adv-x="803" 
d="M606.5 627.5q74.5 -76.5 74.5 -222.5v-405h-34v225h-491v-225h-34v405q0 146 74.5 222.5t205.5 76.5q130 0 204.5 -76.5zM647 255v153q0 131 -64 198t-181 67t-181.5 -67t-64.5 -198v-153h491zM309 776.5q-37 22.5 -44 63.5h27q6 -30 35 -46t75 -16t75 16t35 46h27
q-7 -41 -44 -63.5t-93 -22.5t-93 22.5zM429 877q-16 8 -35 22q-20 13 -30.5 18.5t-23.5 5.5q-23 0 -37 -13.5t-15 -37.5h-25q1 35 22 55.5t55 20.5q19 0 34.5 -7.5t35.5 -22.5q20 -13 30.5 -18.5t23.5 -5.5q23 0 37.5 13t15.5 37h24q-1 -34 -21.5 -54.5t-54.5 -20.5
q-20 0 -36 8z" />
    <glyph glyph-name="uni01CD.ss01" horiz-adv-x="803" 
d="M606.5 627.5q74.5 -76.5 74.5 -222.5v-405h-34v225h-491v-225h-34v405q0 146 74.5 222.5t205.5 76.5q130 0 204.5 -76.5zM647 255v153q0 131 -64 198t-181 67t-181.5 -67t-64.5 -198v-153h491zM547 870l-124 -113h-42l-124 113h37l108 -90l108 90h37z" />
    <glyph glyph-name="Acircumflex.ss01" horiz-adv-x="803" 
d="M606.5 627.5q74.5 -76.5 74.5 -222.5v-405h-34v225h-491v-225h-34v405q0 146 74.5 222.5t205.5 76.5q130 0 204.5 -76.5zM647 255v153q0 131 -64 198t-181 67t-181.5 -67t-64.5 -198v-153h491zM510 757l-108 90l-108 -90h-37l124 113h42l124 -113h-37z" />
    <glyph glyph-name="uni1EA4.ss01" horiz-adv-x="803" 
d="M606.5 627.5q74.5 -76.5 74.5 -222.5v-405h-34v225h-491v-225h-34v405q0 146 74.5 222.5t205.5 76.5q130 0 204.5 -76.5zM647 255v153q0 131 -64 198t-181 67t-181.5 -67t-64.5 -198v-153h491zM507 757l-105 62l-105 -62h-40l125 83h40l125 -83h-40zM606 936h52
l-139 -102h-38z" />
    <glyph glyph-name="uni1EAC.ss01" horiz-adv-x="803" 
d="M606.5 627.5q74.5 -76.5 74.5 -222.5v-405h-34v225h-491v-225h-34v405q0 146 74.5 222.5t205.5 76.5q130 0 204.5 -76.5zM647 255v153q0 131 -64 198t-181 67t-181.5 -67t-64.5 -198v-153h491zM381 -170.5q-9 8.5 -9 21.5q0 12 9 21t21 9t21 -9t9 -21q0 -13 -9 -21.5
t-21 -8.5t-21 8.5zM510 757l-108 90l-108 -90h-37l124 113h42l124 -113h-37z" />
    <glyph glyph-name="uni1EA6.ss01" horiz-adv-x="803" 
d="M606.5 627.5q74.5 -76.5 74.5 -222.5v-405h-34v225h-491v-225h-34v405q0 146 74.5 222.5t205.5 76.5q130 0 204.5 -76.5zM647 255v153q0 131 -64 198t-181 67t-181.5 -67t-64.5 -198v-153h491zM507 757l-105 62l-105 -62h-40l125 83h40l125 -83h-40zM402 936h52l125 -102
h-38z" />
    <glyph glyph-name="uni1EA8.ss01" horiz-adv-x="803" 
d="M606.5 627.5q74.5 -76.5 74.5 -222.5v-405h-34v225h-491v-225h-34v405q0 146 74.5 222.5t205.5 76.5q130 0 204.5 -76.5zM647 255v153q0 131 -64 198t-181 67t-181.5 -67t-64.5 -198v-153h491zM507 757l-105 62l-105 -62h-40l125 83h40l125 -83h-40zM499 837q21 10 33 24
t12 30t-11.5 26t-30.5 10q-23 0 -43 -13l-9 19q22 17 55 17q29 0 46 -16t17 -42q0 -23 -14.5 -42t-41.5 -31z" />
    <glyph glyph-name="uni1EAA.ss01" horiz-adv-x="803" 
d="M606.5 627.5q74.5 -76.5 74.5 -222.5v-405h-34v225h-491v-225h-34v405q0 146 74.5 222.5t205.5 76.5q130 0 204.5 -76.5zM647 255v153q0 131 -64 198t-181 67t-181.5 -67t-64.5 -198v-153h491zM507 757l-105 62l-105 -62h-40l125 83h40l125 -83h-40zM429 882
q-16 8 -35 22q-20 13 -30.5 18.5t-23.5 5.5q-23 0 -37 -13.5t-15 -37.5h-25q1 35 22 55.5t55 20.5q19 0 34.5 -7.5t35.5 -22.5q20 -13 30.5 -18.5t23.5 -5.5q23 0 37.5 13t15.5 37h24q-1 -34 -21.5 -54.5t-54.5 -20.5q-20 0 -36 8z" />
    <glyph glyph-name="uni0200.ss01" horiz-adv-x="803" 
d="M606.5 627.5q74.5 -76.5 74.5 -222.5v-405h-34v225h-491v-225h-34v405q0 146 74.5 222.5t205.5 76.5q130 0 204.5 -76.5zM647 255v153q0 131 -64 198t-181 67t-181.5 -67t-64.5 -198v-153h491zM195 870h45l108 -113h-37zM340 870h45l108 -113h-37z" />
    <glyph glyph-name="Adieresis.ss01" horiz-adv-x="803" 
d="M606.5 627.5q74.5 -76.5 74.5 -222.5v-405h-34v225h-491v-225h-34v405q0 146 74.5 222.5t205.5 76.5q130 0 204.5 -76.5zM647 255v153q0 131 -64 198t-181 67t-181.5 -67t-64.5 -198v-153h491zM297 797q-9 9 -9 21q0 13 9 22t21 9q13 0 21.5 -9t8.5 -22q0 -12 -8.5 -21
t-21.5 -9q-12 0 -21 9zM464.5 797q-8.5 9 -8.5 21q0 13 8.5 22t21.5 9q12 0 21 -9t9 -22q0 -12 -9 -21t-21 -9q-13 0 -21.5 9z" />
    <glyph glyph-name="uni1EA0.ss01" horiz-adv-x="803" 
d="M606.5 627.5q74.5 -76.5 74.5 -222.5v-405h-34v225h-491v-225h-34v405q0 146 74.5 222.5t205.5 76.5q130 0 204.5 -76.5zM647 255v153q0 131 -64 198t-181 67t-181.5 -67t-64.5 -198v-153h491zM381 -170.5q-9 8.5 -9 21.5q0 12 9 21t21 9t21 -9t9 -21q0 -13 -9 -21.5
t-21 -8.5t-21 8.5z" />
    <glyph glyph-name="Agrave.ss01" horiz-adv-x="803" 
d="M606.5 627.5q74.5 -76.5 74.5 -222.5v-405h-34v225h-491v-225h-34v405q0 146 74.5 222.5t205.5 76.5q130 0 204.5 -76.5zM647 255v153q0 131 -64 198t-181 67t-181.5 -67t-64.5 -198v-153h491zM259 870h54l139 -113h-40z" />
    <glyph glyph-name="uni1EA2.ss01" horiz-adv-x="803" 
d="M606.5 627.5q74.5 -76.5 74.5 -222.5v-405h-34v225h-491v-225h-34v405q0 146 74.5 222.5t205.5 76.5q130 0 204.5 -76.5zM647 255v153q0 131 -64 198t-181 67t-181.5 -67t-64.5 -198v-153h491zM393 772q62 27 62 75q0 23 -16 38t-41 15q-33 0 -62 -19l-10 22q14 10 34 16
t39 6q38 0 60 -20.5t22 -54.5q0 -32 -18 -55.5t-56 -42.5z" />
    <glyph glyph-name="uni0202.ss01" horiz-adv-x="803" 
d="M606.5 627.5q74.5 -76.5 74.5 -222.5v-405h-34v225h-491v-225h-34v405q0 146 74.5 222.5t205.5 76.5q130 0 204.5 -76.5zM647 255v153q0 131 -64 198t-181 67t-181.5 -67t-64.5 -198v-153h491zM305 842q39 32 97 32t97 -32t40 -85h-27q-1 42 -32.5 67t-77.5 25t-77.5 -25
t-32.5 -67h-27q1 53 40 85z" />
    <glyph glyph-name="Amacron.ss01" horiz-adv-x="803" 
d="M606.5 627.5q74.5 -76.5 74.5 -222.5v-405h-34v225h-491v-225h-34v405q0 146 74.5 222.5t205.5 76.5q130 0 204.5 -76.5zM647 255v153q0 131 -64 198t-181 67t-181.5 -67t-64.5 -198v-153h491zM261 827h282v-27h-282v27z" />
    <glyph glyph-name="Aogonek.ss01" horiz-adv-x="803" 
d="M606.5 627.5q74.5 -76.5 74.5 -222.5v-405h-34v225h-491v-225h-34v405q0 146 74.5 222.5t205.5 76.5q130 0 204.5 -76.5zM647 255v153q0 131 -64 198t-181 67t-181.5 -67t-64.5 -198v-153h491zM553.5 -191.5q-26.5 23.5 -26.5 62.5q0 87 138 148l16 -19q-72 -31 -99 -63
t-27 -65q0 -30 19.5 -46t51.5 -16q17 0 33 6t28 16l13 -20q-33 -27 -77 -27q-43 0 -69.5 23.5z" />
    <glyph glyph-name="Aring.ss01" horiz-adv-x="803" 
d="M606.5 627.5q74.5 -76.5 74.5 -222.5v-405h-34v225h-491v-225h-34v405q0 146 74.5 222.5t205.5 76.5q130 0 204.5 -76.5zM647 255v153q0 131 -64 198t-181 67t-181.5 -67t-64.5 -198v-153h491zM333 805q-27 27 -27 66t27 67t68 28t68.5 -28t27.5 -67t-27.5 -66t-68.5 -27
t-68 27zM452.5 820.5q20.5 20.5 20.5 50.5t-21 51t-51 21t-50.5 -21t-20.5 -51t20 -50.5t51 -20.5t51.5 20.5z" />
    <glyph glyph-name="Aringacute.ss01" horiz-adv-x="803" 
d="M606.5 627.5q74.5 -76.5 74.5 -222.5v-405h-34v225h-491v-225h-34v405q0 146 74.5 222.5t205.5 76.5q130 0 204.5 -76.5zM647 255v153q0 131 -64 198t-181 67t-181.5 -67t-64.5 -198v-153h491zM475 932q22 -27 22 -61q0 -39 -27.5 -66t-68.5 -27t-68 27t-27 66t27 67
t68 28q30 0 55 -17l81 78l23 -18zM452.5 820.5q20.5 20.5 20.5 50.5t-21 51t-51 21t-50.5 -21t-20.5 -51t20 -50.5t51 -20.5t51.5 20.5z" />
    <glyph glyph-name="Atilde.ss01" horiz-adv-x="803" 
d="M606.5 627.5q74.5 -76.5 74.5 -222.5v-405h-34v225h-491v-225h-34v405q0 146 74.5 222.5t205.5 76.5q130 0 204.5 -76.5zM647 255v153q0 131 -64 198t-181 67t-181.5 -67t-64.5 -198v-153h491zM429.5 776.5q-15.5 9.5 -36.5 28.5q-16 15 -28.5 23t-25.5 8
q-24 0 -37.5 -17.5t-15.5 -48.5h-25q2 42 22.5 67t54.5 25q21 0 36.5 -9.5t36.5 -28.5q16 -15 28.5 -23t25.5 -8q24 0 37.5 17.5t15.5 46.5h25q-2 -40 -22.5 -65t-54.5 -25q-21 0 -36.5 9.5z" />
    <glyph glyph-name="AE.ss01" horiz-adv-x="1062" 
d="M1020 30v-30h-473v235h-403v-235h-33v403q0 142 70.5 219.5t198.5 77.5h625v-30h-425v-300h380v-29h-380v-311h440zM547 265v404h-165q-115 0 -176.5 -69t-61.5 -197v-138h403z" />
    <glyph glyph-name="AEacute.ss01" horiz-adv-x="1062" 
d="M1020 30v-30h-473v235h-403v-235h-33v403q0 142 70.5 219.5t198.5 77.5h625v-30h-425v-300h380v-29h-380v-311h440zM547 265v404h-165q-115 0 -176.5 -69t-61.5 -197v-138h403zM614 870h54l-153 -113h-40z" />
    <glyph glyph-name="uni01C4.ss01" horiz-adv-x="1460" 
d="M128 700h270q109 0 193.5 -45t131 -124.5t46.5 -180.5t-46.5 -180.5t-131 -124.5t-193.5 -45h-270v700zM396 31q102 0 178.5 41t118.5 113.5t42 164.5t-42 164.5t-118.5 113.5t-178.5 41h-234v-638h234zM1418 31v-31h-556v23l243 318h-178v30h201l228 298h-493v31h540
v-23l-235 -307h167v-30h-190l-237 -309h510zM1280 870l-124 -113h-42l-124 113h37l108 -90l108 90h37z" />
    <glyph glyph-name="uni01C5.ss01" horiz-adv-x="1332" 
d="M128 700h270q109 0 193.5 -45t131 -124.5t46.5 -180.5t-46.5 -180.5t-131 -124.5t-193.5 -45h-270v700zM396 31q102 0 178.5 41t118.5 113.5t42 164.5t-42 164.5t-118.5 113.5t-178.5 41h-234v-638h234zM1281 29v-29h-405v23l171 225h-127v29h149l163 213h-351v29h395
v-23l-168 -219h129v-29h-151l-167 -219h362zM1223 720l-124 -113h-42l-124 113h37l108 -90l108 90h37z" />
    <glyph glyph-name="E.ss01" horiz-adv-x="619" 
d="M596 89q-40 -44 -110.5 -68.5t-157.5 -24.5q-128 0 -196.5 52t-68.5 137q0 68 43 112.5t115 59.5q-61 16 -94.5 58.5t-33.5 103.5q0 52 28.5 94t85 66.5t136.5 24.5q62 0 120.5 -15.5t99.5 -43.5l-13 -27q-92 55 -205 55q-106 0 -162.5 -43t-56.5 -113t48.5 -108.5
t133.5 -38.5h167v-30h-167q-97 0 -154.5 -38.5t-57.5 -114.5q0 -74 59.5 -117t174.5 -43q79 0 144 22.5t104 63.5z" />
    <glyph glyph-name="Eacute.ss01" horiz-adv-x="619" 
d="M596 89q-40 -44 -110.5 -68.5t-157.5 -24.5q-128 0 -196.5 52t-68.5 137q0 68 43 112.5t115 59.5q-61 16 -94.5 58.5t-33.5 103.5q0 52 28.5 94t85 66.5t136.5 24.5q62 0 120.5 -15.5t99.5 -43.5l-13 -27q-92 55 -205 55q-106 0 -162.5 -43t-56.5 -113t48.5 -108.5
t133.5 -38.5h167v-30h-167q-97 0 -154.5 -38.5t-57.5 -114.5q0 -74 59.5 -117t174.5 -43q79 0 144 22.5t104 63.5zM427 870h54l-153 -113h-40z" />
    <glyph glyph-name="Ebreve.ss01" horiz-adv-x="619" 
d="M596 89q-40 -44 -110.5 -68.5t-157.5 -24.5q-128 0 -196.5 52t-68.5 137q0 68 43 112.5t115 59.5q-61 16 -94.5 58.5t-33.5 103.5q0 52 28.5 94t85 66.5t136.5 24.5q62 0 120.5 -15.5t99.5 -43.5l-13 -27q-92 55 -205 55q-106 0 -162.5 -43t-56.5 -113t48.5 -108.5
t133.5 -38.5h167v-30h-167q-97 0 -154.5 -38.5t-57.5 -114.5q0 -74 59.5 -117t174.5 -43q79 0 144 22.5t104 63.5zM241 785.5q-39 31.5 -40 84.5h27q1 -41 32.5 -66t77.5 -25t77.5 25t32.5 66h27q-1 -53 -40 -84.5t-97 -31.5t-97 31.5z" />
    <glyph glyph-name="Ecaron.ss01" horiz-adv-x="619" 
d="M596 89q-40 -44 -110.5 -68.5t-157.5 -24.5q-128 0 -196.5 52t-68.5 137q0 68 43 112.5t115 59.5q-61 16 -94.5 58.5t-33.5 103.5q0 52 28.5 94t85 66.5t136.5 24.5q62 0 120.5 -15.5t99.5 -43.5l-13 -27q-92 55 -205 55q-106 0 -162.5 -43t-56.5 -113t48.5 -108.5
t133.5 -38.5h167v-30h-167q-97 0 -154.5 -38.5t-57.5 -114.5q0 -74 59.5 -117t174.5 -43q79 0 144 22.5t104 63.5zM483 870l-124 -113h-42l-124 113h37l108 -90l108 90h37z" />
    <glyph glyph-name="uni1E1C.ss01" horiz-adv-x="619" 
d="M596 89q-40 -44 -110.5 -68.5t-157.5 -24.5q-128 0 -196.5 52t-68.5 137q0 68 43 112.5t115 59.5q-61 16 -94.5 58.5t-33.5 103.5q0 52 28.5 94t85 66.5t136.5 24.5q62 0 120.5 -15.5t99.5 -43.5l-13 -27q-92 55 -205 55q-106 0 -162.5 -43t-56.5 -113t48.5 -108.5
t133.5 -38.5h167v-30h-167q-97 0 -154.5 -38.5t-57.5 -114.5q0 -74 59.5 -117t174.5 -43q79 0 144 22.5t104 63.5zM244 -189l13 21q25 -22 63 -22q31 0 50 15t19 42q0 25 -18.5 40.5t-50.5 15.5h-18l23 82h25l-17 -60q39 -2 61.5 -23.5t22.5 -55.5q0 -36 -27.5 -58.5
t-69.5 -22.5q-44 0 -76 26zM241 785.5q-39 31.5 -40 84.5h27q1 -41 32.5 -66t77.5 -25t77.5 25t32.5 66h27q-1 -53 -40 -84.5t-97 -31.5t-97 31.5z" />
    <glyph glyph-name="Ecircumflex.ss01" horiz-adv-x="619" 
d="M596 89q-40 -44 -110.5 -68.5t-157.5 -24.5q-128 0 -196.5 52t-68.5 137q0 68 43 112.5t115 59.5q-61 16 -94.5 58.5t-33.5 103.5q0 52 28.5 94t85 66.5t136.5 24.5q62 0 120.5 -15.5t99.5 -43.5l-13 -27q-92 55 -205 55q-106 0 -162.5 -43t-56.5 -113t48.5 -108.5
t133.5 -38.5h167v-30h-167q-97 0 -154.5 -38.5t-57.5 -114.5q0 -74 59.5 -117t174.5 -43q79 0 144 22.5t104 63.5zM446 757l-108 90l-108 -90h-37l124 113h42l124 -113h-37z" />
    <glyph glyph-name="uni1EBE.ss01" horiz-adv-x="619" 
d="M596 89q-40 -44 -110.5 -68.5t-157.5 -24.5q-128 0 -196.5 52t-68.5 137q0 68 43 112.5t115 59.5q-61 16 -94.5 58.5t-33.5 103.5q0 52 28.5 94t85 66.5t136.5 24.5q62 0 120.5 -15.5t99.5 -43.5l-13 -27q-92 55 -205 55q-106 0 -162.5 -43t-56.5 -113t48.5 -108.5
t133.5 -38.5h167v-30h-167q-97 0 -154.5 -38.5t-57.5 -114.5q0 -74 59.5 -117t174.5 -43q79 0 144 22.5t104 63.5zM443 757l-105 62l-105 -62h-40l125 83h40l125 -83h-40zM542 936h52l-139 -102h-38z" />
    <glyph glyph-name="uni1EC6.ss01" horiz-adv-x="619" 
d="M596 89q-40 -44 -110.5 -68.5t-157.5 -24.5q-128 0 -196.5 52t-68.5 137q0 68 43 112.5t115 59.5q-61 16 -94.5 58.5t-33.5 103.5q0 52 28.5 94t85 66.5t136.5 24.5q62 0 120.5 -15.5t99.5 -43.5l-13 -27q-92 55 -205 55q-106 0 -162.5 -43t-56.5 -113t48.5 -108.5
t133.5 -38.5h167v-30h-167q-97 0 -154.5 -38.5t-57.5 -114.5q0 -74 59.5 -117t174.5 -43q79 0 144 22.5t104 63.5zM317 -170.5q-9 8.5 -9 21.5q0 12 9 21t21 9t21 -9t9 -21q0 -13 -9 -21.5t-21 -8.5t-21 8.5zM446 757l-108 90l-108 -90h-37l124 113h42l124 -113h-37z" />
    <glyph glyph-name="uni1EC0.ss01" horiz-adv-x="619" 
d="M596 89q-40 -44 -110.5 -68.5t-157.5 -24.5q-128 0 -196.5 52t-68.5 137q0 68 43 112.5t115 59.5q-61 16 -94.5 58.5t-33.5 103.5q0 52 28.5 94t85 66.5t136.5 24.5q62 0 120.5 -15.5t99.5 -43.5l-13 -27q-92 55 -205 55q-106 0 -162.5 -43t-56.5 -113t48.5 -108.5
t133.5 -38.5h167v-30h-167q-97 0 -154.5 -38.5t-57.5 -114.5q0 -74 59.5 -117t174.5 -43q79 0 144 22.5t104 63.5zM443 757l-105 62l-105 -62h-40l125 83h40l125 -83h-40zM338 936h52l125 -102h-38z" />
    <glyph glyph-name="uni1EC2.ss01" horiz-adv-x="619" 
d="M596 89q-40 -44 -110.5 -68.5t-157.5 -24.5q-128 0 -196.5 52t-68.5 137q0 68 43 112.5t115 59.5q-61 16 -94.5 58.5t-33.5 103.5q0 52 28.5 94t85 66.5t136.5 24.5q62 0 120.5 -15.5t99.5 -43.5l-13 -27q-92 55 -205 55q-106 0 -162.5 -43t-56.5 -113t48.5 -108.5
t133.5 -38.5h167v-30h-167q-97 0 -154.5 -38.5t-57.5 -114.5q0 -74 59.5 -117t174.5 -43q79 0 144 22.5t104 63.5zM443 757l-105 62l-105 -62h-40l125 83h40l125 -83h-40zM435 837q21 10 33 24t12 30t-11.5 26t-30.5 10q-23 0 -43 -13l-9 19q22 17 55 17q29 0 46 -16t17 -42
q0 -23 -14.5 -42t-41.5 -31z" />
    <glyph glyph-name="uni1EC4.ss01" horiz-adv-x="619" 
d="M596 89q-40 -44 -110.5 -68.5t-157.5 -24.5q-128 0 -196.5 52t-68.5 137q0 68 43 112.5t115 59.5q-61 16 -94.5 58.5t-33.5 103.5q0 52 28.5 94t85 66.5t136.5 24.5q62 0 120.5 -15.5t99.5 -43.5l-13 -27q-92 55 -205 55q-106 0 -162.5 -43t-56.5 -113t48.5 -108.5
t133.5 -38.5h167v-30h-167q-97 0 -154.5 -38.5t-57.5 -114.5q0 -74 59.5 -117t174.5 -43q79 0 144 22.5t104 63.5zM443 757l-105 62l-105 -62h-40l125 83h40l125 -83h-40zM365 882q-16 8 -35 22q-20 13 -30.5 18.5t-23.5 5.5q-23 0 -37 -13.5t-15 -37.5h-25q1 35 22 55.5
t55 20.5q19 0 34.5 -7.5t35.5 -22.5q20 -13 30.5 -18.5t23.5 -5.5q23 0 37.5 13t15.5 37h24q-1 -34 -21.5 -54.5t-54.5 -20.5q-20 0 -36 8z" />
    <glyph glyph-name="uni0204.ss01" horiz-adv-x="619" 
d="M596 89q-40 -44 -110.5 -68.5t-157.5 -24.5q-128 0 -196.5 52t-68.5 137q0 68 43 112.5t115 59.5q-61 16 -94.5 58.5t-33.5 103.5q0 52 28.5 94t85 66.5t136.5 24.5q62 0 120.5 -15.5t99.5 -43.5l-13 -27q-92 55 -205 55q-106 0 -162.5 -43t-56.5 -113t48.5 -108.5
t133.5 -38.5h167v-30h-167q-97 0 -154.5 -38.5t-57.5 -114.5q0 -74 59.5 -117t174.5 -43q79 0 144 22.5t104 63.5zM131 870h45l108 -113h-37zM276 870h45l108 -113h-37z" />
    <glyph glyph-name="Edieresis.ss01" horiz-adv-x="619" 
d="M596 89q-40 -44 -110.5 -68.5t-157.5 -24.5q-128 0 -196.5 52t-68.5 137q0 68 43 112.5t115 59.5q-61 16 -94.5 58.5t-33.5 103.5q0 52 28.5 94t85 66.5t136.5 24.5q62 0 120.5 -15.5t99.5 -43.5l-13 -27q-92 55 -205 55q-106 0 -162.5 -43t-56.5 -113t48.5 -108.5
t133.5 -38.5h167v-30h-167q-97 0 -154.5 -38.5t-57.5 -114.5q0 -74 59.5 -117t174.5 -43q79 0 144 22.5t104 63.5zM233 797q-9 9 -9 21q0 13 9 22t21 9q13 0 21.5 -9t8.5 -22q0 -12 -8.5 -21t-21.5 -9q-12 0 -21 9zM400.5 797q-8.5 9 -8.5 21q0 13 8.5 22t21.5 9q12 0 21 -9
t9 -22q0 -12 -9 -21t-21 -9q-13 0 -21.5 9z" />
    <glyph glyph-name="Edotaccent.ss01" horiz-adv-x="619" 
d="M596 89q-40 -44 -110.5 -68.5t-157.5 -24.5q-128 0 -196.5 52t-68.5 137q0 68 43 112.5t115 59.5q-61 16 -94.5 58.5t-33.5 103.5q0 52 28.5 94t85 66.5t136.5 24.5q62 0 120.5 -15.5t99.5 -43.5l-13 -27q-92 55 -205 55q-106 0 -162.5 -43t-56.5 -113t48.5 -108.5
t133.5 -38.5h167v-30h-167q-97 0 -154.5 -38.5t-57.5 -114.5q0 -74 59.5 -117t174.5 -43q79 0 144 22.5t104 63.5zM315.5 797.5q-9.5 9.5 -9.5 22.5t9.5 22.5t22.5 9.5t22.5 -9.5t9.5 -22.5t-9.5 -22.5t-22.5 -9.5t-22.5 9.5z" />
    <glyph glyph-name="uni1EB8.ss01" horiz-adv-x="619" 
d="M596 89q-40 -44 -110.5 -68.5t-157.5 -24.5q-128 0 -196.5 52t-68.5 137q0 68 43 112.5t115 59.5q-61 16 -94.5 58.5t-33.5 103.5q0 52 28.5 94t85 66.5t136.5 24.5q62 0 120.5 -15.5t99.5 -43.5l-13 -27q-92 55 -205 55q-106 0 -162.5 -43t-56.5 -113t48.5 -108.5
t133.5 -38.5h167v-30h-167q-97 0 -154.5 -38.5t-57.5 -114.5q0 -74 59.5 -117t174.5 -43q79 0 144 22.5t104 63.5zM317 -170.5q-9 8.5 -9 21.5q0 12 9 21t21 9t21 -9t9 -21q0 -13 -9 -21.5t-21 -8.5t-21 8.5z" />
    <glyph glyph-name="Egrave.ss01" horiz-adv-x="619" 
d="M596 89q-40 -44 -110.5 -68.5t-157.5 -24.5q-128 0 -196.5 52t-68.5 137q0 68 43 112.5t115 59.5q-61 16 -94.5 58.5t-33.5 103.5q0 52 28.5 94t85 66.5t136.5 24.5q62 0 120.5 -15.5t99.5 -43.5l-13 -27q-92 55 -205 55q-106 0 -162.5 -43t-56.5 -113t48.5 -108.5
t133.5 -38.5h167v-30h-167q-97 0 -154.5 -38.5t-57.5 -114.5q0 -74 59.5 -117t174.5 -43q79 0 144 22.5t104 63.5zM195 870h54l139 -113h-40z" />
    <glyph glyph-name="uni1EBA.ss01" horiz-adv-x="619" 
d="M596 89q-40 -44 -110.5 -68.5t-157.5 -24.5q-128 0 -196.5 52t-68.5 137q0 68 43 112.5t115 59.5q-61 16 -94.5 58.5t-33.5 103.5q0 52 28.5 94t85 66.5t136.5 24.5q62 0 120.5 -15.5t99.5 -43.5l-13 -27q-92 55 -205 55q-106 0 -162.5 -43t-56.5 -113t48.5 -108.5
t133.5 -38.5h167v-30h-167q-97 0 -154.5 -38.5t-57.5 -114.5q0 -74 59.5 -117t174.5 -43q79 0 144 22.5t104 63.5zM329 772q62 27 62 75q0 23 -16 38t-41 15q-33 0 -62 -19l-10 22q14 10 34 16t39 6q38 0 60 -20.5t22 -54.5q0 -32 -18 -55.5t-56 -42.5z" />
    <glyph glyph-name="uni0206.ss01" horiz-adv-x="619" 
d="M596 89q-40 -44 -110.5 -68.5t-157.5 -24.5q-128 0 -196.5 52t-68.5 137q0 68 43 112.5t115 59.5q-61 16 -94.5 58.5t-33.5 103.5q0 52 28.5 94t85 66.5t136.5 24.5q62 0 120.5 -15.5t99.5 -43.5l-13 -27q-92 55 -205 55q-106 0 -162.5 -43t-56.5 -113t48.5 -108.5
t133.5 -38.5h167v-30h-167q-97 0 -154.5 -38.5t-57.5 -114.5q0 -74 59.5 -117t174.5 -43q79 0 144 22.5t104 63.5zM241 842q39 32 97 32t97 -32t40 -85h-27q-1 42 -32.5 67t-77.5 25t-77.5 -25t-32.5 -67h-27q1 53 40 85z" />
    <glyph glyph-name="Emacron.ss01" horiz-adv-x="619" 
d="M596 89q-40 -44 -110.5 -68.5t-157.5 -24.5q-128 0 -196.5 52t-68.5 137q0 68 43 112.5t115 59.5q-61 16 -94.5 58.5t-33.5 103.5q0 52 28.5 94t85 66.5t136.5 24.5q62 0 120.5 -15.5t99.5 -43.5l-13 -27q-92 55 -205 55q-106 0 -162.5 -43t-56.5 -113t48.5 -108.5
t133.5 -38.5h167v-30h-167q-97 0 -154.5 -38.5t-57.5 -114.5q0 -74 59.5 -117t174.5 -43q79 0 144 22.5t104 63.5zM197 827h282v-27h-282v27z" />
    <glyph glyph-name="uni1E16.ss01" horiz-adv-x="619" 
d="M596 89q-40 -44 -110.5 -68.5t-157.5 -24.5q-128 0 -196.5 52t-68.5 137q0 68 43 112.5t115 59.5q-61 16 -94.5 58.5t-33.5 103.5q0 52 28.5 94t85 66.5t136.5 24.5q62 0 120.5 -15.5t99.5 -43.5l-13 -27q-92 55 -205 55q-106 0 -162.5 -43t-56.5 -113t48.5 -108.5
t133.5 -38.5h167v-30h-167q-97 0 -154.5 -38.5t-57.5 -114.5q0 -74 59.5 -117t174.5 -43q79 0 144 22.5t104 63.5zM197 812h282v-26h-282v26zM414 977h52l-139 -102h-38z" />
    <glyph glyph-name="uni1E14.ss01" horiz-adv-x="619" 
d="M596 89q-40 -44 -110.5 -68.5t-157.5 -24.5q-128 0 -196.5 52t-68.5 137q0 68 43 112.5t115 59.5q-61 16 -94.5 58.5t-33.5 103.5q0 52 28.5 94t85 66.5t136.5 24.5q62 0 120.5 -15.5t99.5 -43.5l-13 -27q-92 55 -205 55q-106 0 -162.5 -43t-56.5 -113t48.5 -108.5
t133.5 -38.5h167v-30h-167q-97 0 -154.5 -38.5t-57.5 -114.5q0 -74 59.5 -117t174.5 -43q79 0 144 22.5t104 63.5zM197 812h282v-26h-282v26zM210 977h52l125 -102h-38z" />
    <glyph glyph-name="Eogonek.ss01" horiz-adv-x="619" 
d="M546 -184q16 6 28 16l13 -20q-33 -27 -77 -27q-42 0 -68.5 24t-26.5 64q0 75 74 150q-72 -27 -161 -27q-128 0 -196.5 52t-68.5 137q0 68 43 112.5t115 59.5q-61 16 -94.5 58.5t-33.5 103.5q0 52 28.5 94t85 66.5t136.5 24.5q62 0 120.5 -15.5t99.5 -43.5l-13 -27
q-92 55 -205 55q-106 0 -162.5 -43t-56.5 -113t48.5 -108.5t133.5 -38.5h167v-30h-167q-97 0 -154.5 -38.5t-57.5 -114.5q0 -74 59.5 -117t174.5 -43q76 0 142 23.5t106 62.5l17 -26q-88 -71 -120 -121.5t-32 -91.5q0 -30 19.5 -47t50.5 -17q17 0 33 6z" />
    <glyph glyph-name="uni1EBC.ss01" horiz-adv-x="619" 
d="M596 89q-40 -44 -110.5 -68.5t-157.5 -24.5q-128 0 -196.5 52t-68.5 137q0 68 43 112.5t115 59.5q-61 16 -94.5 58.5t-33.5 103.5q0 52 28.5 94t85 66.5t136.5 24.5q62 0 120.5 -15.5t99.5 -43.5l-13 -27q-92 55 -205 55q-106 0 -162.5 -43t-56.5 -113t48.5 -108.5
t133.5 -38.5h167v-30h-167q-97 0 -154.5 -38.5t-57.5 -114.5q0 -74 59.5 -117t174.5 -43q79 0 144 22.5t104 63.5zM365.5 776.5q-15.5 9.5 -36.5 28.5q-16 15 -28.5 23t-25.5 8q-24 0 -37.5 -17.5t-15.5 -48.5h-25q2 42 22.5 67t54.5 25q21 0 36.5 -9.5t36.5 -28.5
q16 -15 28.5 -23t25.5 -8q24 0 37.5 17.5t15.5 46.5h25q-2 -40 -22.5 -65t-54.5 -25q-21 0 -36.5 9.5z" />
    <glyph glyph-name="F.ss01" horiz-adv-x="597" 
d="M210.5 621.5q-54.5 -51.5 -54.5 -147.5v-125h356v-30h-356v-319h-34v477q0 105 64.5 166t188.5 61q128 0 204 -60l-16 -27q-73 56 -188 56q-110 0 -164.5 -51.5z" />
    <glyph glyph-name="G.ss01" horiz-adv-x="774" 
d="M634 345h32v-345h-31v78q-46 -40 -105 -61t-123 -21q-91 0 -171 42t-129.5 122t-49.5 189q0 101 47.5 182t130.5 127t186 46q75 0 138 -23t108 -69l-20 -23q-87 84 -225 84q-94 0 -169.5 -42.5t-118.5 -116.5t-43 -164q0 -98 44.5 -171.5t117 -112.5t155.5 -39
q62 0 121 22.5t105 67.5v228z" />
    <glyph glyph-name="Gbreve.ss01" horiz-adv-x="774" 
d="M634 345h32v-345h-31v78q-46 -40 -105 -61t-123 -21q-91 0 -171 42t-129.5 122t-49.5 189q0 101 47.5 182t130.5 127t186 46q75 0 138 -23t108 -69l-20 -23q-87 84 -225 84q-94 0 -169.5 -42.5t-118.5 -116.5t-43 -164q0 -98 44.5 -171.5t117 -112.5t155.5 -39
q62 0 121 22.5t105 67.5v228zM306 785.5q-39 31.5 -40 84.5h27q1 -41 32.5 -66t77.5 -25t77.5 25t32.5 66h27q-1 -53 -40 -84.5t-97 -31.5t-97 31.5z" />
    <glyph glyph-name="Gcaron.ss01" horiz-adv-x="774" 
d="M634 345h32v-345h-31v78q-46 -40 -105 -61t-123 -21q-91 0 -171 42t-129.5 122t-49.5 189q0 101 47.5 182t130.5 127t186 46q75 0 138 -23t108 -69l-20 -23q-87 84 -225 84q-94 0 -169.5 -42.5t-118.5 -116.5t-43 -164q0 -98 44.5 -171.5t117 -112.5t155.5 -39
q62 0 121 22.5t105 67.5v228zM548 870l-124 -113h-42l-124 113h37l108 -90l108 90h37z" />
    <glyph glyph-name="Gcircumflex.ss01" horiz-adv-x="774" 
d="M634 345h32v-345h-31v78q-46 -40 -105 -61t-123 -21q-91 0 -171 42t-129.5 122t-49.5 189q0 101 47.5 182t130.5 127t186 46q75 0 138 -23t108 -69l-20 -23q-87 84 -225 84q-94 0 -169.5 -42.5t-118.5 -116.5t-43 -164q0 -98 44.5 -171.5t117 -112.5t155.5 -39
q62 0 121 22.5t105 67.5v228zM511 757l-108 90l-108 -90h-37l124 113h42l124 -113h-37z" />
    <glyph glyph-name="Gcommaaccent.ss01" horiz-adv-x="774" 
d="M634 345h32v-345h-31v78q-46 -40 -105 -61t-123 -21q-91 0 -171 42t-129.5 122t-49.5 189q0 101 47.5 182t130.5 127t186 46q75 0 138 -23t108 -69l-20 -23q-87 84 -225 84q-94 0 -169.5 -42.5t-118.5 -116.5t-43 -164q0 -98 44.5 -171.5t117 -112.5t155.5 -39
q62 0 121 22.5t105 67.5v228zM424 -128q8 -9 8 -20q0 -13 -7 -36l-24 -76h-24l19 83q-10 1 -17 9.5t-7 19.5q0 12 8.5 20.5t21.5 8.5q14 0 22 -9z" />
    <glyph glyph-name="Gdotaccent.ss01" horiz-adv-x="774" 
d="M634 345h32v-345h-31v78q-46 -40 -105 -61t-123 -21q-91 0 -171 42t-129.5 122t-49.5 189q0 101 47.5 182t130.5 127t186 46q75 0 138 -23t108 -69l-20 -23q-87 84 -225 84q-94 0 -169.5 -42.5t-118.5 -116.5t-43 -164q0 -98 44.5 -171.5t117 -112.5t155.5 -39
q62 0 121 22.5t105 67.5v228zM380.5 797.5q-9.5 9.5 -9.5 22.5t9.5 22.5t22.5 9.5t22.5 -9.5t9.5 -22.5t-9.5 -22.5t-22.5 -9.5t-22.5 9.5z" />
    <glyph glyph-name="uni1E20.ss01" horiz-adv-x="774" 
d="M634 345h32v-345h-31v78q-46 -40 -105 -61t-123 -21q-91 0 -171 42t-129.5 122t-49.5 189q0 101 47.5 182t130.5 127t186 46q75 0 138 -23t108 -69l-20 -23q-87 84 -225 84q-94 0 -169.5 -42.5t-118.5 -116.5t-43 -164q0 -98 44.5 -171.5t117 -112.5t155.5 -39
q62 0 121 22.5t105 67.5v228zM262 827h282v-27h-282v27z" />
    <glyph glyph-name="uni01E4.ss01" horiz-adv-x="810" 
d="M634 345h32v-345h-31v78q-46 -40 -105 -61t-123 -21q-91 0 -171 42t-129.5 122t-49.5 189q0 101 47.5 182t130.5 127t186 46q75 0 138 -23t108 -69l-20 -23q-87 84 -225 84q-94 0 -169.5 -42.5t-118.5 -116.5t-43 -164q0 -98 44.5 -171.5t117 -112.5t155.5 -39
q62 0 121 22.5t105 67.5v228zM415 249h366v-29h-366v29z" />
    <glyph glyph-name="I.ss01" horiz-adv-x="428" 
d="M231 669v-638h151v-31h-336v31h151v638h-151v31h336v-31h-151z" />
    <glyph glyph-name="IJ.ss01" horiz-adv-x="715" 
d="M213 -86.5q-55 17.5 -99 48.5l17 27q41 -30 91.5 -46t105.5 -16q110 0 170.5 67.5t60.5 200.5v505h34v-505q0 -146 -71.5 -222.5t-194.5 -76.5q-59 0 -114 17.5zM122 700h34v-507h-34v507z" />
    <glyph glyph-name="Iacute.ss01" horiz-adv-x="428" 
d="M231 669v-638h151v-31h-336v31h151v638h-151v31h336v-31h-151zM303 870h54l-153 -113h-40z" />
    <glyph glyph-name="Iacute_J.loclNLD.ss01" horiz-adv-x="715" 
d="M258 870h51l-153 -113h-38zM696 870h52l-153 -113h-38zM213 -85.5q-55 17.5 -99 48.5l17 27q41 -30 91 -46.5t105 -16.5q111 0 171.5 68t60.5 201v504h34v-504q0 -146 -71.5 -222.5t-194.5 -76.5q-59 0 -114 17.5zM122 700h34v-507h-34v507z" />
    <glyph glyph-name="Ibreve.ss01" horiz-adv-x="428" 
d="M231 669v-638h151v-31h-336v31h151v638h-151v31h336v-31h-151zM117 785.5q-39 31.5 -40 84.5h27q1 -41 32.5 -66t77.5 -25t77.5 25t32.5 66h27q-1 -53 -40 -84.5t-97 -31.5t-97 31.5z" />
    <glyph glyph-name="Icircumflex.ss01" horiz-adv-x="428" 
d="M231 669v-638h151v-31h-336v31h151v638h-151v31h336v-31h-151zM322 757l-108 90l-108 -90h-37l124 113h42l124 -113h-37z" />
    <glyph glyph-name="uni0208.ss01" horiz-adv-x="428" 
d="M231 669v-638h151v-31h-336v31h151v638h-151v31h336v-31h-151zM7 870h45l108 -113h-37zM152 870h45l108 -113h-37z" />
    <glyph glyph-name="Idieresis.ss01" horiz-adv-x="428" 
d="M231 669v-638h151v-31h-336v31h151v638h-151v31h336v-31h-151zM109 797q-9 9 -9 21q0 13 9 22t21 9q13 0 21.5 -9t8.5 -22q0 -12 -8.5 -21t-21.5 -9q-12 0 -21 9zM276.5 797q-8.5 9 -8.5 21q0 13 8.5 22t21.5 9q12 0 21 -9t9 -22q0 -12 -9 -21t-21 -9q-13 0 -21.5 9z" />
    <glyph glyph-name="uni1E2E.ss01" horiz-adv-x="428" 
d="M231 669v-638h151v-31h-336v31h151v638h-151v31h336v-31h-151zM109.5 797q-8.5 9 -8.5 21q0 13 8.5 21.5t21.5 8.5q12 0 21 -8.5t9 -21.5q0 -12 -9 -21t-21 -9q-13 0 -21.5 9zM276.5 797q-8.5 9 -8.5 21q0 13 8.5 21.5t21.5 8.5q12 0 21 -8.5t9 -21.5q0 -12 -9 -21
t-21 -9q-13 0 -21.5 9zM290 977h52l-139 -102h-38z" />
    <glyph glyph-name="Idotaccent.ss01" horiz-adv-x="428" 
d="M231 669v-638h151v-31h-336v31h151v638h-151v31h336v-31h-151zM191.5 797.5q-9.5 9.5 -9.5 22.5t9.5 22.5t22.5 9.5t22.5 -9.5t9.5 -22.5t-9.5 -22.5t-22.5 -9.5t-22.5 9.5z" />
    <glyph glyph-name="uni1ECA.ss01" horiz-adv-x="428" 
d="M231 669v-638h151v-31h-336v31h151v638h-151v31h336v-31h-151zM193 -170.5q-9 8.5 -9 21.5q0 12 9 21t21 9t21 -9t9 -21q0 -13 -9 -21.5t-21 -8.5t-21 8.5z" />
    <glyph glyph-name="Igrave.ss01" horiz-adv-x="428" 
d="M231 669v-638h151v-31h-336v31h151v638h-151v31h336v-31h-151zM71 870h54l139 -113h-40z" />
    <glyph glyph-name="uni1EC8.ss01" horiz-adv-x="428" 
d="M231 669v-638h151v-31h-336v31h151v638h-151v31h336v-31h-151zM205 772q62 27 62 75q0 23 -16 38t-41 15q-33 0 -62 -19l-10 22q14 10 34 16t39 6q38 0 60 -20.5t22 -54.5q0 -32 -18 -55.5t-56 -42.5z" />
    <glyph glyph-name="uni020A.ss01" horiz-adv-x="428" 
d="M231 669v-638h151v-31h-336v31h151v638h-151v31h336v-31h-151zM117 842q39 32 97 32t97 -32t40 -85h-27q-1 42 -32.5 67t-77.5 25t-77.5 -25t-32.5 -67h-27q1 53 40 85z" />
    <glyph glyph-name="Imacron.ss01" horiz-adv-x="428" 
d="M231 669v-638h151v-31h-336v31h151v638h-151v31h336v-31h-151zM73 827h282v-27h-282v27z" />
    <glyph glyph-name="Iogonek.ss01" horiz-adv-x="428" 
d="M231 669v-638h151v-31h-336v31h151v638h-151v31h336v-31h-151zM167 -192.5q-20 22.5 -20 58.5q0 83 71 153l13 -19q-35 -38 -45.5 -68.5t-10.5 -62.5q0 -28 13.5 -43.5t33.5 -15.5q23 0 39 18l12 -20q-21 -23 -53 -23q-33 0 -53 22.5z" />
    <glyph glyph-name="Itilde.ss01" horiz-adv-x="428" 
d="M231 669v-638h151v-31h-336v31h151v638h-151v31h336v-31h-151zM241.5 776.5q-15.5 9.5 -36.5 28.5q-16 15 -28.5 23t-25.5 8q-24 0 -37.5 -17.5t-15.5 -48.5h-25q2 42 22.5 67t54.5 25q21 0 36.5 -9.5t36.5 -28.5q16 -15 28.5 -23t25.5 -8q24 0 37.5 17.5t15.5 46.5h25
q-2 -40 -22.5 -65t-54.5 -25q-21 0 -36.5 9.5z" />
    <glyph glyph-name="J.ss01" horiz-adv-x="483" 
d="M77.5 -77.5q-47.5 26.5 -75.5 72.5l21 22q29 -44 69 -67t89 -23q74 0 110 42.5t36 130.5v569h-260v31h294v-601q0 -203 -181 -203q-55 0 -102.5 26.5z" />
    <glyph glyph-name="Jcircumflex.ss01" horiz-adv-x="483" 
d="M77.5 -77.5q-47.5 26.5 -75.5 72.5l21 22q29 -44 69 -67t89 -23q74 0 110 42.5t36 130.5v569h-260v31h294v-601q0 -203 -181 -203q-55 0 -102.5 26.5zM322 757l-108 90l-108 -90h-37l124 113h42l124 -113h-37z" />
    <glyph glyph-name="uni01C7.ss01" horiz-adv-x="1095" 
d="M128 700h34v-669h410v-31h-444v700zM689.5 -77.5q-47.5 26.5 -75.5 72.5l21 22q29 -44 69 -67t89 -23q74 0 110 42.5t36 130.5v569h-260v31h294v-601q0 -203 -181 -203q-55 0 -102.5 26.5z" />
    <glyph glyph-name="M.ss01" horiz-adv-x="1224" 
d="M1036.5 636.5q65.5 -67.5 65.5 -195.5v-441h-33v439q0 116 -57 175t-161 59q-106 0 -163 -62.5t-57 -189.5v-421h-33v439q0 116 -56.5 175t-160.5 59q-105 0 -162 -62t-57 -190v-421h-34v700h33v-141q27 73 84 109t141 36q90 0 150.5 -42t83.5 -122q25 82 85.5 123
t148.5 41q117 0 182.5 -67.5z" />
    <glyph glyph-name="uni1E42.ss01" horiz-adv-x="1224" 
d="M1036.5 636.5q65.5 -67.5 65.5 -195.5v-441h-33v439q0 116 -57 175t-161 59q-106 0 -163 -62.5t-57 -189.5v-421h-33v439q0 116 -56.5 175t-160.5 59q-105 0 -162 -62t-57 -190v-421h-34v700h33v-141q27 73 84 109t141 36q90 0 150.5 -42t83.5 -122q25 82 85.5 123
t148.5 41q117 0 182.5 -67.5zM593 -170.5q-9 8.5 -9 21.5q0 12 9 21t21 9t21 -9t9 -21q0 -13 -9 -21.5t-21 -8.5t-21 8.5z" />
    <glyph glyph-name="N.ss01" horiz-adv-x="800" 
d="M606 630.5q71 -73.5 71 -209.5v-421h-33v419q0 124 -62.5 189t-177.5 65q-117 0 -179.5 -68.5t-62.5 -204.5v-400h-34v700h33v-152q29 78 93 117t155 39q126 0 197 -73.5z" />
    <glyph glyph-name="uni01CA.ss01" horiz-adv-x="1283" 
d="M606 630.5q71 -73.5 71 -209.5v-421h-33v419q0 124 -62.5 189t-177.5 65q-117 0 -179.5 -68.5t-62.5 -204.5v-400h-34v700h33v-152q29 78 93 117t155 39q126 0 197 -73.5zM877.5 -77.5q-47.5 26.5 -75.5 72.5l21 22q29 -44 69 -67t89 -23q74 0 110 42.5t36 130.5v569
h-260v31h294v-601q0 -203 -181 -203q-55 0 -102.5 26.5z" />
    <glyph glyph-name="Nacute.ss01" horiz-adv-x="800" 
d="M606 630.5q71 -73.5 71 -209.5v-421h-33v419q0 124 -62.5 189t-177.5 65q-117 0 -179.5 -68.5t-62.5 -204.5v-400h-34v700h33v-152q29 78 93 117t155 39q126 0 197 -73.5zM492 870h54l-153 -113h-40z" />
    <glyph glyph-name="Ncaron.ss01" horiz-adv-x="800" 
d="M606 630.5q71 -73.5 71 -209.5v-421h-33v419q0 124 -62.5 189t-177.5 65q-117 0 -179.5 -68.5t-62.5 -204.5v-400h-34v700h33v-152q29 78 93 117t155 39q126 0 197 -73.5zM548 870l-124 -113h-42l-124 113h37l108 -90l108 90h37z" />
    <glyph glyph-name="Ncommaaccent.ss01" horiz-adv-x="800" 
d="M606 630.5q71 -73.5 71 -209.5v-421h-33v419q0 124 -62.5 189t-177.5 65q-117 0 -179.5 -68.5t-62.5 -204.5v-400h-34v700h33v-152q29 78 93 117t155 39q126 0 197 -73.5zM423 -128q8 -9 8 -20q0 -13 -7 -36l-24 -76h-24l19 83q-10 1 -17 9.5t-7 19.5q0 12 8.5 20.5
t21.5 8.5q14 0 22 -9z" />
    <glyph glyph-name="uni1E44.ss01" horiz-adv-x="800" 
d="M606 630.5q71 -73.5 71 -209.5v-421h-33v419q0 124 -62.5 189t-177.5 65q-117 0 -179.5 -68.5t-62.5 -204.5v-400h-34v700h33v-152q29 78 93 117t155 39q126 0 197 -73.5zM380.5 797.5q-9.5 9.5 -9.5 22.5t9.5 22.5t22.5 9.5t22.5 -9.5t9.5 -22.5t-9.5 -22.5t-22.5 -9.5
t-22.5 9.5z" />
    <glyph glyph-name="uni1E46.ss01" horiz-adv-x="800" 
d="M606 630.5q71 -73.5 71 -209.5v-421h-33v419q0 124 -62.5 189t-177.5 65q-117 0 -179.5 -68.5t-62.5 -204.5v-400h-34v700h33v-152q29 78 93 117t155 39q126 0 197 -73.5zM380 -170.5q-9 8.5 -9 21.5q0 12 9 21t21 9t21 -9t9 -21q0 -13 -9 -21.5t-21 -8.5t-21 8.5z" />
    <glyph glyph-name="Eng.ss01" horiz-adv-x="800" 
d="M606 630.5q71 -73.5 71 -209.5v-415q0 -203 -179 -203q-53 0 -100 25t-76 70l20 23q28 -42 68 -65t88 -23q74 0 110 43t36 131v412q0 124 -62.5 189t-177.5 65q-117 0 -179.5 -68.5t-62.5 -204.5v-400h-34v700h33v-152q29 78 93 117t155 39q126 0 197 -73.5z" />
    <glyph glyph-name="uni01CB.ss01" horiz-adv-x="1060" 
d="M606 630.5q71 -73.5 71 -209.5v-421h-33v419q0 124 -62.5 189t-177.5 65q-117 0 -179.5 -68.5t-62.5 -204.5v-400h-34v700h33v-152q29 78 93 117t155 39q126 0 197 -73.5zM759 -188q-28 9 -46 27l17 24q33 -31 87 -31q48 0 73.5 28.5t25.5 81.5v577h33v-581
q0 -62 -34 -98.5t-96 -36.5q-32 0 -60 9zM909 664.5q-10 9.5 -10 22.5q0 14 9.5 23.5t23.5 9.5q13 0 23 -9.5t10 -22.5t-10 -23t-23 -10t-23 9.5z" />
    <glyph glyph-name="uni1E48.ss01" horiz-adv-x="800" 
d="M606 630.5q71 -73.5 71 -209.5v-421h-33v419q0 124 -62.5 189t-177.5 65q-117 0 -179.5 -68.5t-62.5 -204.5v-400h-34v700h33v-152q29 78 93 117t155 39q126 0 197 -73.5zM260 -135h282v-27h-282v27z" />
    <glyph glyph-name="Ntilde.ss01" horiz-adv-x="800" 
d="M606 630.5q71 -73.5 71 -209.5v-421h-33v419q0 124 -62.5 189t-177.5 65q-117 0 -179.5 -68.5t-62.5 -204.5v-400h-34v700h33v-152q29 78 93 117t155 39q126 0 197 -73.5zM430.5 776.5q-15.5 9.5 -36.5 28.5q-16 15 -28.5 23t-25.5 8q-24 0 -37.5 -17.5t-15.5 -48.5h-25
q2 42 22.5 67t54.5 25q21 0 36.5 -9.5t36.5 -28.5q16 -15 28.5 -23t25.5 -8q24 0 37.5 17.5t15.5 46.5h25q-2 -40 -22.5 -65t-54.5 -25q-21 0 -36.5 9.5z" />
    <glyph glyph-name="Q.ss01" horiz-adv-x="837" 
d="M735 173.5q-45 -79.5 -123.5 -126.5t-176.5 -51v-131h-33v131q-98 4 -176.5 51t-123.5 126t-45 177q0 100 47 181t129.5 127t184.5 46t185 -46t130 -127t47 -181q0 -97 -45 -176.5zM594 74.5q71 43.5 111.5 116t40.5 159.5q0 90 -43 164t-118 116.5t-167 42.5
t-166.5 -42.5t-117.5 -116.5t-43 -164q0 -88 40.5 -160t111.5 -115.5t159 -47.5v186h33v-186q88 4 159 47.5z" />
    <glyph glyph-name="uni018F.ss01" horiz-adv-x="816" 
d="M583 658q82 -46 129 -126.5t47 -180.5q0 -97 -47 -178.5t-127.5 -129t-176.5 -47.5q-110 0 -195 55.5t-126 150.5l620 258q-33 96 -116.5 154.5t-191.5 58.5q-137 0 -229 -81l-20 24q48 43 111.5 65.5t137.5 22.5q102 0 184 -46zM567 69.5q73 42.5 115.5 116t42.5 162.5
v4q0 43 -10 79l-583 -243q40 -75 112.5 -118t163.5 -43q86 0 159 42.5z" />
    <glyph glyph-name="T.ss01" horiz-adv-x="557" 
d="M540 604q-107 64 -245 69v-673h-33v673q-134 -3 -245 -69l-14 26q125 74 274 74q152 0 277 -74z" />
    <glyph glyph-name="Tbar.ss01" horiz-adv-x="557" 
d="M540 604q-107 64 -245 69v-673h-33v673q-134 -3 -245 -69l-14 26q125 74 274 74q152 0 277 -74zM95 361h366v-29h-366v29z" />
    <glyph glyph-name="Tcaron.ss01" horiz-adv-x="557" 
d="M540 604q-107 64 -245 69v-673h-33v673q-134 -3 -245 -69l-14 26q125 74 274 74q152 0 277 -74zM424 869l-124 -113h-42l-124 113h37l108 -90l108 90h37z" />
    <glyph glyph-name="uni0162.ss01" horiz-adv-x="557" 
d="M540 604q-107 64 -245 69v-673h-33v673q-134 -3 -245 -69l-14 26q125 74 274 74q152 0 277 -74zM184 -189l13 21q25 -22 63 -22q31 0 50 15t19 42q0 25 -18.5 40.5t-50.5 15.5h-18l23 82h25l-17 -60q39 -2 61.5 -23.5t22.5 -55.5q0 -36 -27.5 -58.5t-69.5 -22.5
q-44 0 -76 26z" />
    <glyph glyph-name="uni021A.ss01" horiz-adv-x="557" 
d="M540 604q-107 64 -245 69v-673h-33v673q-134 -3 -245 -69l-14 26q125 74 274 74q152 0 277 -74zM300 -128q8 -9 8 -20q0 -13 -7 -36l-24 -76h-24l19 83q-10 1 -17 9.5t-7 19.5q0 12 8.5 20.5t21.5 8.5q14 0 22 -9z" />
    <glyph glyph-name="uni1E6C.ss01" horiz-adv-x="557" 
d="M540 604q-107 64 -245 69v-673h-33v673q-134 -3 -245 -69l-14 26q125 74 274 74q152 0 277 -74zM257 -170.5q-9 8.5 -9 21.5q0 12 9 21t21 9t21 -9t9 -21q0 -13 -9 -21.5t-21 -8.5t-21 8.5z" />
    <glyph glyph-name="uni1E6E.ss01" horiz-adv-x="557" 
d="M540 604q-107 64 -245 69v-673h-33v673q-134 -3 -245 -69l-14 26q125 74 274 74q152 0 277 -74zM137 -135h282v-27h-282v27z" />
    <glyph glyph-name="U.ss01" horiz-adv-x="796" 
d="M667 700v-700h-33v150q-30 -77 -92.5 -115.5t-152.5 -38.5q-125 0 -196 73.5t-71 209.5v421h34v-419q0 -124 62 -189t175 -65q116 0 178.5 68.5t62.5 204.5v400h33z" />
    <glyph glyph-name="Uacute.ss01" horiz-adv-x="796" 
d="M667 700v-700h-33v150q-30 -77 -92.5 -115.5t-152.5 -38.5q-125 0 -196 73.5t-71 209.5v421h34v-419q0 -124 62 -189t175 -65q116 0 178.5 68.5t62.5 204.5v400h33zM482 870h54l-153 -113h-40z" />
    <glyph glyph-name="Ubreve.ss01" horiz-adv-x="796" 
d="M667 700v-700h-33v150q-30 -77 -92.5 -115.5t-152.5 -38.5q-125 0 -196 73.5t-71 209.5v421h34v-419q0 -124 62 -189t175 -65q116 0 178.5 68.5t62.5 204.5v400h33zM296 785.5q-39 31.5 -40 84.5h27q1 -41 32.5 -66t77.5 -25t77.5 25t32.5 66h27q-1 -53 -40 -84.5
t-97 -31.5t-97 31.5z" />
    <glyph glyph-name="uni01D3.ss01" horiz-adv-x="796" 
d="M667 700v-700h-33v150q-30 -77 -92.5 -115.5t-152.5 -38.5q-125 0 -196 73.5t-71 209.5v421h34v-419q0 -124 62 -189t175 -65q116 0 178.5 68.5t62.5 204.5v400h33zM538 870l-124 -113h-42l-124 113h37l108 -90l108 90h37z" />
    <glyph glyph-name="Ucircumflex.ss01" horiz-adv-x="796" 
d="M667 700v-700h-33v150q-30 -77 -92.5 -115.5t-152.5 -38.5q-125 0 -196 73.5t-71 209.5v421h34v-419q0 -124 62 -189t175 -65q116 0 178.5 68.5t62.5 204.5v400h33zM501 757l-108 90l-108 -90h-37l124 113h42l124 -113h-37z" />
    <glyph glyph-name="uni0214.ss01" horiz-adv-x="796" 
d="M667 700v-700h-33v150q-30 -77 -92.5 -115.5t-152.5 -38.5q-125 0 -196 73.5t-71 209.5v421h34v-419q0 -124 62 -189t175 -65q116 0 178.5 68.5t62.5 204.5v400h33zM186 870h45l108 -113h-37zM331 870h45l108 -113h-37z" />
    <glyph glyph-name="Udieresis.ss01" horiz-adv-x="796" 
d="M667 700v-700h-33v150q-30 -77 -92.5 -115.5t-152.5 -38.5q-125 0 -196 73.5t-71 209.5v421h34v-419q0 -124 62 -189t175 -65q116 0 178.5 68.5t62.5 204.5v400h33zM288 797q-9 9 -9 21q0 13 9 22t21 9q13 0 21.5 -9t8.5 -22q0 -12 -8.5 -21t-21.5 -9q-12 0 -21 9z
M455.5 797q-8.5 9 -8.5 21q0 13 8.5 22t21.5 9q12 0 21 -9t9 -22q0 -12 -9 -21t-21 -9q-13 0 -21.5 9z" />
    <glyph glyph-name="uni1EE4.ss01" horiz-adv-x="796" 
d="M667 700v-700h-33v150q-30 -77 -92.5 -115.5t-152.5 -38.5q-125 0 -196 73.5t-71 209.5v421h34v-419q0 -124 62 -189t175 -65q116 0 178.5 68.5t62.5 204.5v400h33zM372 -170.5q-9 8.5 -9 21.5q0 12 9 21t21 9t21 -9t9 -21q0 -13 -9 -21.5t-21 -8.5t-21 8.5z" />
    <glyph glyph-name="Ugrave.ss01" horiz-adv-x="796" 
d="M667 700v-700h-33v150q-30 -77 -92.5 -115.5t-152.5 -38.5q-125 0 -196 73.5t-71 209.5v421h34v-419q0 -124 62 -189t175 -65q116 0 178.5 68.5t62.5 204.5v400h33zM250 870h54l139 -113h-40z" />
    <glyph glyph-name="uni1EE6.ss01" horiz-adv-x="796" 
d="M667 700v-700h-33v150q-30 -77 -92.5 -115.5t-152.5 -38.5q-125 0 -196 73.5t-71 209.5v421h34v-419q0 -124 62 -189t175 -65q116 0 178.5 68.5t62.5 204.5v400h33zM384 772q62 27 62 75q0 23 -16 38t-41 15q-33 0 -62 -19l-10 22q14 10 34 16t39 6q38 0 60 -20.5
t22 -54.5q0 -32 -18 -55.5t-56 -42.5z" />
    <glyph glyph-name="Uhorn.ss01" horiz-adv-x="796" 
d="M667 700v-700h-33v150q-30 -77 -92.5 -115.5t-152.5 -38.5q-125 0 -196 73.5t-71 209.5v421h34v-419q0 -124 62 -189t175 -65q116 0 178.5 68.5t62.5 204.5v400h33zM655 700h11q36 0 52.5 19t16.5 50q0 32 -20 67l25 10q11 -15 17 -35.5t6 -40.5q0 -44 -24 -71t-73 -27
h-11v28z" />
    <glyph glyph-name="uni1EE8.ss01" horiz-adv-x="796" 
d="M667 700v-700h-33v150q-30 -77 -92.5 -115.5t-152.5 -38.5q-125 0 -196 73.5t-71 209.5v421h34v-419q0 -124 62 -189t175 -65q116 0 178.5 68.5t62.5 204.5v400h33zM655 700h11q36 0 52.5 19t16.5 50q0 32 -20 67l25 10q11 -15 17 -35.5t6 -40.5q0 -44 -24 -71t-73 -27
h-11v28zM482 870h54l-153 -113h-40z" />
    <glyph glyph-name="uni1EF0.ss01" horiz-adv-x="796" 
d="M667 700v-700h-33v150q-30 -77 -92.5 -115.5t-152.5 -38.5q-125 0 -196 73.5t-71 209.5v421h34v-419q0 -124 62 -189t175 -65q116 0 178.5 68.5t62.5 204.5v400h33zM655 700h11q36 0 52.5 19t16.5 50q0 32 -20 67l25 10q11 -15 17 -35.5t6 -40.5q0 -44 -24 -71t-73 -27
h-11v28zM372 -170.5q-9 8.5 -9 21.5q0 12 9 21t21 9t21 -9t9 -21q0 -13 -9 -21.5t-21 -8.5t-21 8.5z" />
    <glyph glyph-name="uni1EEA.ss01" horiz-adv-x="796" 
d="M667 700v-700h-33v150q-30 -77 -92.5 -115.5t-152.5 -38.5q-125 0 -196 73.5t-71 209.5v421h34v-419q0 -124 62 -189t175 -65q116 0 178.5 68.5t62.5 204.5v400h33zM655 700h11q36 0 52.5 19t16.5 50q0 32 -20 67l25 10q11 -15 17 -35.5t6 -40.5q0 -44 -24 -71t-73 -27
h-11v28zM250 870h54l139 -113h-40z" />
    <glyph glyph-name="uni1EEC.ss01" horiz-adv-x="796" 
d="M667 700v-700h-33v150q-30 -77 -92.5 -115.5t-152.5 -38.5q-125 0 -196 73.5t-71 209.5v421h34v-419q0 -124 62 -189t175 -65q116 0 178.5 68.5t62.5 204.5v400h33zM655 700h11q36 0 52.5 19t16.5 50q0 32 -20 67l25 10q11 -15 17 -35.5t6 -40.5q0 -44 -24 -71t-73 -27
h-11v28zM384 772q62 27 62 75q0 23 -16 38t-41 15q-33 0 -62 -19l-10 22q14 10 34 16t39 6q38 0 60 -20.5t22 -54.5q0 -32 -18 -55.5t-56 -42.5z" />
    <glyph glyph-name="uni1EEE.ss01" horiz-adv-x="796" 
d="M667 700v-700h-33v150q-30 -77 -92.5 -115.5t-152.5 -38.5q-125 0 -196 73.5t-71 209.5v421h34v-419q0 -124 62 -189t175 -65q116 0 178.5 68.5t62.5 204.5v400h33zM655 700h11q36 0 52.5 19t16.5 50q0 32 -20 67l25 10q11 -15 17 -35.5t6 -40.5q0 -44 -24 -71t-73 -27
h-11v28zM420.5 776.5q-15.5 9.5 -36.5 28.5q-16 15 -28.5 23t-25.5 8q-24 0 -37.5 -17.5t-15.5 -48.5h-25q2 42 22.5 67t54.5 25q21 0 36.5 -9.5t36.5 -28.5q16 -15 28.5 -23t25.5 -8q24 0 37.5 17.5t15.5 46.5h25q-2 -40 -22.5 -65t-54.5 -25q-21 0 -36.5 9.5z" />
    <glyph glyph-name="Uhungarumlaut.ss01" horiz-adv-x="796" 
d="M667 700v-700h-33v150q-30 -77 -92.5 -115.5t-152.5 -38.5q-125 0 -196 73.5t-71 209.5v421h34v-419q0 -124 62 -189t175 -65q116 0 178.5 68.5t62.5 204.5v400h33zM410 870h45l-116 -113h-37zM555 870h45l-116 -113h-37z" />
    <glyph glyph-name="uni0216.ss01" horiz-adv-x="796" 
d="M667 700v-700h-33v150q-30 -77 -92.5 -115.5t-152.5 -38.5q-125 0 -196 73.5t-71 209.5v421h34v-419q0 -124 62 -189t175 -65q116 0 178.5 68.5t62.5 204.5v400h33zM296 842q39 32 97 32t97 -32t40 -85h-27q-1 42 -32.5 67t-77.5 25t-77.5 -25t-32.5 -67h-27q1 53 40 85z
" />
    <glyph glyph-name="Umacron.ss01" horiz-adv-x="796" 
d="M667 700v-700h-33v150q-30 -77 -92.5 -115.5t-152.5 -38.5q-125 0 -196 73.5t-71 209.5v421h34v-419q0 -124 62 -189t175 -65q116 0 178.5 68.5t62.5 204.5v400h33zM252 827h282v-27h-282v27z" />
    <glyph glyph-name="uni1E7A.ss01" horiz-adv-x="796" 
d="M667 700v-700h-33v150q-30 -77 -92.5 -115.5t-152.5 -38.5q-125 0 -196 73.5t-71 209.5v421h34v-419q0 -124 62 -189t175 -65q116 0 178.5 68.5t62.5 204.5v400h33zM252 813h282v-26h-282v26zM288.5 916q-8.5 9 -8.5 21q0 13 8.5 21.5t21.5 8.5q12 0 21 -8.5t9 -21.5
q0 -12 -9 -21t-21 -9q-13 0 -21.5 9zM455.5 916q-8.5 9 -8.5 21q0 13 8.5 21.5t21.5 8.5q12 0 21 -8.5t9 -21.5q0 -12 -9 -21t-21 -9q-13 0 -21.5 9z" />
    <glyph glyph-name="Uogonek.ss01" horiz-adv-x="796" 
d="M667 700v-700h-33v150q-30 -77 -92.5 -115.5t-152.5 -38.5q-125 0 -196 73.5t-71 209.5v421h34v-419q0 -124 62 -189t175 -65q116 0 178.5 68.5t62.5 204.5v400h33zM539.5 -191.5q-26.5 23.5 -26.5 62.5q0 87 138 148l16 -19q-72 -31 -99 -63t-27 -65q0 -30 19.5 -46
t51.5 -16q17 0 33 6t28 16l13 -20q-33 -27 -77 -27q-43 0 -69.5 23.5z" />
    <glyph glyph-name="Uring.ss01" horiz-adv-x="796" 
d="M667 700v-700h-33v150q-30 -77 -92.5 -115.5t-152.5 -38.5q-125 0 -196 73.5t-71 209.5v421h34v-419q0 -124 62 -189t175 -65q116 0 178.5 68.5t62.5 204.5v400h33zM324 805q-27 27 -27 66t27 67t68 28t68.5 -28t27.5 -67t-27.5 -66t-68.5 -27t-68 27zM443.5 820.5
q20.5 20.5 20.5 50.5t-21 51t-51 21t-50.5 -21t-20.5 -51t20 -50.5t51 -20.5t51.5 20.5z" />
    <glyph glyph-name="Utilde.ss01" horiz-adv-x="796" 
d="M667 700v-700h-33v150q-30 -77 -92.5 -115.5t-152.5 -38.5q-125 0 -196 73.5t-71 209.5v421h34v-419q0 -124 62 -189t175 -65q116 0 178.5 68.5t62.5 204.5v400h33zM420.5 776.5q-15.5 9.5 -36.5 28.5q-16 15 -28.5 23t-25.5 8q-24 0 -37.5 -17.5t-15.5 -48.5h-25
q2 42 22.5 67t54.5 25q21 0 36.5 -9.5t36.5 -28.5q16 -15 28.5 -23t25.5 -8q24 0 37.5 17.5t15.5 46.5h25q-2 -40 -22.5 -65t-54.5 -25q-21 0 -36.5 9.5z" />
    <glyph glyph-name="uni1E78.ss01" horiz-adv-x="796" 
d="M667 700v-700h-33v150q-30 -77 -92.5 -115.5t-152.5 -38.5q-125 0 -196 73.5t-71 209.5v421h34v-419q0 -124 62 -189t175 -65q116 0 178.5 68.5t62.5 204.5v400h33zM420 778q-16 8 -35 22q-20 13 -30.5 18.5t-23.5 5.5q-23 0 -37 -13.5t-15 -37.5h-25q1 35 22 55.5
t55 20.5q19 0 34.5 -7.5t35.5 -22.5q20 -13 30.5 -18.5t23.5 -5.5q23 0 37.5 13t15.5 37h24q-1 -34 -21.5 -54.5t-54.5 -20.5q-20 0 -36 8zM469 977h52l-139 -102h-38z" />
    <glyph glyph-name="W.ss01" horiz-adv-x="1207" 
d="M1084 700v-431q0 -135 -65.5 -204t-183.5 -69q-92 0 -151.5 42.5t-80.5 125.5q-21 -83 -80.5 -125.5t-150.5 -42.5q-118 0 -184 69t-66 204v431h34v-430q0 -123 55.5 -183t160.5 -60q103 0 158.5 60t55.5 183v430h34v-430q0 -123 55.5 -183t159.5 -60q103 0 159.5 60
t56.5 183v430h33z" />
    <glyph glyph-name="Wacute.ss01" horiz-adv-x="1207" 
d="M1084 700v-431q0 -135 -65.5 -204t-183.5 -69q-92 0 -151.5 42.5t-80.5 125.5q-21 -83 -80.5 -125.5t-150.5 -42.5q-118 0 -184 69t-66 204v431h34v-430q0 -123 55.5 -183t160.5 -60q103 0 158.5 60t55.5 183v430h34v-430q0 -123 55.5 -183t159.5 -60q103 0 159.5 60
t56.5 183v430h33zM692 870h54l-153 -113h-40z" />
    <glyph glyph-name="Wcircumflex.ss01" horiz-adv-x="1207" 
d="M1084 700v-431q0 -135 -65.5 -204t-183.5 -69q-92 0 -151.5 42.5t-80.5 125.5q-21 -83 -80.5 -125.5t-150.5 -42.5q-118 0 -184 69t-66 204v431h34v-430q0 -123 55.5 -183t160.5 -60q103 0 158.5 60t55.5 183v430h34v-430q0 -123 55.5 -183t159.5 -60q103 0 159.5 60
t56.5 183v430h33zM711 757l-108 90l-108 -90h-37l124 113h42l124 -113h-37z" />
    <glyph glyph-name="Wdieresis.ss01" horiz-adv-x="1207" 
d="M1084 700v-431q0 -135 -65.5 -204t-183.5 -69q-92 0 -151.5 42.5t-80.5 125.5q-21 -83 -80.5 -125.5t-150.5 -42.5q-118 0 -184 69t-66 204v431h34v-430q0 -123 55.5 -183t160.5 -60q103 0 158.5 60t55.5 183v430h34v-430q0 -123 55.5 -183t159.5 -60q103 0 159.5 60
t56.5 183v430h33zM498 797q-9 9 -9 21q0 13 9 22t21 9q13 0 21.5 -9t8.5 -22q0 -12 -8.5 -21t-21.5 -9q-12 0 -21 9zM665.5 797q-8.5 9 -8.5 21q0 13 8.5 22t21.5 9q12 0 21 -9t9 -22q0 -12 -9 -21t-21 -9q-13 0 -21.5 9z" />
    <glyph glyph-name="Wgrave.ss01" horiz-adv-x="1207" 
d="M1084 700v-431q0 -135 -65.5 -204t-183.5 -69q-92 0 -151.5 42.5t-80.5 125.5q-21 -83 -80.5 -125.5t-150.5 -42.5q-118 0 -184 69t-66 204v431h34v-430q0 -123 55.5 -183t160.5 -60q103 0 158.5 60t55.5 183v430h34v-430q0 -123 55.5 -183t159.5 -60q103 0 159.5 60
t56.5 183v430h33zM460 870h54l139 -113h-40z" />
    <glyph glyph-name="Y.ss01" horiz-adv-x="789" 
d="M666 700v-504q0 -147 -72.5 -223t-203.5 -76q-83 0 -149 29t-110 84l20 25q44 -54 103 -80.5t137 -26.5q117 0 179.5 67t62.5 201v138q-30 -77 -92.5 -115.5t-152.5 -38.5q-128 0 -199.5 73.5t-71.5 209.5v237h34v-236q0 -124 62 -188.5t177 -64.5q117 0 180 68t63 204
v217h33z" />
    <glyph glyph-name="Yacute.ss01" horiz-adv-x="789" 
d="M666 700v-504q0 -147 -72.5 -223t-203.5 -76q-83 0 -149 29t-110 84l20 25q44 -54 103 -80.5t137 -26.5q117 0 179.5 67t62.5 201v138q-30 -77 -92.5 -115.5t-152.5 -38.5q-128 0 -199.5 73.5t-71.5 209.5v237h34v-236q0 -124 62 -188.5t177 -64.5q117 0 180 68t63 204
v217h33zM481 870h54l-153 -113h-40z" />
    <glyph glyph-name="Ycircumflex.ss01" horiz-adv-x="789" 
d="M666 700v-504q0 -147 -72.5 -223t-203.5 -76q-83 0 -149 29t-110 84l20 25q44 -54 103 -80.5t137 -26.5q117 0 179.5 67t62.5 201v138q-30 -77 -92.5 -115.5t-152.5 -38.5q-128 0 -199.5 73.5t-71.5 209.5v237h34v-236q0 -124 62 -188.5t177 -64.5q117 0 180 68t63 204
v217h33zM500 757l-108 90l-108 -90h-37l124 113h42l124 -113h-37z" />
    <glyph glyph-name="Ydieresis.ss01" horiz-adv-x="789" 
d="M666 700v-504q0 -147 -72.5 -223t-203.5 -76q-83 0 -149 29t-110 84l20 25q44 -54 103 -80.5t137 -26.5q117 0 179.5 67t62.5 201v138q-30 -77 -92.5 -115.5t-152.5 -38.5q-128 0 -199.5 73.5t-71.5 209.5v237h34v-236q0 -124 62 -188.5t177 -64.5q117 0 180 68t63 204
v217h33zM287 797q-9 9 -9 21q0 13 9 22t21 9q13 0 21.5 -9t8.5 -22q0 -12 -8.5 -21t-21.5 -9q-12 0 -21 9zM454.5 797q-8.5 9 -8.5 21q0 13 8.5 22t21.5 9q12 0 21 -9t9 -22q0 -12 -9 -21t-21 -9q-13 0 -21.5 9z" />
    <glyph glyph-name="uni1E8E.ss01" horiz-adv-x="789" 
d="M666 700v-504q0 -147 -72.5 -223t-203.5 -76q-83 0 -149 29t-110 84l20 25q44 -54 103 -80.5t137 -26.5q117 0 179.5 67t62.5 201v138q-30 -77 -92.5 -115.5t-152.5 -38.5q-128 0 -199.5 73.5t-71.5 209.5v237h34v-236q0 -124 62 -188.5t177 -64.5q117 0 180 68t63 204
v217h33zM369.5 797.5q-9.5 9.5 -9.5 22.5t9.5 22.5t22.5 9.5t22.5 -9.5t9.5 -22.5t-9.5 -22.5t-22.5 -9.5t-22.5 9.5z" />
    <glyph glyph-name="uni1EF4.ss01" horiz-adv-x="789" 
d="M666 700v-504q0 -147 -72.5 -223t-203.5 -76q-83 0 -149 29t-110 84l20 25q44 -54 103 -80.5t137 -26.5q117 0 179.5 67t62.5 201v138q-30 -77 -92.5 -115.5t-152.5 -38.5q-128 0 -199.5 73.5t-71.5 209.5v237h34v-236q0 -124 62 -188.5t177 -64.5q117 0 180 68t63 204
v217h33zM633 -170.5q-9 8.5 -9 21.5q0 12 9 21t21 9t21 -9t9 -21q0 -13 -9 -21.5t-21 -8.5t-21 8.5z" />
    <glyph glyph-name="Ygrave.ss01" horiz-adv-x="789" 
d="M666 700v-504q0 -147 -72.5 -223t-203.5 -76q-83 0 -149 29t-110 84l20 25q44 -54 103 -80.5t137 -26.5q117 0 179.5 67t62.5 201v138q-30 -77 -92.5 -115.5t-152.5 -38.5q-128 0 -199.5 73.5t-71.5 209.5v237h34v-236q0 -124 62 -188.5t177 -64.5q117 0 180 68t63 204
v217h33zM249 870h54l139 -113h-40z" />
    <glyph glyph-name="uni1EF6.ss01" horiz-adv-x="789" 
d="M666 700v-504q0 -147 -72.5 -223t-203.5 -76q-83 0 -149 29t-110 84l20 25q44 -54 103 -80.5t137 -26.5q117 0 179.5 67t62.5 201v138q-30 -77 -92.5 -115.5t-152.5 -38.5q-128 0 -199.5 73.5t-71.5 209.5v237h34v-236q0 -124 62 -188.5t177 -64.5q117 0 180 68t63 204
v217h33zM383 772q62 27 62 75q0 23 -16 38t-41 15q-33 0 -62 -19l-10 22q14 10 34 16t39 6q38 0 60 -20.5t22 -54.5q0 -32 -18 -55.5t-56 -42.5z" />
    <glyph glyph-name="uni0232.ss01" horiz-adv-x="789" 
d="M666 700v-504q0 -147 -72.5 -223t-203.5 -76q-83 0 -149 29t-110 84l20 25q44 -54 103 -80.5t137 -26.5q117 0 179.5 67t62.5 201v138q-30 -77 -92.5 -115.5t-152.5 -38.5q-128 0 -199.5 73.5t-71.5 209.5v237h34v-236q0 -124 62 -188.5t177 -64.5q117 0 180 68t63 204
v217h33zM251 827h282v-27h-282v27z" />
    <glyph glyph-name="uni1EF8.ss01" horiz-adv-x="789" 
d="M666 700v-504q0 -147 -72.5 -223t-203.5 -76q-83 0 -149 29t-110 84l20 25q44 -54 103 -80.5t137 -26.5q117 0 179.5 67t62.5 201v138q-30 -77 -92.5 -115.5t-152.5 -38.5q-128 0 -199.5 73.5t-71.5 209.5v237h34v-236q0 -124 62 -188.5t177 -64.5q117 0 180 68t63 204
v217h33zM419.5 776.5q-15.5 9.5 -36.5 28.5q-16 15 -28.5 23t-25.5 8q-24 0 -37.5 -17.5t-15.5 -48.5h-25q2 42 22.5 67t54.5 25q21 0 36.5 -9.5t36.5 -28.5q16 -15 28.5 -23t25.5 -8q24 0 37.5 17.5t15.5 46.5h25q-2 -40 -22.5 -65t-54.5 -25q-21 0 -36.5 9.5z" />
    <glyph glyph-name="Z.ss01" horiz-adv-x="652" 
d="M610 31v-31h-556v23l243 318h-178v30h201l228 298h-493v31h540v-23l-235 -307h167v-30h-190l-237 -309h510z" />
    <glyph glyph-name="Zacute.ss01" horiz-adv-x="652" 
d="M610 31v-31h-556v23l243 318h-178v30h201l228 298h-493v31h540v-23l-235 -307h167v-30h-190l-237 -309h510zM416 870h54l-153 -113h-40z" />
    <glyph glyph-name="Zcaron.ss01" horiz-adv-x="652" 
d="M610 31v-31h-556v23l243 318h-178v30h201l228 298h-493v31h540v-23l-235 -307h167v-30h-190l-237 -309h510zM472 870l-124 -113h-42l-124 113h37l108 -90l108 90h37z" />
    <glyph glyph-name="Zdotaccent.ss01" horiz-adv-x="652" 
d="M610 31v-31h-556v23l243 318h-178v30h201l228 298h-493v31h540v-23l-235 -307h167v-30h-190l-237 -309h510zM304.5 797.5q-9.5 9.5 -9.5 22.5t9.5 22.5t22.5 9.5t22.5 -9.5t9.5 -22.5t-9.5 -22.5t-22.5 -9.5t-22.5 9.5z" />
    <glyph glyph-name="uni1E92.ss01" horiz-adv-x="652" 
d="M610 31v-31h-556v23l243 318h-178v30h201l228 298h-493v31h540v-23l-235 -307h167v-30h-190l-237 -309h510zM315 -170.5q-9 8.5 -9 21.5q0 12 9 21t21 9t21 -9t9 -21q0 -13 -9 -21.5t-21 -8.5t-21 8.5z" />
    <glyph glyph-name="a" unicode="a" horiz-adv-x="578" 
d="M423.5 475q49.5 -48 49.5 -139v-336h-32v104q-25 -50 -74.5 -78.5t-118.5 -28.5q-87 0 -136.5 40t-49.5 106q0 63 45 102.5t144 39.5h189v51q0 77 -40.5 117t-119.5 40q-55 0 -103 -19t-82 -51l-18 24q38 36 91.5 56t112.5 20q93 0 142.5 -48zM440 150v108h-189
q-81 0 -118.5 -30.5t-37.5 -82.5q0 -56 41.5 -88t113.5 -32q140 0 190 125z" />
    <glyph glyph-name="aacute" unicode="&#xe1;" horiz-adv-x="578" 
d="M423.5 475q49.5 -48 49.5 -139v-336h-32v104q-25 -50 -74.5 -78.5t-118.5 -28.5q-87 0 -136.5 40t-49.5 106q0 63 45 102.5t144 39.5h189v51q0 77 -40.5 117t-119.5 40q-55 0 -103 -19t-82 -51l-18 24q38 36 91.5 56t112.5 20q93 0 142.5 -48zM440 150v108h-189
q-81 0 -118.5 -30.5t-37.5 -82.5q0 -56 41.5 -88t113.5 -32q140 0 190 125zM365 720h54l-153 -113h-40z" />
    <glyph glyph-name="abreve" unicode="&#x103;" horiz-adv-x="578" 
d="M423.5 475q49.5 -48 49.5 -139v-336h-32v104q-25 -50 -74.5 -78.5t-118.5 -28.5q-87 0 -136.5 40t-49.5 106q0 63 45 102.5t144 39.5h189v51q0 77 -40.5 117t-119.5 40q-55 0 -103 -19t-82 -51l-18 24q38 36 91.5 56t112.5 20q93 0 142.5 -48zM440 150v108h-189
q-81 0 -118.5 -30.5t-37.5 -82.5q0 -56 41.5 -88t113.5 -32q140 0 190 125zM179 635.5q-39 31.5 -40 84.5h27q1 -41 32.5 -66t77.5 -25t77.5 25t32.5 66h27q-1 -53 -40 -84.5t-97 -31.5t-97 31.5z" />
    <glyph glyph-name="uni1EAF" unicode="&#x1eaf;" horiz-adv-x="578" 
d="M423.5 475q49.5 -48 49.5 -139v-336h-32v104q-25 -50 -74.5 -78.5t-118.5 -28.5q-87 0 -136.5 40t-49.5 106q0 63 45 102.5t144 39.5h189v51q0 77 -40.5 117t-119.5 40q-55 0 -103 -19t-82 -51l-18 24q38 36 91.5 56t112.5 20q93 0 142.5 -48zM440 150v108h-189
q-81 0 -118.5 -30.5t-37.5 -82.5q0 -56 41.5 -88t113.5 -32q140 0 190 125zM183 626.5q-37 22.5 -44 63.5h27q6 -30 35 -46t75 -16t75 16t35 46h27q-7 -41 -44 -63.5t-93 -22.5t-93 22.5zM352 808h52l-139 -102h-38z" />
    <glyph glyph-name="uni1EB7" unicode="&#x1eb7;" horiz-adv-x="578" 
d="M423.5 475q49.5 -48 49.5 -139v-336h-32v104q-25 -50 -74.5 -78.5t-118.5 -28.5q-87 0 -136.5 40t-49.5 106q0 63 45 102.5t144 39.5h189v51q0 77 -40.5 117t-119.5 40q-55 0 -103 -19t-82 -51l-18 24q38 36 91.5 56t112.5 20q93 0 142.5 -48zM440 150v108h-189
q-81 0 -118.5 -30.5t-37.5 -82.5q0 -56 41.5 -88t113.5 -32q140 0 190 125zM263 -170.5q-9 8.5 -9 21.5q0 12 9 21t21 9t21 -9t9 -21q0 -13 -9 -21.5t-21 -8.5t-21 8.5zM179 635.5q-39 31.5 -40 84.5h27q1 -41 32.5 -66t77.5 -25t77.5 25t32.5 66h27q-1 -53 -40 -84.5
t-97 -31.5t-97 31.5z" />
    <glyph glyph-name="uni1EB1" unicode="&#x1eb1;" horiz-adv-x="578" 
d="M423.5 475q49.5 -48 49.5 -139v-336h-32v104q-25 -50 -74.5 -78.5t-118.5 -28.5q-87 0 -136.5 40t-49.5 106q0 63 45 102.5t144 39.5h189v51q0 77 -40.5 117t-119.5 40q-55 0 -103 -19t-82 -51l-18 24q38 36 91.5 56t112.5 20q93 0 142.5 -48zM440 150v108h-189
q-81 0 -118.5 -30.5t-37.5 -82.5q0 -56 41.5 -88t113.5 -32q140 0 190 125zM183 626.5q-37 22.5 -44 63.5h27q6 -30 35 -46t75 -16t75 16t35 46h27q-7 -41 -44 -63.5t-93 -22.5t-93 22.5zM148 808h52l125 -102h-38z" />
    <glyph glyph-name="uni1EB3" unicode="&#x1eb3;" horiz-adv-x="578" 
d="M423.5 475q49.5 -48 49.5 -139v-336h-32v104q-25 -50 -74.5 -78.5t-118.5 -28.5q-87 0 -136.5 40t-49.5 106q0 63 45 102.5t144 39.5h189v51q0 77 -40.5 117t-119.5 40q-55 0 -103 -19t-82 -51l-18 24q38 36 91.5 56t112.5 20q93 0 142.5 -48zM440 150v108h-189
q-81 0 -118.5 -30.5t-37.5 -82.5q0 -56 41.5 -88t113.5 -32q140 0 190 125zM183 626.5q-37 22.5 -44 63.5h27q6 -30 35 -46t75 -16t75 16t35 46h27q-7 -41 -44 -63.5t-93 -22.5t-93 22.5zM268 699q21 10 33 24t12 30t-11.5 26t-30.5 10q-23 0 -43 -13l-9 19q22 17 55 17
q29 0 46 -16t17 -42q0 -23 -14.5 -42t-41.5 -31z" />
    <glyph glyph-name="uni1EB5" unicode="&#x1eb5;" horiz-adv-x="578" 
d="M423.5 475q49.5 -48 49.5 -139v-336h-32v104q-25 -50 -74.5 -78.5t-118.5 -28.5q-87 0 -136.5 40t-49.5 106q0 63 45 102.5t144 39.5h189v51q0 77 -40.5 117t-119.5 40q-55 0 -103 -19t-82 -51l-18 24q38 36 91.5 56t112.5 20q93 0 142.5 -48zM440 150v108h-189
q-81 0 -118.5 -30.5t-37.5 -82.5q0 -56 41.5 -88t113.5 -32q140 0 190 125zM183 626.5q-37 22.5 -44 63.5h27q6 -30 35 -46t75 -16t75 16t35 46h27q-7 -41 -44 -63.5t-93 -22.5t-93 22.5zM303 727q-16 8 -35 22q-20 13 -30.5 18.5t-23.5 5.5q-23 0 -37 -13.5t-15 -37.5h-25
q1 35 22 55.5t55 20.5q19 0 34.5 -7.5t35.5 -22.5q20 -13 30.5 -18.5t23.5 -5.5q23 0 37.5 13t15.5 37h24q-1 -34 -21.5 -54.5t-54.5 -20.5q-20 0 -36 8z" />
    <glyph glyph-name="uni01CE" unicode="&#x1ce;" horiz-adv-x="578" 
d="M423.5 475q49.5 -48 49.5 -139v-336h-32v104q-25 -50 -74.5 -78.5t-118.5 -28.5q-87 0 -136.5 40t-49.5 106q0 63 45 102.5t144 39.5h189v51q0 77 -40.5 117t-119.5 40q-55 0 -103 -19t-82 -51l-18 24q38 36 91.5 56t112.5 20q93 0 142.5 -48zM440 150v108h-189
q-81 0 -118.5 -30.5t-37.5 -82.5q0 -56 41.5 -88t113.5 -32q140 0 190 125zM421 720l-124 -113h-42l-124 113h37l108 -90l108 90h37z" />
    <glyph glyph-name="acircumflex" unicode="&#xe2;" horiz-adv-x="578" 
d="M423.5 475q49.5 -48 49.5 -139v-336h-32v104q-25 -50 -74.5 -78.5t-118.5 -28.5q-87 0 -136.5 40t-49.5 106q0 63 45 102.5t144 39.5h189v51q0 77 -40.5 117t-119.5 40q-55 0 -103 -19t-82 -51l-18 24q38 36 91.5 56t112.5 20q93 0 142.5 -48zM440 150v108h-189
q-81 0 -118.5 -30.5t-37.5 -82.5q0 -56 41.5 -88t113.5 -32q140 0 190 125zM384 607l-108 90l-108 -90h-37l124 113h42l124 -113h-37z" />
    <glyph glyph-name="uni1EA5" unicode="&#x1ea5;" horiz-adv-x="578" 
d="M423.5 475q49.5 -48 49.5 -139v-336h-32v104q-25 -50 -74.5 -78.5t-118.5 -28.5q-87 0 -136.5 40t-49.5 106q0 63 45 102.5t144 39.5h189v51q0 77 -40.5 117t-119.5 40q-55 0 -103 -19t-82 -51l-18 24q38 36 91.5 56t112.5 20q93 0 142.5 -48zM440 150v108h-189
q-81 0 -118.5 -30.5t-37.5 -82.5q0 -56 41.5 -88t113.5 -32q140 0 190 125zM381 607l-105 62l-105 -62h-40l125 83h40l125 -83h-40zM480 786h52l-139 -102h-38z" />
    <glyph glyph-name="uni1EAD" unicode="&#x1ead;" horiz-adv-x="578" 
d="M423.5 475q49.5 -48 49.5 -139v-336h-32v104q-25 -50 -74.5 -78.5t-118.5 -28.5q-87 0 -136.5 40t-49.5 106q0 63 45 102.5t144 39.5h189v51q0 77 -40.5 117t-119.5 40q-55 0 -103 -19t-82 -51l-18 24q38 36 91.5 56t112.5 20q93 0 142.5 -48zM440 150v108h-189
q-81 0 -118.5 -30.5t-37.5 -82.5q0 -56 41.5 -88t113.5 -32q140 0 190 125zM263 -170.5q-9 8.5 -9 21.5q0 12 9 21t21 9t21 -9t9 -21q0 -13 -9 -21.5t-21 -8.5t-21 8.5zM384 607l-108 90l-108 -90h-37l124 113h42l124 -113h-37z" />
    <glyph glyph-name="uni1EA7" unicode="&#x1ea7;" horiz-adv-x="578" 
d="M423.5 475q49.5 -48 49.5 -139v-336h-32v104q-25 -50 -74.5 -78.5t-118.5 -28.5q-87 0 -136.5 40t-49.5 106q0 63 45 102.5t144 39.5h189v51q0 77 -40.5 117t-119.5 40q-55 0 -103 -19t-82 -51l-18 24q38 36 91.5 56t112.5 20q93 0 142.5 -48zM440 150v108h-189
q-81 0 -118.5 -30.5t-37.5 -82.5q0 -56 41.5 -88t113.5 -32q140 0 190 125zM381 607l-105 62l-105 -62h-40l125 83h40l125 -83h-40zM276 786h52l125 -102h-38z" />
    <glyph glyph-name="uni1EA9" unicode="&#x1ea9;" horiz-adv-x="578" 
d="M423.5 475q49.5 -48 49.5 -139v-336h-32v104q-25 -50 -74.5 -78.5t-118.5 -28.5q-87 0 -136.5 40t-49.5 106q0 63 45 102.5t144 39.5h189v51q0 77 -40.5 117t-119.5 40q-55 0 -103 -19t-82 -51l-18 24q38 36 91.5 56t112.5 20q93 0 142.5 -48zM440 150v108h-189
q-81 0 -118.5 -30.5t-37.5 -82.5q0 -56 41.5 -88t113.5 -32q140 0 190 125zM381 607l-105 62l-105 -62h-40l125 83h40l125 -83h-40zM373 687q21 10 33 24t12 30t-11.5 26t-30.5 10q-23 0 -43 -13l-9 19q22 17 55 17q29 0 46 -16t17 -42q0 -23 -14.5 -42t-41.5 -31z" />
    <glyph glyph-name="uni1EAB" unicode="&#x1eab;" horiz-adv-x="578" 
d="M423.5 475q49.5 -48 49.5 -139v-336h-32v104q-25 -50 -74.5 -78.5t-118.5 -28.5q-87 0 -136.5 40t-49.5 106q0 63 45 102.5t144 39.5h189v51q0 77 -40.5 117t-119.5 40q-55 0 -103 -19t-82 -51l-18 24q38 36 91.5 56t112.5 20q93 0 142.5 -48zM440 150v108h-189
q-81 0 -118.5 -30.5t-37.5 -82.5q0 -56 41.5 -88t113.5 -32q140 0 190 125zM381 607l-105 62l-105 -62h-40l125 83h40l125 -83h-40zM303 732q-16 8 -35 22q-20 13 -30.5 18.5t-23.5 5.5q-23 0 -37 -13.5t-15 -37.5h-25q1 35 22 55.5t55 20.5q19 0 34.5 -7.5t35.5 -22.5
q20 -13 30.5 -18.5t23.5 -5.5q23 0 37.5 13t15.5 37h24q-1 -34 -21.5 -54.5t-54.5 -20.5q-20 0 -36 8z" />
    <glyph glyph-name="uni0201" unicode="&#x201;" horiz-adv-x="578" 
d="M423.5 475q49.5 -48 49.5 -139v-336h-32v104q-25 -50 -74.5 -78.5t-118.5 -28.5q-87 0 -136.5 40t-49.5 106q0 63 45 102.5t144 39.5h189v51q0 77 -40.5 117t-119.5 40q-55 0 -103 -19t-82 -51l-18 24q38 36 91.5 56t112.5 20q93 0 142.5 -48zM440 150v108h-189
q-81 0 -118.5 -30.5t-37.5 -82.5q0 -56 41.5 -88t113.5 -32q140 0 190 125zM69 720h45l108 -113h-37zM214 720h45l108 -113h-37z" />
    <glyph glyph-name="adieresis" unicode="&#xe4;" horiz-adv-x="578" 
d="M423.5 475q49.5 -48 49.5 -139v-336h-32v104q-25 -50 -74.5 -78.5t-118.5 -28.5q-87 0 -136.5 40t-49.5 106q0 63 45 102.5t144 39.5h189v51q0 77 -40.5 117t-119.5 40q-55 0 -103 -19t-82 -51l-18 24q38 36 91.5 56t112.5 20q93 0 142.5 -48zM440 150v108h-189
q-81 0 -118.5 -30.5t-37.5 -82.5q0 -56 41.5 -88t113.5 -32q140 0 190 125zM171 647q-9 9 -9 21q0 13 9 22t21 9q13 0 21.5 -9t8.5 -22q0 -12 -8.5 -21t-21.5 -9q-12 0 -21 9zM338.5 647q-8.5 9 -8.5 21q0 13 8.5 22t21.5 9q12 0 21 -9t9 -22q0 -12 -9 -21t-21 -9
q-13 0 -21.5 9z" />
    <glyph glyph-name="uni1EA1" unicode="&#x1ea1;" horiz-adv-x="578" 
d="M423.5 475q49.5 -48 49.5 -139v-336h-32v104q-25 -50 -74.5 -78.5t-118.5 -28.5q-87 0 -136.5 40t-49.5 106q0 63 45 102.5t144 39.5h189v51q0 77 -40.5 117t-119.5 40q-55 0 -103 -19t-82 -51l-18 24q38 36 91.5 56t112.5 20q93 0 142.5 -48zM440 150v108h-189
q-81 0 -118.5 -30.5t-37.5 -82.5q0 -56 41.5 -88t113.5 -32q140 0 190 125zM263 -170.5q-9 8.5 -9 21.5q0 12 9 21t21 9t21 -9t9 -21q0 -13 -9 -21.5t-21 -8.5t-21 8.5z" />
    <glyph glyph-name="agrave" unicode="&#xe0;" horiz-adv-x="578" 
d="M423.5 475q49.5 -48 49.5 -139v-336h-32v104q-25 -50 -74.5 -78.5t-118.5 -28.5q-87 0 -136.5 40t-49.5 106q0 63 45 102.5t144 39.5h189v51q0 77 -40.5 117t-119.5 40q-55 0 -103 -19t-82 -51l-18 24q38 36 91.5 56t112.5 20q93 0 142.5 -48zM440 150v108h-189
q-81 0 -118.5 -30.5t-37.5 -82.5q0 -56 41.5 -88t113.5 -32q140 0 190 125zM133 720h54l139 -113h-40z" />
    <glyph glyph-name="uni1EA3" unicode="&#x1ea3;" horiz-adv-x="578" 
d="M423.5 475q49.5 -48 49.5 -139v-336h-32v104q-25 -50 -74.5 -78.5t-118.5 -28.5q-87 0 -136.5 40t-49.5 106q0 63 45 102.5t144 39.5h189v51q0 77 -40.5 117t-119.5 40q-55 0 -103 -19t-82 -51l-18 24q38 36 91.5 56t112.5 20q93 0 142.5 -48zM440 150v108h-189
q-81 0 -118.5 -30.5t-37.5 -82.5q0 -56 41.5 -88t113.5 -32q140 0 190 125zM267 622q62 27 62 75q0 23 -16 38t-41 15q-33 0 -62 -19l-10 22q14 10 34 16t39 6q38 0 60 -20.5t22 -54.5q0 -32 -18 -55.5t-56 -42.5z" />
    <glyph glyph-name="uni0203" unicode="&#x203;" horiz-adv-x="578" 
d="M423.5 475q49.5 -48 49.5 -139v-336h-32v104q-25 -50 -74.5 -78.5t-118.5 -28.5q-87 0 -136.5 40t-49.5 106q0 63 45 102.5t144 39.5h189v51q0 77 -40.5 117t-119.5 40q-55 0 -103 -19t-82 -51l-18 24q38 36 91.5 56t112.5 20q93 0 142.5 -48zM440 150v108h-189
q-81 0 -118.5 -30.5t-37.5 -82.5q0 -56 41.5 -88t113.5 -32q140 0 190 125zM179 692q39 32 97 32t97 -32t40 -85h-27q-1 42 -32.5 67t-77.5 25t-77.5 -25t-32.5 -67h-27q1 53 40 85z" />
    <glyph glyph-name="amacron" unicode="&#x101;" horiz-adv-x="578" 
d="M423.5 475q49.5 -48 49.5 -139v-336h-32v104q-25 -50 -74.5 -78.5t-118.5 -28.5q-87 0 -136.5 40t-49.5 106q0 63 45 102.5t144 39.5h189v51q0 77 -40.5 117t-119.5 40q-55 0 -103 -19t-82 -51l-18 24q38 36 91.5 56t112.5 20q93 0 142.5 -48zM440 150v108h-189
q-81 0 -118.5 -30.5t-37.5 -82.5q0 -56 41.5 -88t113.5 -32q140 0 190 125zM135 677h282v-27h-282v27z" />
    <glyph glyph-name="aogonek" unicode="&#x105;" horiz-adv-x="578" 
d="M423.5 475q49.5 -48 49.5 -139v-336h-32v104q-25 -50 -74.5 -78.5t-118.5 -28.5q-87 0 -136.5 40t-49.5 106q0 63 45 102.5t144 39.5h189v51q0 77 -40.5 117t-119.5 40q-55 0 -103 -19t-82 -51l-18 24q38 36 91.5 56t112.5 20q93 0 142.5 -48zM440 150v108h-189
q-81 0 -118.5 -30.5t-37.5 -82.5q0 -56 41.5 -88t113.5 -32q140 0 190 125zM345.5 -191.5q-26.5 23.5 -26.5 62.5q0 87 138 148l16 -19q-72 -31 -99 -63t-27 -65q0 -30 19.5 -46t51.5 -16q17 0 33 6t28 16l13 -20q-33 -27 -77 -27q-43 0 -69.5 23.5z" />
    <glyph glyph-name="aring" unicode="&#xe5;" horiz-adv-x="578" 
d="M423.5 475q49.5 -48 49.5 -139v-336h-32v104q-25 -50 -74.5 -78.5t-118.5 -28.5q-87 0 -136.5 40t-49.5 106q0 63 45 102.5t144 39.5h189v51q0 77 -40.5 117t-119.5 40q-55 0 -103 -19t-82 -51l-18 24q38 36 91.5 56t112.5 20q93 0 142.5 -48zM440 150v108h-189
q-81 0 -118.5 -30.5t-37.5 -82.5q0 -56 41.5 -88t113.5 -32q140 0 190 125zM207 624q-27 27 -27 66t27 67t68 28t68.5 -28t27.5 -67t-27.5 -66t-68.5 -27t-68 27zM326.5 639.5q20.5 20.5 20.5 50.5t-21 51t-51 21t-50.5 -21t-20.5 -51t20 -50.5t51 -20.5t51.5 20.5z" />
    <glyph glyph-name="aringacute" unicode="&#x1fb;" horiz-adv-x="578" 
d="M423.5 475q49.5 -48 49.5 -139v-336h-32v104q-25 -50 -74.5 -78.5t-118.5 -28.5q-87 0 -136.5 40t-49.5 106q0 63 45 102.5t144 39.5h189v51q0 77 -40.5 117t-119.5 40q-55 0 -103 -19t-82 -51l-18 24q38 36 91.5 56t112.5 20q93 0 142.5 -48zM440 150v108h-189
q-81 0 -118.5 -30.5t-37.5 -82.5q0 -56 41.5 -88t113.5 -32q140 0 190 125zM349 751q22 -27 22 -61q0 -39 -27.5 -66t-68.5 -27t-68 27t-27 66t27 67t68 28q30 0 55 -17l81 78l23 -18zM326.5 639.5q20.5 20.5 20.5 50.5t-21 51t-51 21t-50.5 -21t-20.5 -51t20 -50.5
t51 -20.5t51.5 20.5z" />
    <glyph glyph-name="atilde" unicode="&#xe3;" horiz-adv-x="578" 
d="M423.5 475q49.5 -48 49.5 -139v-336h-32v104q-25 -50 -74.5 -78.5t-118.5 -28.5q-87 0 -136.5 40t-49.5 106q0 63 45 102.5t144 39.5h189v51q0 77 -40.5 117t-119.5 40q-55 0 -103 -19t-82 -51l-18 24q38 36 91.5 56t112.5 20q93 0 142.5 -48zM440 150v108h-189
q-81 0 -118.5 -30.5t-37.5 -82.5q0 -56 41.5 -88t113.5 -32q140 0 190 125zM303.5 626.5q-15.5 9.5 -36.5 28.5q-16 15 -28.5 23t-25.5 8q-24 0 -37.5 -17.5t-15.5 -48.5h-25q2 42 22.5 67t54.5 25q21 0 36.5 -9.5t36.5 -28.5q16 -15 28.5 -23t25.5 -8q24 0 37.5 17.5
t15.5 46.5h25q-2 -40 -22.5 -65t-54.5 -25q-21 0 -36.5 9.5z" />
    <glyph glyph-name="ae" unicode="&#xe6;" horiz-adv-x="981" 
d="M928 257h-455q0 -67 30 -119.5t82.5 -81.5t118.5 -29q52 0 96.5 19.5t75.5 57.5l21 -22q-35 -42 -85.5 -63.5t-108.5 -21.5q-79 0 -142.5 38.5t-96.5 111.5q-19 -76 -77.5 -113t-137.5 -37q-87 0 -137 40t-50 107q0 62 45 101t144 39h189v52q0 77 -40.5 117t-119.5 40
q-55 0 -103 -19t-82 -51l-18 24q38 36 91.5 56t112.5 20q161 0 186 -139q30 64 87.5 101.5t130.5 37.5q68 0 124 -33t88 -91.5t32 -132.5q0 -6 -1 -9zM581 466.5q-47 -26.5 -75 -74t-32 -108.5h422q-4 61 -32.5 108.5t-75.5 74t-103 26.5q-57 0 -104 -26.5zM388.5 72
q51.5 47 51.5 130v55h-189q-81 0 -118.5 -30.5t-37.5 -81.5q0 -56 41.5 -88t114.5 -32q86 0 137.5 47z" />
    <glyph glyph-name="aeacute" unicode="&#x1fd;" horiz-adv-x="981" 
d="M928 257h-455q0 -67 30 -119.5t82.5 -81.5t118.5 -29q52 0 96.5 19.5t75.5 57.5l21 -22q-35 -42 -85.5 -63.5t-108.5 -21.5q-79 0 -142.5 38.5t-96.5 111.5q-19 -76 -77.5 -113t-137.5 -37q-87 0 -137 40t-50 107q0 62 45 101t144 39h189v52q0 77 -40.5 117t-119.5 40
q-55 0 -103 -19t-82 -51l-18 24q38 36 91.5 56t112.5 20q161 0 186 -139q30 64 87.5 101.5t130.5 37.5q68 0 124 -33t88 -91.5t32 -132.5q0 -6 -1 -9zM581 466.5q-47 -26.5 -75 -74t-32 -108.5h422q-4 61 -32.5 108.5t-75.5 74t-103 26.5q-57 0 -104 -26.5zM388.5 72
q51.5 47 51.5 130v55h-189q-81 0 -118.5 -30.5t-37.5 -81.5q0 -56 41.5 -88t114.5 -32q86 0 137.5 47zM545 720h54l-153 -113h-40z" />
    <glyph glyph-name="b" unicode="b" horiz-adv-x="673" 
d="M496 489.5q58 -33.5 91.5 -93.5t33.5 -136t-33.5 -136t-91.5 -93.5t-129 -33.5q-76 0 -135.5 38.5t-88.5 106.5v-142h-32v742h33v-362q29 67 88.5 105t134.5 38q71 0 129 -33.5zM479.5 56.5q50.5 29.5 79.5 82.5t29 121t-29 120.5t-79.5 82t-113.5 29.5t-113.5 -29.5
t-79.5 -82t-29 -120.5t29 -121t79.5 -82.5t113.5 -29.5t113.5 29.5z" />
    <glyph glyph-name="c" unicode="c" horiz-adv-x="549" 
d="M177.5 30.5q-58.5 33.5 -92 93.5t-33.5 136t33.5 136t92 93.5t132.5 33.5q59 0 109.5 -22.5t82.5 -66.5l-25 -21q-28 39 -71.5 59t-95.5 20q-64 0 -115.5 -29.5t-80.5 -82t-29 -120.5t29 -121t80.5 -82.5t115.5 -29.5q52 0 95.5 20t71.5 59l25 -20q-32 -44 -82.5 -66.5
t-109.5 -22.5q-74 0 -132.5 33.5z" />
    <glyph glyph-name="cacute" unicode="&#x107;" horiz-adv-x="549" 
d="M177.5 30.5q-58.5 33.5 -92 93.5t-33.5 136t33.5 136t92 93.5t132.5 33.5q59 0 109.5 -22.5t82.5 -66.5l-25 -21q-28 39 -71.5 59t-95.5 20q-64 0 -115.5 -29.5t-80.5 -82t-29 -120.5t29 -121t80.5 -82.5t115.5 -29.5q52 0 95.5 20t71.5 59l25 -20q-32 -44 -82.5 -66.5
t-109.5 -22.5q-74 0 -132.5 33.5zM382 720h54l-153 -113h-40z" />
    <glyph glyph-name="ccaron" unicode="&#x10d;" horiz-adv-x="549" 
d="M177.5 30.5q-58.5 33.5 -92 93.5t-33.5 136t33.5 136t92 93.5t132.5 33.5q59 0 109.5 -22.5t82.5 -66.5l-25 -21q-28 39 -71.5 59t-95.5 20q-64 0 -115.5 -29.5t-80.5 -82t-29 -120.5t29 -121t80.5 -82.5t115.5 -29.5q52 0 95.5 20t71.5 59l25 -20q-32 -44 -82.5 -66.5
t-109.5 -22.5q-74 0 -132.5 33.5zM438 720l-124 -113h-42l-124 113h37l108 -90l108 90h37z" />
    <glyph glyph-name="ccedilla" unicode="&#xe7;" horiz-adv-x="549" 
d="M177.5 30.5q-58.5 33.5 -92 93.5t-33.5 136t33.5 136t92 93.5t132.5 33.5q59 0 109.5 -22.5t82.5 -66.5l-25 -21q-28 39 -71.5 59t-95.5 20q-64 0 -115.5 -29.5t-80.5 -82t-29 -120.5t29 -121t80.5 -82.5t115.5 -29.5q52 0 95.5 20t71.5 59l25 -20q-32 -44 -82.5 -66.5
t-109.5 -22.5q-74 0 -132.5 33.5zM199 -189l13 21q25 -22 63 -22q31 0 50 15t19 42q0 25 -18.5 40.5t-50.5 15.5h-18l23 82h25l-17 -60q39 -2 61.5 -23.5t22.5 -55.5q0 -36 -27.5 -58.5t-69.5 -22.5q-44 0 -76 26z" />
    <glyph glyph-name="uni1E09" unicode="&#x1e09;" horiz-adv-x="549" 
d="M177.5 30.5q-58.5 33.5 -92 93.5t-33.5 136t33.5 136t92 93.5t132.5 33.5q59 0 109.5 -22.5t82.5 -66.5l-25 -21q-28 39 -71.5 59t-95.5 20q-64 0 -115.5 -29.5t-80.5 -82t-29 -120.5t29 -121t80.5 -82.5t115.5 -29.5q52 0 95.5 20t71.5 59l25 -20q-32 -44 -82.5 -66.5
t-109.5 -22.5q-74 0 -132.5 33.5zM199 -189l13 21q25 -22 63 -22q31 0 50 15t19 42q0 25 -18.5 40.5t-50.5 15.5h-18l23 82h25l-17 -60q39 -2 61.5 -23.5t22.5 -55.5q0 -36 -27.5 -58.5t-69.5 -22.5q-44 0 -76 26zM382 720h54l-153 -113h-40z" />
    <glyph glyph-name="ccircumflex" unicode="&#x109;" horiz-adv-x="549" 
d="M177.5 30.5q-58.5 33.5 -92 93.5t-33.5 136t33.5 136t92 93.5t132.5 33.5q59 0 109.5 -22.5t82.5 -66.5l-25 -21q-28 39 -71.5 59t-95.5 20q-64 0 -115.5 -29.5t-80.5 -82t-29 -120.5t29 -121t80.5 -82.5t115.5 -29.5q52 0 95.5 20t71.5 59l25 -20q-32 -44 -82.5 -66.5
t-109.5 -22.5q-74 0 -132.5 33.5zM401 607l-108 90l-108 -90h-37l124 113h42l124 -113h-37z" />
    <glyph glyph-name="cdotaccent" unicode="&#x10b;" horiz-adv-x="549" 
d="M177.5 30.5q-58.5 33.5 -92 93.5t-33.5 136t33.5 136t92 93.5t132.5 33.5q59 0 109.5 -22.5t82.5 -66.5l-25 -21q-28 39 -71.5 59t-95.5 20q-64 0 -115.5 -29.5t-80.5 -82t-29 -120.5t29 -121t80.5 -82.5t115.5 -29.5q52 0 95.5 20t71.5 59l25 -20q-32 -44 -82.5 -66.5
t-109.5 -22.5q-74 0 -132.5 33.5zM270.5 647.5q-9.5 9.5 -9.5 22.5t9.5 22.5t22.5 9.5t22.5 -9.5t9.5 -22.5t-9.5 -22.5t-22.5 -9.5t-22.5 9.5z" />
    <glyph glyph-name="d" unicode="d" horiz-adv-x="673" 
d="M562 742v-742h-32v142q-29 -68 -88.5 -106.5t-135.5 -38.5q-71 0 -129 33.5t-91.5 93.5t-33.5 136t33.5 136t91.5 93.5t129 33.5q75 0 134.5 -38t88.5 -105v362h33zM420.5 56.5q50.5 29.5 79.5 82.5t29 121t-29 120.5t-79.5 82t-113.5 29.5t-113.5 -29.5t-79.5 -82
t-29 -120.5t29 -121t79.5 -82.5t113.5 -29.5t113.5 29.5z" />
    <glyph glyph-name="eth" unicode="&#xf0;" horiz-adv-x="622" 
d="M539 526q31 -75 31 -177q0 -164 -73 -258.5t-210 -94.5q-68 0 -121.5 27t-83.5 76.5t-30 114.5t30 114.5t85 76.5t127 27q90 0 154 -47.5t80 -132.5q9 49 9 102q0 98 -31 168t-88 110l-269 -118l-11 26l249 109q-56 28 -131 28q-79 0 -149 -21l-7 30q73 21 156 21
q97 0 166 -42l89 39l11 -27l-71 -31q57 -45 88 -120zM405.5 53q49.5 27 75 70t25.5 91q0 52 -27 95t-74.5 68t-108.5 25q-98 0 -154.5 -51.5t-56.5 -136.5q0 -55 25.5 -97.5t72 -66.5t106.5 -24q67 0 116.5 27z" />
    <glyph glyph-name="dcaron" unicode="&#x10f;" horiz-adv-x="673" 
d="M562 742v-742h-32v142q-29 -68 -88.5 -106.5t-135.5 -38.5q-71 0 -129 33.5t-91.5 93.5t-33.5 136t33.5 136t91.5 93.5t129 33.5q75 0 134.5 -38t88.5 -105v362h33zM420.5 56.5q50.5 29.5 79.5 82.5t29 121t-29 120.5t-79.5 82t-113.5 29.5t-113.5 -29.5t-79.5 -82
t-29 -120.5t29 -121t79.5 -82.5t113.5 -29.5t113.5 29.5zM660 764h30l-4 -182h-26v182z" />
    <glyph glyph-name="dcroat" unicode="&#x111;" horiz-adv-x="673" 
d="M562 742v-742h-32v142q-29 -68 -88.5 -106.5t-135.5 -38.5q-71 0 -129 33.5t-91.5 93.5t-33.5 136t33.5 136t91.5 93.5t129 33.5q75 0 134.5 -38t88.5 -105v362h33zM420.5 56.5q50.5 29.5 79.5 82.5t29 121t-29 120.5t-79.5 82t-113.5 29.5t-113.5 -29.5t-79.5 -82
t-29 -120.5t29 -121t79.5 -82.5t113.5 -29.5t113.5 29.5zM291 646h382v-28h-382v28z" />
    <glyph glyph-name="uni1E0D" unicode="&#x1e0d;" horiz-adv-x="673" 
d="M562 742v-742h-32v142q-29 -68 -88.5 -106.5t-135.5 -38.5q-71 0 -129 33.5t-91.5 93.5t-33.5 136t33.5 136t91.5 93.5t129 33.5q75 0 134.5 -38t88.5 -105v362h33zM420.5 56.5q50.5 29.5 79.5 82.5t29 121t-29 120.5t-79.5 82t-113.5 29.5t-113.5 -29.5t-79.5 -82
t-29 -120.5t29 -121t79.5 -82.5t113.5 -29.5t113.5 29.5zM310 -170.5q-9 8.5 -9 21.5q0 12 9 21t21 9t21 -9t9 -21q0 -13 -9 -21.5t-21 -8.5t-21 8.5z" />
    <glyph glyph-name="uni1E0F" unicode="&#x1e0f;" horiz-adv-x="673" 
d="M562 742v-742h-32v142q-29 -68 -88.5 -106.5t-135.5 -38.5q-71 0 -129 33.5t-91.5 93.5t-33.5 136t33.5 136t91.5 93.5t129 33.5q75 0 134.5 -38t88.5 -105v362h33zM420.5 56.5q50.5 29.5 79.5 82.5t29 121t-29 120.5t-79.5 82t-113.5 29.5t-113.5 -29.5t-79.5 -82
t-29 -120.5t29 -121t79.5 -82.5t113.5 -29.5t113.5 29.5zM190 -135h282v-27h-282v27z" />
    <glyph glyph-name="uni01C6" unicode="&#x1c6;" horiz-adv-x="1188" 
d="M562 742v-742h-32v142q-29 -68 -88.5 -106.5t-135.5 -38.5q-71 0 -129 33.5t-91.5 93.5t-33.5 136t33.5 136t91.5 93.5t129 33.5q75 0 134.5 -38t88.5 -105v362h33zM420.5 56.5q50.5 29.5 79.5 82.5t29 121t-29 120.5t-79.5 82t-113.5 29.5t-113.5 -29.5t-79.5 -82
t-29 -120.5t29 -121t79.5 -82.5t113.5 -29.5t113.5 29.5zM1124 29v-29h-405v23l356 467h-351v29h395v-23l-357 -467h362zM1067 720l-124 -113h-42l-124 113h37l108 -90l108 90h37z" />
    <glyph glyph-name="e" unicode="e" horiz-adv-x="591" 
d="M539 255h-455q1 -66 31 -118t82.5 -81t117.5 -29q53 0 98 19.5t74 57.5l21 -22q-35 -41 -85 -63t-108 -22q-76 0 -135.5 33.5t-93.5 93.5t-34 136t31.5 136t87.5 93.5t125 33.5q68 0 123.5 -33t87.5 -92t32 -134v-9zM191 466q-47 -27 -75 -75.5t-31 -108.5h423
q-4 60 -32.5 108.5t-75 75.5t-104.5 27t-105 -27z" />
    <glyph glyph-name="eacute" unicode="&#xe9;" horiz-adv-x="591" 
d="M539 255h-455q1 -66 31 -118t82.5 -81t117.5 -29q53 0 98 19.5t74 57.5l21 -22q-35 -41 -85 -63t-108 -22q-76 0 -135.5 33.5t-93.5 93.5t-34 136t31.5 136t87.5 93.5t125 33.5q68 0 123.5 -33t87.5 -92t32 -134v-9zM191 466q-47 -27 -75 -75.5t-31 -108.5h423
q-4 60 -32.5 108.5t-75 75.5t-104.5 27t-105 -27zM385 720h54l-153 -113h-40z" />
    <glyph glyph-name="ebreve" unicode="&#x115;" horiz-adv-x="591" 
d="M539 255h-455q1 -66 31 -118t82.5 -81t117.5 -29q53 0 98 19.5t74 57.5l21 -22q-35 -41 -85 -63t-108 -22q-76 0 -135.5 33.5t-93.5 93.5t-34 136t31.5 136t87.5 93.5t125 33.5q68 0 123.5 -33t87.5 -92t32 -134v-9zM191 466q-47 -27 -75 -75.5t-31 -108.5h423
q-4 60 -32.5 108.5t-75 75.5t-104.5 27t-105 -27zM199 635.5q-39 31.5 -40 84.5h27q1 -41 32.5 -66t77.5 -25t77.5 25t32.5 66h27q-1 -53 -40 -84.5t-97 -31.5t-97 31.5z" />
    <glyph glyph-name="ecaron" unicode="&#x11b;" horiz-adv-x="591" 
d="M539 255h-455q1 -66 31 -118t82.5 -81t117.5 -29q53 0 98 19.5t74 57.5l21 -22q-35 -41 -85 -63t-108 -22q-76 0 -135.5 33.5t-93.5 93.5t-34 136t31.5 136t87.5 93.5t125 33.5q68 0 123.5 -33t87.5 -92t32 -134v-9zM191 466q-47 -27 -75 -75.5t-31 -108.5h423
q-4 60 -32.5 108.5t-75 75.5t-104.5 27t-105 -27zM441 720l-124 -113h-42l-124 113h37l108 -90l108 90h37z" />
    <glyph glyph-name="uni1E1D" unicode="&#x1e1d;" horiz-adv-x="591" 
d="M539 255h-455q1 -66 31 -118t82.5 -81t117.5 -29q53 0 98 19.5t74 57.5l21 -22q-35 -41 -85 -63t-108 -22q-76 0 -135.5 33.5t-93.5 93.5t-34 136t31.5 136t87.5 93.5t125 33.5q68 0 123.5 -33t87.5 -92t32 -134v-9zM191 466q-47 -27 -75 -75.5t-31 -108.5h423
q-4 60 -32.5 108.5t-75 75.5t-104.5 27t-105 -27zM202 -189l13 21q25 -22 63 -22q31 0 50 15t19 42q0 25 -18.5 40.5t-50.5 15.5h-18l23 82h25l-17 -60q39 -2 61.5 -23.5t22.5 -55.5q0 -36 -27.5 -58.5t-69.5 -22.5q-44 0 -76 26zM199 635.5q-39 31.5 -40 84.5h27
q1 -41 32.5 -66t77.5 -25t77.5 25t32.5 66h27q-1 -53 -40 -84.5t-97 -31.5t-97 31.5z" />
    <glyph glyph-name="ecircumflex" unicode="&#xea;" horiz-adv-x="591" 
d="M539 255h-455q1 -66 31 -118t82.5 -81t117.5 -29q53 0 98 19.5t74 57.5l21 -22q-35 -41 -85 -63t-108 -22q-76 0 -135.5 33.5t-93.5 93.5t-34 136t31.5 136t87.5 93.5t125 33.5q68 0 123.5 -33t87.5 -92t32 -134v-9zM191 466q-47 -27 -75 -75.5t-31 -108.5h423
q-4 60 -32.5 108.5t-75 75.5t-104.5 27t-105 -27zM404 607l-108 90l-108 -90h-37l124 113h42l124 -113h-37z" />
    <glyph glyph-name="uni1EBF" unicode="&#x1ebf;" horiz-adv-x="591" 
d="M539 255h-455q1 -66 31 -118t82.5 -81t117.5 -29q53 0 98 19.5t74 57.5l21 -22q-35 -41 -85 -63t-108 -22q-76 0 -135.5 33.5t-93.5 93.5t-34 136t31.5 136t87.5 93.5t125 33.5q68 0 123.5 -33t87.5 -92t32 -134v-9zM191 466q-47 -27 -75 -75.5t-31 -108.5h423
q-4 60 -32.5 108.5t-75 75.5t-104.5 27t-105 -27zM401 607l-105 62l-105 -62h-40l125 83h40l125 -83h-40zM500 786h52l-139 -102h-38z" />
    <glyph glyph-name="uni1EC7" unicode="&#x1ec7;" horiz-adv-x="591" 
d="M539 255h-455q1 -66 31 -118t82.5 -81t117.5 -29q53 0 98 19.5t74 57.5l21 -22q-35 -41 -85 -63t-108 -22q-76 0 -135.5 33.5t-93.5 93.5t-34 136t31.5 136t87.5 93.5t125 33.5q68 0 123.5 -33t87.5 -92t32 -134v-9zM191 466q-47 -27 -75 -75.5t-31 -108.5h423
q-4 60 -32.5 108.5t-75 75.5t-104.5 27t-105 -27zM275 -170.5q-9 8.5 -9 21.5q0 12 9 21t21 9t21 -9t9 -21q0 -13 -9 -21.5t-21 -8.5t-21 8.5zM404 607l-108 90l-108 -90h-37l124 113h42l124 -113h-37z" />
    <glyph glyph-name="uni1EC1" unicode="&#x1ec1;" horiz-adv-x="591" 
d="M539 255h-455q1 -66 31 -118t82.5 -81t117.5 -29q53 0 98 19.5t74 57.5l21 -22q-35 -41 -85 -63t-108 -22q-76 0 -135.5 33.5t-93.5 93.5t-34 136t31.5 136t87.5 93.5t125 33.5q68 0 123.5 -33t87.5 -92t32 -134v-9zM191 466q-47 -27 -75 -75.5t-31 -108.5h423
q-4 60 -32.5 108.5t-75 75.5t-104.5 27t-105 -27zM401 607l-105 62l-105 -62h-40l125 83h40l125 -83h-40zM296 786h52l125 -102h-38z" />
    <glyph glyph-name="uni1EC3" unicode="&#x1ec3;" horiz-adv-x="591" 
d="M539 255h-455q1 -66 31 -118t82.5 -81t117.5 -29q53 0 98 19.5t74 57.5l21 -22q-35 -41 -85 -63t-108 -22q-76 0 -135.5 33.5t-93.5 93.5t-34 136t31.5 136t87.5 93.5t125 33.5q68 0 123.5 -33t87.5 -92t32 -134v-9zM191 466q-47 -27 -75 -75.5t-31 -108.5h423
q-4 60 -32.5 108.5t-75 75.5t-104.5 27t-105 -27zM401 607l-105 62l-105 -62h-40l125 83h40l125 -83h-40zM393 687q21 10 33 24t12 30t-11.5 26t-30.5 10q-23 0 -43 -13l-9 19q22 17 55 17q29 0 46 -16t17 -42q0 -23 -14.5 -42t-41.5 -31z" />
    <glyph glyph-name="uni1EC5" unicode="&#x1ec5;" horiz-adv-x="591" 
d="M539 255h-455q1 -66 31 -118t82.5 -81t117.5 -29q53 0 98 19.5t74 57.5l21 -22q-35 -41 -85 -63t-108 -22q-76 0 -135.5 33.5t-93.5 93.5t-34 136t31.5 136t87.5 93.5t125 33.5q68 0 123.5 -33t87.5 -92t32 -134v-9zM191 466q-47 -27 -75 -75.5t-31 -108.5h423
q-4 60 -32.5 108.5t-75 75.5t-104.5 27t-105 -27zM401 607l-105 62l-105 -62h-40l125 83h40l125 -83h-40zM323 732q-16 8 -35 22q-20 13 -30.5 18.5t-23.5 5.5q-23 0 -37 -13.5t-15 -37.5h-25q1 35 22 55.5t55 20.5q19 0 34.5 -7.5t35.5 -22.5q20 -13 30.5 -18.5t23.5 -5.5
q23 0 37.5 13t15.5 37h24q-1 -34 -21.5 -54.5t-54.5 -20.5q-20 0 -36 8z" />
    <glyph glyph-name="uni0205" unicode="&#x205;" horiz-adv-x="591" 
d="M539 255h-455q1 -66 31 -118t82.5 -81t117.5 -29q53 0 98 19.5t74 57.5l21 -22q-35 -41 -85 -63t-108 -22q-76 0 -135.5 33.5t-93.5 93.5t-34 136t31.5 136t87.5 93.5t125 33.5q68 0 123.5 -33t87.5 -92t32 -134v-9zM191 466q-47 -27 -75 -75.5t-31 -108.5h423
q-4 60 -32.5 108.5t-75 75.5t-104.5 27t-105 -27zM89 720h45l108 -113h-37zM234 720h45l108 -113h-37z" />
    <glyph glyph-name="edieresis" unicode="&#xeb;" horiz-adv-x="591" 
d="M539 255h-455q1 -66 31 -118t82.5 -81t117.5 -29q53 0 98 19.5t74 57.5l21 -22q-35 -41 -85 -63t-108 -22q-76 0 -135.5 33.5t-93.5 93.5t-34 136t31.5 136t87.5 93.5t125 33.5q68 0 123.5 -33t87.5 -92t32 -134v-9zM191 466q-47 -27 -75 -75.5t-31 -108.5h423
q-4 60 -32.5 108.5t-75 75.5t-104.5 27t-105 -27zM191 647q-9 9 -9 21q0 13 9 22t21 9q13 0 21.5 -9t8.5 -22q0 -12 -8.5 -21t-21.5 -9q-12 0 -21 9zM358.5 647q-8.5 9 -8.5 21q0 13 8.5 22t21.5 9q12 0 21 -9t9 -22q0 -12 -9 -21t-21 -9q-13 0 -21.5 9z" />
    <glyph glyph-name="edotaccent" unicode="&#x117;" horiz-adv-x="591" 
d="M539 255h-455q1 -66 31 -118t82.5 -81t117.5 -29q53 0 98 19.5t74 57.5l21 -22q-35 -41 -85 -63t-108 -22q-76 0 -135.5 33.5t-93.5 93.5t-34 136t31.5 136t87.5 93.5t125 33.5q68 0 123.5 -33t87.5 -92t32 -134v-9zM191 466q-47 -27 -75 -75.5t-31 -108.5h423
q-4 60 -32.5 108.5t-75 75.5t-104.5 27t-105 -27zM273.5 647.5q-9.5 9.5 -9.5 22.5t9.5 22.5t22.5 9.5t22.5 -9.5t9.5 -22.5t-9.5 -22.5t-22.5 -9.5t-22.5 9.5z" />
    <glyph glyph-name="uni1EB9" unicode="&#x1eb9;" horiz-adv-x="591" 
d="M539 255h-455q1 -66 31 -118t82.5 -81t117.5 -29q53 0 98 19.5t74 57.5l21 -22q-35 -41 -85 -63t-108 -22q-76 0 -135.5 33.5t-93.5 93.5t-34 136t31.5 136t87.5 93.5t125 33.5q68 0 123.5 -33t87.5 -92t32 -134v-9zM191 466q-47 -27 -75 -75.5t-31 -108.5h423
q-4 60 -32.5 108.5t-75 75.5t-104.5 27t-105 -27zM275 -170.5q-9 8.5 -9 21.5q0 12 9 21t21 9t21 -9t9 -21q0 -13 -9 -21.5t-21 -8.5t-21 8.5z" />
    <glyph glyph-name="egrave" unicode="&#xe8;" horiz-adv-x="591" 
d="M539 255h-455q1 -66 31 -118t82.5 -81t117.5 -29q53 0 98 19.5t74 57.5l21 -22q-35 -41 -85 -63t-108 -22q-76 0 -135.5 33.5t-93.5 93.5t-34 136t31.5 136t87.5 93.5t125 33.5q68 0 123.5 -33t87.5 -92t32 -134v-9zM191 466q-47 -27 -75 -75.5t-31 -108.5h423
q-4 60 -32.5 108.5t-75 75.5t-104.5 27t-105 -27zM153 720h54l139 -113h-40z" />
    <glyph glyph-name="uni1EBB" unicode="&#x1ebb;" horiz-adv-x="591" 
d="M539 255h-455q1 -66 31 -118t82.5 -81t117.5 -29q53 0 98 19.5t74 57.5l21 -22q-35 -41 -85 -63t-108 -22q-76 0 -135.5 33.5t-93.5 93.5t-34 136t31.5 136t87.5 93.5t125 33.5q68 0 123.5 -33t87.5 -92t32 -134v-9zM191 466q-47 -27 -75 -75.5t-31 -108.5h423
q-4 60 -32.5 108.5t-75 75.5t-104.5 27t-105 -27zM287 622q62 27 62 75q0 23 -16 38t-41 15q-33 0 -62 -19l-10 22q14 10 34 16t39 6q38 0 60 -20.5t22 -54.5q0 -32 -18 -55.5t-56 -42.5z" />
    <glyph glyph-name="uni0207" unicode="&#x207;" horiz-adv-x="591" 
d="M539 255h-455q1 -66 31 -118t82.5 -81t117.5 -29q53 0 98 19.5t74 57.5l21 -22q-35 -41 -85 -63t-108 -22q-76 0 -135.5 33.5t-93.5 93.5t-34 136t31.5 136t87.5 93.5t125 33.5q68 0 123.5 -33t87.5 -92t32 -134v-9zM191 466q-47 -27 -75 -75.5t-31 -108.5h423
q-4 60 -32.5 108.5t-75 75.5t-104.5 27t-105 -27zM199 692q39 32 97 32t97 -32t40 -85h-27q-1 42 -32.5 67t-77.5 25t-77.5 -25t-32.5 -67h-27q1 53 40 85z" />
    <glyph glyph-name="emacron" unicode="&#x113;" horiz-adv-x="591" 
d="M539 255h-455q1 -66 31 -118t82.5 -81t117.5 -29q53 0 98 19.5t74 57.5l21 -22q-35 -41 -85 -63t-108 -22q-76 0 -135.5 33.5t-93.5 93.5t-34 136t31.5 136t87.5 93.5t125 33.5q68 0 123.5 -33t87.5 -92t32 -134v-9zM191 466q-47 -27 -75 -75.5t-31 -108.5h423
q-4 60 -32.5 108.5t-75 75.5t-104.5 27t-105 -27zM155 677h282v-27h-282v27z" />
    <glyph glyph-name="uni1E17" unicode="&#x1e17;" horiz-adv-x="591" 
d="M539 255h-455q1 -66 31 -118t82.5 -81t117.5 -29q53 0 98 19.5t74 57.5l21 -22q-35 -41 -85 -63t-108 -22q-76 0 -135.5 33.5t-93.5 93.5t-34 136t31.5 136t87.5 93.5t125 33.5q68 0 123.5 -33t87.5 -92t32 -134v-9zM191 466q-47 -27 -75 -75.5t-31 -108.5h423
q-4 60 -32.5 108.5t-75 75.5t-104.5 27t-105 -27zM155 662h282v-26h-282v26zM372 827h52l-139 -102h-38z" />
    <glyph glyph-name="uni1E15" unicode="&#x1e15;" horiz-adv-x="591" 
d="M539 255h-455q1 -66 31 -118t82.5 -81t117.5 -29q53 0 98 19.5t74 57.5l21 -22q-35 -41 -85 -63t-108 -22q-76 0 -135.5 33.5t-93.5 93.5t-34 136t31.5 136t87.5 93.5t125 33.5q68 0 123.5 -33t87.5 -92t32 -134v-9zM191 466q-47 -27 -75 -75.5t-31 -108.5h423
q-4 60 -32.5 108.5t-75 75.5t-104.5 27t-105 -27zM155 662h282v-26h-282v26zM168 827h52l125 -102h-38z" />
    <glyph glyph-name="eogonek" unicode="&#x119;" horiz-adv-x="591" 
d="M539 255h-455q1 -66 31 -118t82.5 -81t117.5 -29q53 0 98 19.5t74 57.5l21 -22q-10 -11 -37 -35q-71 -66 -94 -103t-23 -70q0 -31 19.5 -47.5t50.5 -16.5q37 0 62 22l13 -20q-33 -27 -77 -27q-43 0 -69.5 23.5t-26.5 64.5q0 69 73 137q-39 -13 -84 -13q-76 0 -135.5 33.5
t-93.5 93.5t-34 136t31.5 136t87.5 93.5t125 33.5q68 0 123.5 -33t87.5 -92t32 -134v-9zM191 466q-47 -27 -75 -75.5t-31 -108.5h423q-4 60 -32.5 108.5t-75 75.5t-104.5 27t-105 -27z" />
    <glyph glyph-name="uni1EBD" unicode="&#x1ebd;" horiz-adv-x="591" 
d="M539 255h-455q1 -66 31 -118t82.5 -81t117.5 -29q53 0 98 19.5t74 57.5l21 -22q-35 -41 -85 -63t-108 -22q-76 0 -135.5 33.5t-93.5 93.5t-34 136t31.5 136t87.5 93.5t125 33.5q68 0 123.5 -33t87.5 -92t32 -134v-9zM191 466q-47 -27 -75 -75.5t-31 -108.5h423
q-4 60 -32.5 108.5t-75 75.5t-104.5 27t-105 -27zM323.5 626.5q-15.5 9.5 -36.5 28.5q-16 15 -28.5 23t-25.5 8q-24 0 -37.5 -17.5t-15.5 -48.5h-25q2 42 22.5 67t54.5 25q21 0 36.5 -9.5t36.5 -28.5q16 -15 28.5 -23t25.5 -8q24 0 37.5 17.5t15.5 46.5h25q-2 -40 -22.5 -65
t-54.5 -25q-21 0 -36.5 9.5z" />
    <glyph glyph-name="uni0259" unicode="&#x259;" horiz-adv-x="591" 
d="M52 264h455q-1 66 -31 118t-82.5 81t-117.5 29q-53 0 -98 -19.5t-74 -57.5l-21 22q35 41 85 63t108 22q76 0 135.5 -33.5t93.5 -93.5t34 -136t-31.5 -136t-87.5 -93.5t-125 -33.5q-68 0 -123.5 33t-87.5 92t-32 134v9zM400 53q47 27 75 75.5t31 108.5h-423
q4 -60 32.5 -108.5t75 -75.5t104.5 -27t105 27z" />
    <glyph glyph-name="uni0292" unicode="&#x292;" horiz-adv-x="494" 
d="M390.5 149q62.5 -54 62.5 -146q0 -91 -61.5 -146t-174.5 -55q-77 0 -143 27t-99 71l17 25q31 -41 91.5 -67t132.5 -26q99 0 151.5 45.5t52.5 125.5t-54 125.5t-161 45.5h-40v24l220 291h-387v30h429v-24l-221 -292h1q121 0 183.5 -54z" />
    <glyph glyph-name="uni01EF" unicode="&#x1ef;" horiz-adv-x="494" 
d="M390.5 149q62.5 -54 62.5 -146q0 -91 -61.5 -146t-174.5 -55q-77 0 -143 27t-99 71l17 25q31 -41 91.5 -67t132.5 -26q99 0 151.5 45.5t52.5 125.5t-54 125.5t-161 45.5h-40v24l220 291h-387v30h429v-24l-221 -292h1q121 0 183.5 -54zM360 720l-124 -113h-42l-124 113h37
l108 -90l108 90h37z" />
    <glyph glyph-name="f" unicode="f" horiz-adv-x="318" 
d="M178.5 688.5q-25.5 -27.5 -25.5 -81.5v-88h171v-29h-171v-490h-33v490h-98v29h98v92q0 62 35 98t98 36q30 0 57.5 -9t45.5 -26l-17 -25q-34 31 -84 31q-51 0 -76.5 -27.5z" />
    <glyph glyph-name="g" unicode="g" horiz-adv-x="679" 
d="M568 519v-469q0 -126 -61 -186.5t-184 -60.5q-72 0 -134 22t-99 62l19 25q40 -38 94.5 -58.5t118.5 -20.5q109 0 161 51.5t52 161.5v110q-29 -64 -89 -101t-137 -37q-73 0 -131.5 32.5t-92 90t-33.5 130.5t33.5 130.5t92 89.5t131.5 32q77 0 137.5 -37t89.5 -102v135h32z
M425.5 76.5q51.5 28.5 81 79.5t29.5 115t-29.5 114.5t-81 78.5t-115.5 28t-115.5 -28t-80.5 -78.5t-29 -114.5q0 -65 29 -115.5t80.5 -79t115.5 -28.5t115.5 28.5z" />
    <glyph glyph-name="gbreve" unicode="&#x11f;" horiz-adv-x="679" 
d="M568 519v-469q0 -126 -61 -186.5t-184 -60.5q-72 0 -134 22t-99 62l19 25q40 -38 94.5 -58.5t118.5 -20.5q109 0 161 51.5t52 161.5v110q-29 -64 -89 -101t-137 -37q-73 0 -131.5 32.5t-92 90t-33.5 130.5t33.5 130.5t92 89.5t131.5 32q77 0 137.5 -37t89.5 -102v135h32z
M425.5 76.5q51.5 28.5 81 79.5t29.5 115t-29.5 114.5t-81 78.5t-115.5 28t-115.5 -28t-80.5 -78.5t-29 -114.5q0 -65 29 -115.5t80.5 -79t115.5 -28.5t115.5 28.5zM220 635.5q-39 31.5 -40 84.5h27q1 -41 32.5 -66t77.5 -25t77.5 25t32.5 66h27q-1 -53 -40 -84.5t-97 -31.5
t-97 31.5z" />
    <glyph glyph-name="gcaron" unicode="&#x1e7;" horiz-adv-x="679" 
d="M568 519v-469q0 -126 -61 -186.5t-184 -60.5q-72 0 -134 22t-99 62l19 25q40 -38 94.5 -58.5t118.5 -20.5q109 0 161 51.5t52 161.5v110q-29 -64 -89 -101t-137 -37q-73 0 -131.5 32.5t-92 90t-33.5 130.5t33.5 130.5t92 89.5t131.5 32q77 0 137.5 -37t89.5 -102v135h32z
M425.5 76.5q51.5 28.5 81 79.5t29.5 115t-29.5 114.5t-81 78.5t-115.5 28t-115.5 -28t-80.5 -78.5t-29 -114.5q0 -65 29 -115.5t80.5 -79t115.5 -28.5t115.5 28.5zM462 720l-124 -113h-42l-124 113h37l108 -90l108 90h37z" />
    <glyph glyph-name="gcircumflex" unicode="&#x11d;" horiz-adv-x="679" 
d="M568 519v-469q0 -126 -61 -186.5t-184 -60.5q-72 0 -134 22t-99 62l19 25q40 -38 94.5 -58.5t118.5 -20.5q109 0 161 51.5t52 161.5v110q-29 -64 -89 -101t-137 -37q-73 0 -131.5 32.5t-92 90t-33.5 130.5t33.5 130.5t92 89.5t131.5 32q77 0 137.5 -37t89.5 -102v135h32z
M425.5 76.5q51.5 28.5 81 79.5t29.5 115t-29.5 114.5t-81 78.5t-115.5 28t-115.5 -28t-80.5 -78.5t-29 -114.5q0 -65 29 -115.5t80.5 -79t115.5 -28.5t115.5 28.5zM425 607l-108 90l-108 -90h-37l124 113h42l124 -113h-37z" />
    <glyph glyph-name="gcommaaccent" unicode="&#x123;" horiz-adv-x="679" 
d="M568 519v-469q0 -126 -61 -186.5t-184 -60.5q-72 0 -134 22t-99 62l19 25q40 -38 94.5 -58.5t118.5 -20.5q109 0 161 51.5t52 161.5v110q-29 -64 -89 -101t-137 -37q-73 0 -131.5 32.5t-92 90t-33.5 130.5t33.5 130.5t92 89.5t131.5 32q77 0 137.5 -37t89.5 -102v135h32z
M425.5 76.5q51.5 28.5 81 79.5t29.5 115t-29.5 114.5t-81 78.5t-115.5 28t-115.5 -28t-80.5 -78.5t-29 -114.5q0 -65 29 -115.5t80.5 -79t115.5 -28.5t115.5 28.5zM341 652q7 -8 7 -19q0 -12 -8.5 -20.5t-22.5 -8.5t-22.5 9t-8.5 20q0 10 7 33l29 98h24l-23 -103
q11 -1 18 -9z" />
    <glyph glyph-name="gdotaccent" unicode="&#x121;" horiz-adv-x="679" 
d="M568 519v-469q0 -126 -61 -186.5t-184 -60.5q-72 0 -134 22t-99 62l19 25q40 -38 94.5 -58.5t118.5 -20.5q109 0 161 51.5t52 161.5v110q-29 -64 -89 -101t-137 -37q-73 0 -131.5 32.5t-92 90t-33.5 130.5t33.5 130.5t92 89.5t131.5 32q77 0 137.5 -37t89.5 -102v135h32z
M425.5 76.5q51.5 28.5 81 79.5t29.5 115t-29.5 114.5t-81 78.5t-115.5 28t-115.5 -28t-80.5 -78.5t-29 -114.5q0 -65 29 -115.5t80.5 -79t115.5 -28.5t115.5 28.5zM294.5 647.5q-9.5 9.5 -9.5 22.5t9.5 22.5t22.5 9.5t22.5 -9.5t9.5 -22.5t-9.5 -22.5t-22.5 -9.5t-22.5 9.5z
" />
    <glyph glyph-name="uni1E21" unicode="&#x1e21;" horiz-adv-x="679" 
d="M568 519v-469q0 -126 -61 -186.5t-184 -60.5q-72 0 -134 22t-99 62l19 25q40 -38 94.5 -58.5t118.5 -20.5q109 0 161 51.5t52 161.5v110q-29 -64 -89 -101t-137 -37q-73 0 -131.5 32.5t-92 90t-33.5 130.5t33.5 130.5t92 89.5t131.5 32q77 0 137.5 -37t89.5 -102v135h32z
M425.5 76.5q51.5 28.5 81 79.5t29.5 115t-29.5 114.5t-81 78.5t-115.5 28t-115.5 -28t-80.5 -78.5t-29 -114.5q0 -65 29 -115.5t80.5 -79t115.5 -28.5t115.5 28.5zM176 677h282v-27h-282v27z" />
    <glyph glyph-name="uni01E5" unicode="&#x1e5;" horiz-adv-x="682" 
d="M632 -67h-82q-24 -66 -80.5 -98t-146.5 -32q-72 0 -134 22t-99 62l19 25q40 -38 94.5 -58.5t118.5 -20.5q150 0 193 100h-219v27h229q10 36 10 86v113q-29 -64 -89 -101t-137 -37q-73 0 -131.5 32.5t-92 90t-33.5 129.5t33.5 129t92 89t131.5 32q77 0 137.5 -36.5
t89.5 -101.5v134h32v-469q0 -53 -10 -90h74v-27zM425.5 79q51.5 28 81 79t29.5 115t-29.5 114t-81 78t-115.5 28t-115.5 -28t-80.5 -78t-29 -114q0 -65 29 -115.5t80.5 -78.5t115.5 -28t115.5 28z" />
    <glyph glyph-name="h" unicode="h" horiz-adv-x="670" 
d="M509 466.5q56 -56.5 56 -161.5v-305h-33v303q0 92 -46.5 140.5t-132.5 48.5q-97 0 -153 -57.5t-56 -154.5v-280h-33v742h33v-347q26 60 81 94t131 34q97 0 153 -56.5z" />
    <glyph glyph-name="hbar" unicode="&#x127;" horiz-adv-x="670" 
d="M509 466.5q56 -56.5 56 -161.5v-305h-33v303q0 92 -46.5 140.5t-132.5 48.5q-97 0 -153 -57.5t-56 -154.5v-280h-33v742h33v-347q26 60 81 94t131 34q97 0 153 -56.5zM0 646h382v-28h-382v28z" />
    <glyph glyph-name="uni1E2B" unicode="&#x1e2b;" horiz-adv-x="670" 
d="M509 466.5q56 -56.5 56 -161.5v-305h-33v303q0 92 -46.5 140.5t-132.5 48.5q-97 0 -153 -57.5t-56 -154.5v-280h-33v742h33v-347q26 60 81 94t131 34q97 0 153 -56.5zM239 -169.5q-39 30.5 -40 81.5h26q1 -40 32.5 -63.5t78.5 -23.5t78.5 23.5t32.5 63.5h26
q-1 -51 -40 -81.5t-97 -30.5t-97 30.5z" />
    <glyph glyph-name="uni021F" unicode="&#x21f;" horiz-adv-x="670" 
d="M509 466.5q56 -56.5 56 -161.5v-305h-33v303q0 92 -46.5 140.5t-132.5 48.5q-97 0 -153 -57.5t-56 -154.5v-280h-33v742h33v-347q26 60 81 94t131 34q97 0 153 -56.5zM272 943l-124 -113h-42l-124 113h37l108 -90l108 90h37z" />
    <glyph glyph-name="hcircumflex" unicode="&#x125;" horiz-adv-x="670" 
d="M509 466.5q56 -56.5 56 -161.5v-305h-33v303q0 92 -46.5 140.5t-132.5 48.5q-97 0 -153 -57.5t-56 -154.5v-280h-33v742h33v-347q26 60 81 94t131 34q97 0 153 -56.5zM235 799l-108 90l-108 -90h-37l124 113h42l124 -113h-37z" />
    <glyph glyph-name="uni1E25" unicode="&#x1e25;" horiz-adv-x="670" 
d="M509 466.5q56 -56.5 56 -161.5v-305h-33v303q0 92 -46.5 140.5t-132.5 48.5q-97 0 -153 -57.5t-56 -154.5v-280h-33v742h33v-347q26 60 81 94t131 34q97 0 153 -56.5zM315 -170.5q-9 8.5 -9 21.5q0 12 9 21t21 9t21 -9t9 -21q0 -13 -9 -21.5t-21 -8.5t-21 8.5z" />
    <glyph glyph-name="i" unicode="i" horiz-adv-x="255" 
d="M111 519h33v-519h-33v519zM104 664.5q-10 9.5 -10 22.5q0 14 9.5 23.5t23.5 9.5q13 0 23 -9.5t10 -22.5t-10 -23t-23 -10t-23 9.5z" />
    <glyph glyph-name="dotlessi" unicode="&#x131;" horiz-adv-x="255" 
d="M111 519h33v-519h-33v519z" />
    <glyph glyph-name="iacute" unicode="&#xed;" horiz-adv-x="255" 
d="M111 519h33v-519h-33v519zM216 720h54l-153 -113h-40z" />
    <glyph glyph-name="ibreve" unicode="&#x12d;" horiz-adv-x="255" 
d="M111 519h33v-519h-33v519zM46 635.5q-31 31.5 -31 84.5h26q0 -42 23.5 -66.5t62.5 -24.5t62.5 24.5t23.5 66.5h26q0 -53 -31 -84.5t-81 -31.5t-81 31.5z" />
    <glyph glyph-name="icircumflex" unicode="&#xee;" horiz-adv-x="255" 
d="M111 519h33v-519h-33v519zM211 607l-84 89l-84 -89h-36l100 113h40l100 -113h-36z" />
    <glyph glyph-name="uni0209" unicode="&#x209;" horiz-adv-x="255" 
d="M111 519h33v-519h-33v519zM-80 720h45l108 -113h-37zM65 720h45l108 -113h-37z" />
    <glyph glyph-name="idieresis" unicode="&#xef;" horiz-adv-x="255" 
d="M111 519h33v-519h-33v519zM47.5 647q-8.5 9 -8.5 21q0 13 8.5 22t20.5 9q13 0 21.5 -9t8.5 -22q0 -12 -8.5 -21t-21.5 -9q-12 0 -20.5 9zM164.5 647q-8.5 9 -8.5 21q0 13 8.5 22t21.5 9q12 0 20.5 -9t8.5 -22q0 -12 -8.5 -21t-20.5 -9q-13 0 -21.5 9z" />
    <glyph glyph-name="uni1E2F" unicode="&#x1e2f;" horiz-adv-x="255" 
d="M111 519h33v-519h-33v519zM22.5 647q-8.5 9 -8.5 21q0 13 8.5 21.5t21.5 8.5q12 0 21 -8.5t9 -21.5q0 -12 -9 -21t-21 -9q-13 0 -21.5 9zM189.5 647q-8.5 9 -8.5 21q0 13 8.5 21.5t21.5 8.5q12 0 21 -8.5t9 -21.5q0 -12 -9 -21t-21 -9q-13 0 -21.5 9zM203 827h52
l-139 -102h-38z" />
    <glyph glyph-name="i.loclTRK" horiz-adv-x="255" 
d="M111 519h33v-519h-33v519zM104.5 647.5q-9.5 9.5 -9.5 22.5t9.5 22.5t22.5 9.5t22.5 -9.5t9.5 -22.5t-9.5 -22.5t-22.5 -9.5t-22.5 9.5z" />
    <glyph glyph-name="uni1ECB" unicode="&#x1ecb;" horiz-adv-x="255" 
d="M111 519h33v-519h-33v519zM104 664.5q-10 9.5 -10 22.5q0 14 9.5 23.5t23.5 9.5q13 0 23 -9.5t10 -22.5t-10 -23t-23 -10t-23 9.5zM106 -170.5q-9 8.5 -9 21.5q0 12 9 21t21 9t21 -9t9 -21q0 -13 -9 -21.5t-21 -8.5t-21 8.5z" />
    <glyph glyph-name="igrave" unicode="&#xec;" horiz-adv-x="255" 
d="M111 519h33v-519h-33v519zM-16 720h54l139 -113h-40z" />
    <glyph glyph-name="uni1EC9" unicode="&#x1ec9;" horiz-adv-x="255" 
d="M111 519h33v-519h-33v519zM118 622q62 27 62 75q0 23 -16 38t-41 15q-33 0 -62 -19l-10 22q14 10 34 16t39 6q38 0 60 -20.5t22 -54.5q0 -32 -18 -55.5t-56 -42.5z" />
    <glyph glyph-name="uni020B" unicode="&#x20b;" horiz-adv-x="255" 
d="M111 519h33v-519h-33v519zM46.5 692q31.5 32 80.5 32t80.5 -32t31.5 -85h-26q0 42 -23.5 67t-62.5 25t-62.5 -25t-23.5 -67h-26q0 53 31.5 85z" />
    <glyph glyph-name="ij" unicode="&#x133;" horiz-adv-x="515" 
d="M111 519h33v-519h-33v519zM104 664.5q-10 9.5 -10 22.5q0 14 9.5 23.5t23.5 9.5q13 0 23 -9.5t10 -22.5t-10 -23t-23 -10t-23 9.5zM214 -188q-28 9 -46 27l17 24q33 -31 87 -31q48 0 73.5 28.5t25.5 81.5v577h33v-581q0 -62 -34 -98.5t-96 -36.5q-32 0 -60 9zM364 664.5
q-10 9.5 -10 22.5q0 14 9.5 23.5t23.5 9.5q13 0 23 -9.5t10 -22.5t-10 -23t-23 -10t-23 9.5z" />
    <glyph glyph-name="imacron" unicode="&#x12b;" horiz-adv-x="255" 
d="M111 519h33v-519h-33v519zM12 677h230v-27h-230v27z" />
    <glyph glyph-name="iogonek" unicode="&#x12f;" horiz-adv-x="255" 
d="M111 519h33v-519h-33v519zM104 664.5q-10 9.5 -10 22.5q0 14 9.5 23.5t23.5 9.5q13 0 23 -9.5t10 -22.5t-10 -23t-23 -10t-23 9.5zM80 -192.5q-20 22.5 -20 58.5q0 83 71 153l13 -19q-35 -38 -45.5 -68.5t-10.5 -62.5q0 -28 13.5 -43.5t33.5 -15.5q23 0 39 18l12 -20
q-21 -23 -53 -23q-33 0 -53 22.5z" />
    <glyph glyph-name="itilde" unicode="&#x129;" horiz-adv-x="255" 
d="M111 519h33v-519h-33v519zM147.5 626.5q-12.5 9.5 -31.5 29.5q-12 15 -21.5 22.5t-20.5 7.5q-17 0 -28 -18t-11 -48h-24q0 43 16.5 67.5t46.5 24.5q20 0 32.5 -9.5t31.5 -29.5q12 -15 21.5 -22.5t20.5 -7.5q17 0 28 18t11 46h24q0 -41 -16.5 -65.5t-46.5 -24.5
q-20 0 -32.5 9.5z" />
    <glyph glyph-name="j" unicode="j" horiz-adv-x="260" 
d="M-41 -188q-28 9 -46 27l17 24q33 -31 87 -31q48 0 73.5 28.5t25.5 81.5v577h33v-581q0 -62 -34 -98.5t-96 -36.5q-32 0 -60 9zM109 664.5q-10 9.5 -10 22.5q0 14 9.5 23.5t23.5 9.5q13 0 23 -9.5t10 -22.5t-10 -23t-23 -10t-23 9.5z" />
    <glyph glyph-name="uni0237" unicode="&#x237;" horiz-adv-x="260" 
d="M-41 -188q-28 9 -46 27l17 24q33 -31 87 -31q48 0 73.5 28.5t25.5 81.5v577h33v-581q0 -62 -34 -98.5t-96 -36.5q-32 0 -60 9z" />
    <glyph glyph-name="jcircumflex" unicode="&#x135;" horiz-adv-x="260" 
d="M-41 -188q-28 9 -46 27l17 24q33 -31 87 -31q48 0 73.5 28.5t25.5 81.5v577h33v-581q0 -62 -34 -98.5t-96 -36.5q-32 0 -60 9zM216 607l-84 89l-84 -89h-36l100 113h40l100 -113h-36z" />
    <glyph glyph-name="k" unicode="k" horiz-adv-x="578" 
d="M289 291l-145 -133v-158h-33v742h33v-544l352 321h44l-225 -208l248 -311h-42z" />
    <glyph glyph-name="uni01E9" unicode="&#x1e9;" horiz-adv-x="578" 
d="M289 291l-145 -133v-158h-33v742h33v-544l352 321h44l-225 -208l248 -311h-42zM272 943l-124 -113h-42l-124 113h37l108 -90l108 90h37z" />
    <glyph glyph-name="kcommaaccent" unicode="&#x137;" horiz-adv-x="578" 
d="M289 291l-145 -133v-158h-33v742h33v-544l352 321h44l-225 -208l248 -311h-42zM330 -128q8 -9 8 -20q0 -13 -7 -36l-24 -76h-24l19 83q-10 1 -17 9.5t-7 19.5q0 12 8.5 20.5t21.5 8.5q14 0 22 -9z" />
    <glyph glyph-name="kgreenlandic" unicode="&#x138;" horiz-adv-x="565" 
d="M289 291l-145 -133v-158h-33v519h33v-321l352 321h44l-225 -208l248 -311h-42z" />
    <glyph glyph-name="l" unicode="l" horiz-adv-x="255" 
d="M111 742h33v-742h-33v742z" />
    <glyph glyph-name="lacute" unicode="&#x13a;" horiz-adv-x="255" 
d="M111 742h33v-742h-33v742zM216 943h54l-153 -113h-40z" />
    <glyph glyph-name="lcaron" unicode="&#x13e;" horiz-adv-x="255" 
d="M111 742h33v-742h-33v742zM242 764h30l-4 -182h-26v182z" />
    <glyph glyph-name="lcommaaccent" unicode="&#x13c;" horiz-adv-x="255" 
d="M111 742h33v-742h-33v742zM149 -128q8 -9 8 -20q0 -13 -7 -36l-24 -76h-24l19 83q-10 1 -17 9.5t-7 19.5q0 12 8.5 20.5t21.5 8.5q14 0 22 -9z" />
    <glyph glyph-name="ldot" unicode="&#x140;" horiz-adv-x="266" 
d="M111 742h33v-742h-33v742zM238 328q-9 9 -9 22t9 22t22 9t22 -9t9 -22t-9 -22t-22 -9t-22 9z" />
    <glyph glyph-name="uni1E37" unicode="&#x1e37;" horiz-adv-x="255" 
d="M111 742h33v-742h-33v742zM106 -170.5q-9 8.5 -9 21.5q0 12 9 21t21 9t21 -9t9 -21q0 -13 -9 -21.5t-21 -8.5t-21 8.5z" />
    <glyph glyph-name="uni01C9" unicode="&#x1c9;" horiz-adv-x="515" 
d="M111 742h33v-742h-33v742zM214 -188q-28 9 -46 27l17 24q33 -31 87 -31q48 0 73.5 28.5t25.5 81.5v577h33v-581q0 -62 -34 -98.5t-96 -36.5q-32 0 -60 9zM364 664.5q-10 9.5 -10 22.5q0 14 9.5 23.5t23.5 9.5q13 0 23 -9.5t10 -22.5t-10 -23t-23 -10t-23 9.5z" />
    <glyph glyph-name="uni1E3B" unicode="&#x1e3b;" horiz-adv-x="255" 
d="M111 742h33v-742h-33v742zM-14 -135h282v-27h-282v27z" />
    <glyph glyph-name="lslash" unicode="&#x142;" horiz-adv-x="257" 
d="M112 742h33v-742h-33v742zM17 285l206 152l16 -21l-205 -152z" />
    <glyph glyph-name="m" unicode="m" horiz-adv-x="1066" 
d="M906.5 467q54.5 -56 54.5 -162v-305h-33v303q0 92 -45 140.5t-128 48.5q-93 0 -148 -58t-55 -154v-280h-33v303q0 92 -45 140.5t-127 48.5q-94 0 -148.5 -57.5t-54.5 -154.5v-280h-33v519h32v-125q24 60 77.5 94.5t128.5 34.5t126 -36t68 -105q23 65 79 103t135 38
q95 0 149.5 -56z" />
    <glyph glyph-name="uni1E43" unicode="&#x1e43;" horiz-adv-x="1066" 
d="M906.5 467q54.5 -56 54.5 -162v-305h-33v303q0 92 -45 140.5t-128 48.5q-93 0 -148 -58t-55 -154v-280h-33v303q0 92 -45 140.5t-127 48.5q-94 0 -148.5 -57.5t-54.5 -154.5v-280h-33v519h32v-125q24 60 77.5 94.5t128.5 34.5t126 -36t68 -105q23 65 79 103t135 38
q95 0 149.5 -56zM515 -170.5q-9 8.5 -9 21.5q0 12 9 21t21 9t21 -9t9 -21q0 -13 -9 -21.5t-21 -8.5t-21 8.5z" />
    <glyph glyph-name="n" unicode="n" horiz-adv-x="670" 
d="M509 466.5q56 -56.5 56 -161.5v-305h-33v303q0 92 -46.5 140.5t-132.5 48.5q-97 0 -153 -57.5t-56 -154.5v-280h-33v519h32v-127q25 61 80.5 96t132.5 35q97 0 153 -56.5z" />
    <glyph glyph-name="nacute" unicode="&#x144;" horiz-adv-x="670" 
d="M509 466.5q56 -56.5 56 -161.5v-305h-33v303q0 92 -46.5 140.5t-132.5 48.5q-97 0 -153 -57.5t-56 -154.5v-280h-33v519h32v-127q25 61 80.5 96t132.5 35q97 0 153 -56.5zM425 720h54l-153 -113h-40z" />
    <glyph glyph-name="napostrophe" unicode="&#x149;" horiz-adv-x="718" 
d="M69 700h28l-8 -259h-24zM557 466.5q56 -56.5 56 -161.5v-305h-33v303q0 92 -46.5 140.5t-132.5 48.5q-97 0 -153 -57.5t-56 -154.5v-280h-33v519h32v-127q25 61 80.5 96t132.5 35q97 0 153 -56.5z" />
    <glyph glyph-name="ncaron" unicode="&#x148;" horiz-adv-x="670" 
d="M509 466.5q56 -56.5 56 -161.5v-305h-33v303q0 92 -46.5 140.5t-132.5 48.5q-97 0 -153 -57.5t-56 -154.5v-280h-33v519h32v-127q25 61 80.5 96t132.5 35q97 0 153 -56.5zM481 720l-124 -113h-42l-124 113h37l108 -90l108 90h37z" />
    <glyph glyph-name="ncommaaccent" unicode="&#x146;" horiz-adv-x="670" 
d="M509 466.5q56 -56.5 56 -161.5v-305h-33v303q0 92 -46.5 140.5t-132.5 48.5q-97 0 -153 -57.5t-56 -154.5v-280h-33v519h32v-127q25 61 80.5 96t132.5 35q97 0 153 -56.5zM358 -128q8 -9 8 -20q0 -13 -7 -36l-24 -76h-24l19 83q-10 1 -17 9.5t-7 19.5q0 12 8.5 20.5
t21.5 8.5q14 0 22 -9z" />
    <glyph glyph-name="uni1E45" unicode="&#x1e45;" horiz-adv-x="670" 
d="M509 466.5q56 -56.5 56 -161.5v-305h-33v303q0 92 -46.5 140.5t-132.5 48.5q-97 0 -153 -57.5t-56 -154.5v-280h-33v519h32v-127q25 61 80.5 96t132.5 35q97 0 153 -56.5zM313.5 647.5q-9.5 9.5 -9.5 22.5t9.5 22.5t22.5 9.5t22.5 -9.5t9.5 -22.5t-9.5 -22.5t-22.5 -9.5
t-22.5 9.5z" />
    <glyph glyph-name="uni1E47" unicode="&#x1e47;" horiz-adv-x="670" 
d="M509 466.5q56 -56.5 56 -161.5v-305h-33v303q0 92 -46.5 140.5t-132.5 48.5q-97 0 -153 -57.5t-56 -154.5v-280h-33v519h32v-127q25 61 80.5 96t132.5 35q97 0 153 -56.5zM315 -170.5q-9 8.5 -9 21.5q0 12 9 21t21 9t21 -9t9 -21q0 -13 -9 -21.5t-21 -8.5t-21 8.5z" />
    <glyph glyph-name="eng" unicode="&#x14b;" horiz-adv-x="670" 
d="M509 466.5q56 -56.5 56 -161.5v-367q0 -62 -34 -98.5t-96 -36.5q-32 0 -60 9t-46 27l17 24q34 -31 87 -31q48 0 73.5 28.5t25.5 81.5v361q0 92 -46.5 140.5t-132.5 48.5q-97 0 -153 -57.5t-56 -154.5v-280h-33v519h32v-127q25 61 80.5 96t132.5 35q97 0 153 -56.5z" />
    <glyph glyph-name="uni01CC" unicode="&#x1cc;" horiz-adv-x="930" 
d="M509 466.5q56 -56.5 56 -161.5v-305h-33v303q0 92 -46.5 140.5t-132.5 48.5q-97 0 -153 -57.5t-56 -154.5v-280h-33v519h32v-127q25 61 80.5 96t132.5 35q97 0 153 -56.5zM629 -188q-28 9 -46 27l17 24q33 -31 87 -31q48 0 73.5 28.5t25.5 81.5v577h33v-581
q0 -62 -34 -98.5t-96 -36.5q-32 0 -60 9zM779 664.5q-10 9.5 -10 22.5q0 14 9.5 23.5t23.5 9.5q13 0 23 -9.5t10 -22.5t-10 -23t-23 -10t-23 9.5z" />
    <glyph glyph-name="uni1E49" unicode="&#x1e49;" horiz-adv-x="670" 
d="M509 466.5q56 -56.5 56 -161.5v-305h-33v303q0 92 -46.5 140.5t-132.5 48.5q-97 0 -153 -57.5t-56 -154.5v-280h-33v519h32v-127q25 61 80.5 96t132.5 35q97 0 153 -56.5zM195 -135h282v-27h-282v27z" />
    <glyph glyph-name="ntilde" unicode="&#xf1;" horiz-adv-x="670" 
d="M509 466.5q56 -56.5 56 -161.5v-305h-33v303q0 92 -46.5 140.5t-132.5 48.5q-97 0 -153 -57.5t-56 -154.5v-280h-33v519h32v-127q25 61 80.5 96t132.5 35q97 0 153 -56.5zM363.5 626.5q-15.5 9.5 -36.5 28.5q-16 15 -28.5 23t-25.5 8q-24 0 -37.5 -17.5t-15.5 -48.5h-25
q2 42 22.5 67t54.5 25q21 0 36.5 -9.5t36.5 -28.5q16 -15 28.5 -23t25.5 -8q24 0 37.5 17.5t15.5 46.5h25q-2 -40 -22.5 -65t-54.5 -25q-21 0 -36.5 9.5z" />
    <glyph glyph-name="o" unicode="o" horiz-adv-x="614" 
d="M176.5 30.5q-58.5 33.5 -91.5 93.5t-33 136t33 136t91.5 93.5t130.5 33.5q73 0 131 -33.5t91 -93.5t33 -136t-33 -136t-91 -93.5t-131 -33.5q-72 0 -130.5 33.5zM420.5 56.5q50.5 29.5 79.5 82.5t29 121t-29 120.5t-79.5 82t-113.5 29.5t-113.5 -29.5t-79.5 -82
t-29 -120.5t29 -121t79.5 -82.5t113.5 -29.5t113.5 29.5z" />
    <glyph glyph-name="oacute" unicode="&#xf3;" horiz-adv-x="614" 
d="M176.5 30.5q-58.5 33.5 -91.5 93.5t-33 136t33 136t91.5 93.5t130.5 33.5q73 0 131 -33.5t91 -93.5t33 -136t-33 -136t-91 -93.5t-131 -33.5q-72 0 -130.5 33.5zM420.5 56.5q50.5 29.5 79.5 82.5t29 121t-29 120.5t-79.5 82t-113.5 29.5t-113.5 -29.5t-79.5 -82
t-29 -120.5t29 -121t79.5 -82.5t113.5 -29.5t113.5 29.5zM396 720h54l-153 -113h-40z" />
    <glyph glyph-name="obreve" unicode="&#x14f;" horiz-adv-x="614" 
d="M176.5 30.5q-58.5 33.5 -91.5 93.5t-33 136t33 136t91.5 93.5t130.5 33.5q73 0 131 -33.5t91 -93.5t33 -136t-33 -136t-91 -93.5t-131 -33.5q-72 0 -130.5 33.5zM420.5 56.5q50.5 29.5 79.5 82.5t29 121t-29 120.5t-79.5 82t-113.5 29.5t-113.5 -29.5t-79.5 -82
t-29 -120.5t29 -121t79.5 -82.5t113.5 -29.5t113.5 29.5zM210 635.5q-39 31.5 -40 84.5h27q1 -41 32.5 -66t77.5 -25t77.5 25t32.5 66h27q-1 -53 -40 -84.5t-97 -31.5t-97 31.5z" />
    <glyph glyph-name="ocircumflex" unicode="&#xf4;" horiz-adv-x="614" 
d="M176.5 30.5q-58.5 33.5 -91.5 93.5t-33 136t33 136t91.5 93.5t130.5 33.5q73 0 131 -33.5t91 -93.5t33 -136t-33 -136t-91 -93.5t-131 -33.5q-72 0 -130.5 33.5zM420.5 56.5q50.5 29.5 79.5 82.5t29 121t-29 120.5t-79.5 82t-113.5 29.5t-113.5 -29.5t-79.5 -82
t-29 -120.5t29 -121t79.5 -82.5t113.5 -29.5t113.5 29.5zM415 607l-108 90l-108 -90h-37l124 113h42l124 -113h-37z" />
    <glyph glyph-name="uni1ED1" unicode="&#x1ed1;" horiz-adv-x="614" 
d="M176.5 30.5q-58.5 33.5 -91.5 93.5t-33 136t33 136t91.5 93.5t130.5 33.5q73 0 131 -33.5t91 -93.5t33 -136t-33 -136t-91 -93.5t-131 -33.5q-72 0 -130.5 33.5zM420.5 56.5q50.5 29.5 79.5 82.5t29 121t-29 120.5t-79.5 82t-113.5 29.5t-113.5 -29.5t-79.5 -82
t-29 -120.5t29 -121t79.5 -82.5t113.5 -29.5t113.5 29.5zM412 607l-105 62l-105 -62h-40l125 83h40l125 -83h-40zM511 786h52l-139 -102h-38z" />
    <glyph glyph-name="uni1ED9" unicode="&#x1ed9;" horiz-adv-x="614" 
d="M176.5 30.5q-58.5 33.5 -91.5 93.5t-33 136t33 136t91.5 93.5t130.5 33.5q73 0 131 -33.5t91 -93.5t33 -136t-33 -136t-91 -93.5t-131 -33.5q-72 0 -130.5 33.5zM420.5 56.5q50.5 29.5 79.5 82.5t29 121t-29 120.5t-79.5 82t-113.5 29.5t-113.5 -29.5t-79.5 -82
t-29 -120.5t29 -121t79.5 -82.5t113.5 -29.5t113.5 29.5zM286 -170.5q-9 8.5 -9 21.5q0 12 9 21t21 9t21 -9t9 -21q0 -13 -9 -21.5t-21 -8.5t-21 8.5zM415 607l-108 90l-108 -90h-37l124 113h42l124 -113h-37z" />
    <glyph glyph-name="uni1ED3" unicode="&#x1ed3;" horiz-adv-x="614" 
d="M176.5 30.5q-58.5 33.5 -91.5 93.5t-33 136t33 136t91.5 93.5t130.5 33.5q73 0 131 -33.5t91 -93.5t33 -136t-33 -136t-91 -93.5t-131 -33.5q-72 0 -130.5 33.5zM420.5 56.5q50.5 29.5 79.5 82.5t29 121t-29 120.5t-79.5 82t-113.5 29.5t-113.5 -29.5t-79.5 -82
t-29 -120.5t29 -121t79.5 -82.5t113.5 -29.5t113.5 29.5zM412 607l-105 62l-105 -62h-40l125 83h40l125 -83h-40zM307 786h52l125 -102h-38z" />
    <glyph glyph-name="uni1ED5" unicode="&#x1ed5;" horiz-adv-x="614" 
d="M176.5 30.5q-58.5 33.5 -91.5 93.5t-33 136t33 136t91.5 93.5t130.5 33.5q73 0 131 -33.5t91 -93.5t33 -136t-33 -136t-91 -93.5t-131 -33.5q-72 0 -130.5 33.5zM420.5 56.5q50.5 29.5 79.5 82.5t29 121t-29 120.5t-79.5 82t-113.5 29.5t-113.5 -29.5t-79.5 -82
t-29 -120.5t29 -121t79.5 -82.5t113.5 -29.5t113.5 29.5zM412 607l-105 62l-105 -62h-40l125 83h40l125 -83h-40zM404 687q21 10 33 24t12 30t-11.5 26t-30.5 10q-23 0 -43 -13l-9 19q22 17 55 17q29 0 46 -16t17 -42q0 -23 -14.5 -42t-41.5 -31z" />
    <glyph glyph-name="uni1ED7" unicode="&#x1ed7;" horiz-adv-x="614" 
d="M176.5 30.5q-58.5 33.5 -91.5 93.5t-33 136t33 136t91.5 93.5t130.5 33.5q73 0 131 -33.5t91 -93.5t33 -136t-33 -136t-91 -93.5t-131 -33.5q-72 0 -130.5 33.5zM420.5 56.5q50.5 29.5 79.5 82.5t29 121t-29 120.5t-79.5 82t-113.5 29.5t-113.5 -29.5t-79.5 -82
t-29 -120.5t29 -121t79.5 -82.5t113.5 -29.5t113.5 29.5zM412 607l-105 62l-105 -62h-40l125 83h40l125 -83h-40zM334 732q-16 8 -35 22q-20 13 -30.5 18.5t-23.5 5.5q-23 0 -37 -13.5t-15 -37.5h-25q1 35 22 55.5t55 20.5q19 0 34.5 -7.5t35.5 -22.5q20 -13 30.5 -18.5
t23.5 -5.5q23 0 37.5 13t15.5 37h24q-1 -34 -21.5 -54.5t-54.5 -20.5q-20 0 -36 8z" />
    <glyph glyph-name="uni020D" unicode="&#x20d;" horiz-adv-x="614" 
d="M176.5 30.5q-58.5 33.5 -91.5 93.5t-33 136t33 136t91.5 93.5t130.5 33.5q73 0 131 -33.5t91 -93.5t33 -136t-33 -136t-91 -93.5t-131 -33.5q-72 0 -130.5 33.5zM420.5 56.5q50.5 29.5 79.5 82.5t29 121t-29 120.5t-79.5 82t-113.5 29.5t-113.5 -29.5t-79.5 -82
t-29 -120.5t29 -121t79.5 -82.5t113.5 -29.5t113.5 29.5zM100 720h45l108 -113h-37zM245 720h45l108 -113h-37z" />
    <glyph glyph-name="odieresis" unicode="&#xf6;" horiz-adv-x="614" 
d="M176.5 30.5q-58.5 33.5 -91.5 93.5t-33 136t33 136t91.5 93.5t130.5 33.5q73 0 131 -33.5t91 -93.5t33 -136t-33 -136t-91 -93.5t-131 -33.5q-72 0 -130.5 33.5zM420.5 56.5q50.5 29.5 79.5 82.5t29 121t-29 120.5t-79.5 82t-113.5 29.5t-113.5 -29.5t-79.5 -82
t-29 -120.5t29 -121t79.5 -82.5t113.5 -29.5t113.5 29.5zM202 647q-9 9 -9 21q0 13 9 22t21 9q13 0 21.5 -9t8.5 -22q0 -12 -8.5 -21t-21.5 -9q-12 0 -21 9zM369.5 647q-8.5 9 -8.5 21q0 13 8.5 22t21.5 9q12 0 21 -9t9 -22q0 -12 -9 -21t-21 -9q-13 0 -21.5 9z" />
    <glyph glyph-name="uni022B" unicode="&#x22b;" horiz-adv-x="614" 
d="M176.5 30.5q-58.5 33.5 -91.5 93.5t-33 136t33 136t91.5 93.5t130.5 33.5q73 0 131 -33.5t91 -93.5t33 -136t-33 -136t-91 -93.5t-131 -33.5q-72 0 -130.5 33.5zM420.5 56.5q50.5 29.5 79.5 82.5t29 121t-29 120.5t-79.5 82t-113.5 29.5t-113.5 -29.5t-79.5 -82
t-29 -120.5t29 -121t79.5 -82.5t113.5 -29.5t113.5 29.5zM202.5 647q-8.5 9 -8.5 21q0 13 8.5 21.5t21.5 8.5q12 0 21 -8.5t9 -21.5q0 -12 -9 -21t-21 -9q-13 0 -21.5 9zM369.5 647q-8.5 9 -8.5 21q0 13 8.5 21.5t21.5 8.5q12 0 21 -8.5t9 -21.5q0 -12 -9 -21t-21 -9
q-13 0 -21.5 9zM166 780h282v-26h-282v26z" />
    <glyph glyph-name="uni0231" unicode="&#x231;" horiz-adv-x="614" 
d="M176.5 30.5q-58.5 33.5 -91.5 93.5t-33 136t33 136t91.5 93.5t130.5 33.5q73 0 131 -33.5t91 -93.5t33 -136t-33 -136t-91 -93.5t-131 -33.5q-72 0 -130.5 33.5zM420.5 56.5q50.5 29.5 79.5 82.5t29 121t-29 120.5t-79.5 82t-113.5 29.5t-113.5 -29.5t-79.5 -82
t-29 -120.5t29 -121t79.5 -82.5t113.5 -29.5t113.5 29.5zM286 647q-9 9 -9 21q0 13 9 22t21 9t21 -9t9 -22q0 -12 -9 -21t-21 -9t-21 9zM166 780h282v-26h-282v26z" />
    <glyph glyph-name="uni1ECD" unicode="&#x1ecd;" horiz-adv-x="614" 
d="M176.5 30.5q-58.5 33.5 -91.5 93.5t-33 136t33 136t91.5 93.5t130.5 33.5q73 0 131 -33.5t91 -93.5t33 -136t-33 -136t-91 -93.5t-131 -33.5q-72 0 -130.5 33.5zM420.5 56.5q50.5 29.5 79.5 82.5t29 121t-29 120.5t-79.5 82t-113.5 29.5t-113.5 -29.5t-79.5 -82
t-29 -120.5t29 -121t79.5 -82.5t113.5 -29.5t113.5 29.5zM286 -170.5q-9 8.5 -9 21.5q0 12 9 21t21 9t21 -9t9 -21q0 -13 -9 -21.5t-21 -8.5t-21 8.5z" />
    <glyph glyph-name="ograve" unicode="&#xf2;" horiz-adv-x="614" 
d="M176.5 30.5q-58.5 33.5 -91.5 93.5t-33 136t33 136t91.5 93.5t130.5 33.5q73 0 131 -33.5t91 -93.5t33 -136t-33 -136t-91 -93.5t-131 -33.5q-72 0 -130.5 33.5zM420.5 56.5q50.5 29.5 79.5 82.5t29 121t-29 120.5t-79.5 82t-113.5 29.5t-113.5 -29.5t-79.5 -82
t-29 -120.5t29 -121t79.5 -82.5t113.5 -29.5t113.5 29.5zM164 720h54l139 -113h-40z" />
    <glyph glyph-name="uni1ECF" unicode="&#x1ecf;" horiz-adv-x="614" 
d="M176.5 30.5q-58.5 33.5 -91.5 93.5t-33 136t33 136t91.5 93.5t130.5 33.5q73 0 131 -33.5t91 -93.5t33 -136t-33 -136t-91 -93.5t-131 -33.5q-72 0 -130.5 33.5zM420.5 56.5q50.5 29.5 79.5 82.5t29 121t-29 120.5t-79.5 82t-113.5 29.5t-113.5 -29.5t-79.5 -82
t-29 -120.5t29 -121t79.5 -82.5t113.5 -29.5t113.5 29.5zM298 622q62 27 62 75q0 23 -16 38t-41 15q-33 0 -62 -19l-10 22q14 10 34 16t39 6q38 0 60 -20.5t22 -54.5q0 -32 -18 -55.5t-56 -42.5z" />
    <glyph glyph-name="ohorn" unicode="&#x1a1;" horiz-adv-x="614" 
d="M528 397.5q34 -60.5 34 -137.5q0 -76 -33 -136t-91 -93.5t-131 -33.5q-72 0 -130.5 33.5t-91.5 93.5t-33 136t33 136t91.5 93.5t130.5 33.5q20 0 39 -1.5t27 -1.5q27 -3 63 -3q43 0 65.5 21t22.5 51q0 32 -20 67l25 10q11 -15 17.5 -35.5t6.5 -40.5q0 -43 -30.5 -71
t-87.5 -28h-1q60 -33 94 -93.5zM420.5 56.5q50.5 29.5 79.5 82.5t29 121t-29 120.5t-79.5 82t-113.5 29.5t-113.5 -29.5t-79.5 -82t-29 -120.5t29 -121t79.5 -82.5t113.5 -29.5t113.5 29.5z" />
    <glyph glyph-name="uni1EDB" unicode="&#x1edb;" horiz-adv-x="614" 
d="M528 397.5q34 -60.5 34 -137.5q0 -76 -33 -136t-91 -93.5t-131 -33.5q-72 0 -130.5 33.5t-91.5 93.5t-33 136t33 136t91.5 93.5t130.5 33.5q20 0 39 -1.5t27 -1.5q27 -3 63 -3q43 0 65.5 21t22.5 51q0 32 -20 67l25 10q11 -15 17.5 -35.5t6.5 -40.5q0 -43 -30.5 -71
t-87.5 -28h-1q60 -33 94 -93.5zM420.5 56.5q50.5 29.5 79.5 82.5t29 121t-29 120.5t-79.5 82t-113.5 29.5t-113.5 -29.5t-79.5 -82t-29 -120.5t29 -121t79.5 -82.5t113.5 -29.5t113.5 29.5zM396 720h54l-153 -113h-40z" />
    <glyph glyph-name="uni1EE3" unicode="&#x1ee3;" horiz-adv-x="614" 
d="M528 397.5q34 -60.5 34 -137.5q0 -76 -33 -136t-91 -93.5t-131 -33.5q-72 0 -130.5 33.5t-91.5 93.5t-33 136t33 136t91.5 93.5t130.5 33.5q20 0 39 -1.5t27 -1.5q27 -3 63 -3q43 0 65.5 21t22.5 51q0 32 -20 67l25 10q11 -15 17.5 -35.5t6.5 -40.5q0 -43 -30.5 -71
t-87.5 -28h-1q60 -33 94 -93.5zM420.5 56.5q50.5 29.5 79.5 82.5t29 121t-29 120.5t-79.5 82t-113.5 29.5t-113.5 -29.5t-79.5 -82t-29 -120.5t29 -121t79.5 -82.5t113.5 -29.5t113.5 29.5zM286 -170.5q-9 8.5 -9 21.5q0 12 9 21t21 9t21 -9t9 -21q0 -13 -9 -21.5t-21 -8.5
t-21 8.5z" />
    <glyph glyph-name="uni1EDD" unicode="&#x1edd;" horiz-adv-x="614" 
d="M528 397.5q34 -60.5 34 -137.5q0 -76 -33 -136t-91 -93.5t-131 -33.5q-72 0 -130.5 33.5t-91.5 93.5t-33 136t33 136t91.5 93.5t130.5 33.5q20 0 39 -1.5t27 -1.5q27 -3 63 -3q43 0 65.5 21t22.5 51q0 32 -20 67l25 10q11 -15 17.5 -35.5t6.5 -40.5q0 -43 -30.5 -71
t-87.5 -28h-1q60 -33 94 -93.5zM420.5 56.5q50.5 29.5 79.5 82.5t29 121t-29 120.5t-79.5 82t-113.5 29.5t-113.5 -29.5t-79.5 -82t-29 -120.5t29 -121t79.5 -82.5t113.5 -29.5t113.5 29.5zM164 720h54l139 -113h-40z" />
    <glyph glyph-name="uni1EDF" unicode="&#x1edf;" horiz-adv-x="614" 
d="M528 397.5q34 -60.5 34 -137.5q0 -76 -33 -136t-91 -93.5t-131 -33.5q-72 0 -130.5 33.5t-91.5 93.5t-33 136t33 136t91.5 93.5t130.5 33.5q20 0 39 -1.5t27 -1.5q27 -3 63 -3q43 0 65.5 21t22.5 51q0 32 -20 67l25 10q11 -15 17.5 -35.5t6.5 -40.5q0 -43 -30.5 -71
t-87.5 -28h-1q60 -33 94 -93.5zM420.5 56.5q50.5 29.5 79.5 82.5t29 121t-29 120.5t-79.5 82t-113.5 29.5t-113.5 -29.5t-79.5 -82t-29 -120.5t29 -121t79.5 -82.5t113.5 -29.5t113.5 29.5zM298 622q62 27 62 75q0 23 -16 38t-41 15q-33 0 -62 -19l-10 22q14 10 34 16t39 6
q38 0 60 -20.5t22 -54.5q0 -32 -18 -55.5t-56 -42.5z" />
    <glyph glyph-name="uni1EE1" unicode="&#x1ee1;" horiz-adv-x="618" 
d="M528 397.5q34 -60.5 34 -137.5q0 -76 -33 -136t-91 -93.5t-131 -33.5q-72 0 -130.5 33.5t-91.5 93.5t-33 136t33 136t91.5 93.5t130.5 33.5q20 0 39 -1.5t27 -1.5q27 -3 63 -3q43 0 65.5 21t22.5 51q0 32 -20 67l25 10q11 -15 17.5 -35.5t6.5 -40.5q0 -43 -30.5 -71
t-87.5 -28h-1q60 -33 94 -93.5zM420.5 56.5q50.5 29.5 79.5 82.5t29 121t-29 120.5t-79.5 82t-113.5 29.5t-113.5 -29.5t-79.5 -82t-29 -120.5t29 -121t79.5 -82.5t113.5 -29.5t113.5 29.5zM336.942 626.5q-15.3037 9.5 -36.0381 28.5q-15.7979 15 -28.1406 23
q-12.3418 8 -25.1777 8q-23.6963 0 -37.0264 -17.5q-13.3291 -17.5 -15.3037 -48.5h-24.6846q1.97559 42 22.2158 67q20.2412 25 53.8115 25q20.7354 0 36.0391 -9.5t36.0391 -28.5q15.7979 -15 28.1396 -23t25.1777 -8q23.6973 0 37.0264 17.5t15.3037 46.5h24.6846
q-1.97461 -40 -22.2158 -65t-53.8115 -25q-20.7344 0 -36.0391 9.5z" />
    <glyph glyph-name="ohungarumlaut" unicode="&#x151;" horiz-adv-x="614" 
d="M176.5 30.5q-58.5 33.5 -91.5 93.5t-33 136t33 136t91.5 93.5t130.5 33.5q73 0 131 -33.5t91 -93.5t33 -136t-33 -136t-91 -93.5t-131 -33.5q-72 0 -130.5 33.5zM420.5 56.5q50.5 29.5 79.5 82.5t29 121t-29 120.5t-79.5 82t-113.5 29.5t-113.5 -29.5t-79.5 -82
t-29 -120.5t29 -121t79.5 -82.5t113.5 -29.5t113.5 29.5zM324 720h45l-116 -113h-37zM469 720h45l-116 -113h-37z" />
    <glyph glyph-name="uni020F" unicode="&#x20f;" horiz-adv-x="614" 
d="M176.5 30.5q-58.5 33.5 -91.5 93.5t-33 136t33 136t91.5 93.5t130.5 33.5q73 0 131 -33.5t91 -93.5t33 -136t-33 -136t-91 -93.5t-131 -33.5q-72 0 -130.5 33.5zM420.5 56.5q50.5 29.5 79.5 82.5t29 121t-29 120.5t-79.5 82t-113.5 29.5t-113.5 -29.5t-79.5 -82
t-29 -120.5t29 -121t79.5 -82.5t113.5 -29.5t113.5 29.5zM210 692q39 32 97 32t97 -32t40 -85h-27q-1 42 -32.5 67t-77.5 25t-77.5 -25t-32.5 -67h-27q1 53 40 85z" />
    <glyph glyph-name="omacron" unicode="&#x14d;" horiz-adv-x="614" 
d="M176.5 30.5q-58.5 33.5 -91.5 93.5t-33 136t33 136t91.5 93.5t130.5 33.5q73 0 131 -33.5t91 -93.5t33 -136t-33 -136t-91 -93.5t-131 -33.5q-72 0 -130.5 33.5zM420.5 56.5q50.5 29.5 79.5 82.5t29 121t-29 120.5t-79.5 82t-113.5 29.5t-113.5 -29.5t-79.5 -82
t-29 -120.5t29 -121t79.5 -82.5t113.5 -29.5t113.5 29.5zM166 677h282v-27h-282v27z" />
    <glyph glyph-name="uni1E53" unicode="&#x1e53;" horiz-adv-x="614" 
d="M176.5 30.5q-58.5 33.5 -91.5 93.5t-33 136t33 136t91.5 93.5t130.5 33.5q73 0 131 -33.5t91 -93.5t33 -136t-33 -136t-91 -93.5t-131 -33.5q-72 0 -130.5 33.5zM420.5 56.5q50.5 29.5 79.5 82.5t29 121t-29 120.5t-79.5 82t-113.5 29.5t-113.5 -29.5t-79.5 -82
t-29 -120.5t29 -121t79.5 -82.5t113.5 -29.5t113.5 29.5zM166 662h282v-26h-282v26zM383 827h52l-139 -102h-38z" />
    <glyph glyph-name="uni1E51" unicode="&#x1e51;" horiz-adv-x="614" 
d="M176.5 30.5q-58.5 33.5 -91.5 93.5t-33 136t33 136t91.5 93.5t130.5 33.5q73 0 131 -33.5t91 -93.5t33 -136t-33 -136t-91 -93.5t-131 -33.5q-72 0 -130.5 33.5zM420.5 56.5q50.5 29.5 79.5 82.5t29 121t-29 120.5t-79.5 82t-113.5 29.5t-113.5 -29.5t-79.5 -82
t-29 -120.5t29 -121t79.5 -82.5t113.5 -29.5t113.5 29.5zM166 662h282v-26h-282v26zM179 827h52l125 -102h-38z" />
    <glyph glyph-name="uni01EB" unicode="&#x1eb;" horiz-adv-x="614" 
d="M438 489.5q58 -33.5 91 -93.5t33 -136q0 -84 -39 -146.5t-108 -95.5q-87 -41 -117 -75.5t-30 -69.5q0 -30 20 -46.5t51 -16.5q17 0 33.5 6t28.5 16l12 -20q-33 -27 -77 -27q-43 0 -69.5 23.5t-26.5 62.5q0 72 92 127q-9 -1 -25 -1q-72 0 -130.5 33.5t-91.5 93.5t-33 136
t33 136t91.5 93.5t130.5 33.5q73 0 131 -33.5zM420.5 56.5q50.5 29.5 79.5 82.5t29 121t-29 120.5t-79.5 82t-113.5 29.5t-113.5 -29.5t-79.5 -82t-29 -120.5t29 -121t79.5 -82.5t113.5 -29.5t113.5 29.5z" />
    <glyph glyph-name="oslash" unicode="&#xf8;" horiz-adv-x="614" 
d="M176.5 30.5q-58.5 33.5 -91.5 93.5t-33 136t33 136t91.5 93.5t130.5 33.5q73 0 131 -33.5t91 -93.5t33 -136t-33 -136t-91 -93.5t-131 -33.5q-72 0 -130.5 33.5zM420.5 56.5q50.5 29.5 79.5 82.5t29 121t-29 120.5t-79.5 82t-113.5 29.5t-113.5 -29.5t-79.5 -82
t-29 -120.5t29 -121t79.5 -82.5t113.5 -29.5t113.5 29.5zM515 589h29l-445 -659h-29z" />
    <glyph glyph-name="oslashacute" unicode="&#x1ff;" horiz-adv-x="614" 
d="M176.5 30.5q-58.5 33.5 -91.5 93.5t-33 136t33 136t91.5 93.5t130.5 33.5q73 0 131 -33.5t91 -93.5t33 -136t-33 -136t-91 -93.5t-131 -33.5q-72 0 -130.5 33.5zM420.5 56.5q50.5 29.5 79.5 82.5t29 121t-29 120.5t-79.5 82t-113.5 29.5t-113.5 -29.5t-79.5 -82
t-29 -120.5t29 -121t79.5 -82.5t113.5 -29.5t113.5 29.5zM515 589h29l-445 -659h-29zM396 720h54l-153 -113h-40z" />
    <glyph glyph-name="otilde" unicode="&#xf5;" horiz-adv-x="614" 
d="M176.5 30.5q-58.5 33.5 -91.5 93.5t-33 136t33 136t91.5 93.5t130.5 33.5q73 0 131 -33.5t91 -93.5t33 -136t-33 -136t-91 -93.5t-131 -33.5q-72 0 -130.5 33.5zM420.5 56.5q50.5 29.5 79.5 82.5t29 121t-29 120.5t-79.5 82t-113.5 29.5t-113.5 -29.5t-79.5 -82
t-29 -120.5t29 -121t79.5 -82.5t113.5 -29.5t113.5 29.5zM334.5 626.5q-15.5 9.5 -36.5 28.5q-16 15 -28.5 23t-25.5 8q-24 0 -37.5 -17.5t-15.5 -48.5h-25q2 42 22.5 67t54.5 25q21 0 36.5 -9.5t36.5 -28.5q16 -15 28.5 -23t25.5 -8q24 0 37.5 17.5t15.5 46.5h25
q-2 -40 -22.5 -65t-54.5 -25q-21 0 -36.5 9.5z" />
    <glyph glyph-name="uni1E4D" unicode="&#x1e4d;" horiz-adv-x="614" 
d="M176.5 30.5q-58.5 33.5 -91.5 93.5t-33 136t33 136t91.5 93.5t130.5 33.5q73 0 131 -33.5t91 -93.5t33 -136t-33 -136t-91 -93.5t-131 -33.5q-72 0 -130.5 33.5zM420.5 56.5q50.5 29.5 79.5 82.5t29 121t-29 120.5t-79.5 82t-113.5 29.5t-113.5 -29.5t-79.5 -82
t-29 -120.5t29 -121t79.5 -82.5t113.5 -29.5t113.5 29.5zM334 628q-16 8 -35 22q-20 13 -30.5 18.5t-23.5 5.5q-23 0 -37 -13.5t-15 -37.5h-25q1 35 22 55.5t55 20.5q19 0 34.5 -7.5t35.5 -22.5q20 -13 30.5 -18.5t23.5 -5.5q23 0 37.5 13t15.5 37h24q-1 -34 -21.5 -54.5
t-54.5 -20.5q-20 0 -36 8zM383 827h52l-139 -102h-38z" />
    <glyph glyph-name="uni1E4F" unicode="&#x1e4f;" horiz-adv-x="614" 
d="M176.5 30.5q-58.5 33.5 -91.5 93.5t-33 136t33 136t91.5 93.5t130.5 33.5q73 0 131 -33.5t91 -93.5t33 -136t-33 -136t-91 -93.5t-131 -33.5q-72 0 -130.5 33.5zM420.5 56.5q50.5 29.5 79.5 82.5t29 121t-29 120.5t-79.5 82t-113.5 29.5t-113.5 -29.5t-79.5 -82
t-29 -120.5t29 -121t79.5 -82.5t113.5 -29.5t113.5 29.5zM334 628q-16 8 -35 22q-20 13 -30.5 18.5t-23.5 5.5q-23 0 -37 -13.5t-15 -37.5h-25q1 35 22 55.5t55 20.5q19 0 34.5 -7.5t35.5 -22.5q20 -13 30.5 -18.5t23.5 -5.5q23 0 37.5 13t15.5 37h24q-1 -34 -21.5 -54.5
t-54.5 -20.5q-20 0 -36 8zM202.5 765q-8.5 9 -8.5 21q0 13 8.5 21.5t21.5 8.5q12 0 21 -8.5t9 -21.5q0 -12 -9 -21t-21 -9q-13 0 -21.5 9zM369.5 765q-8.5 9 -8.5 21q0 13 8.5 21.5t21.5 8.5q12 0 21 -8.5t9 -21.5q0 -12 -9 -21t-21 -9q-13 0 -21.5 9z" />
    <glyph glyph-name="uni022D" unicode="&#x22d;" horiz-adv-x="614" 
d="M176.5 30.5q-58.5 33.5 -91.5 93.5t-33 136t33 136t91.5 93.5t130.5 33.5q73 0 131 -33.5t91 -93.5t33 -136t-33 -136t-91 -93.5t-131 -33.5q-72 0 -130.5 33.5zM420.5 56.5q50.5 29.5 79.5 82.5t29 121t-29 120.5t-79.5 82t-113.5 29.5t-113.5 -29.5t-79.5 -82
t-29 -120.5t29 -121t79.5 -82.5t113.5 -29.5t113.5 29.5zM334 628q-16 8 -35 22q-20 13 -30.5 18.5t-23.5 5.5q-23 0 -37 -13.5t-15 -37.5h-25q1 35 22 55.5t55 20.5q19 0 34.5 -7.5t35.5 -22.5q20 -13 30.5 -18.5t23.5 -5.5q23 0 37.5 13t15.5 37h24q-1 -34 -21.5 -54.5
t-54.5 -20.5q-20 0 -36 8zM166 780h282v-26h-282v26z" />
    <glyph glyph-name="oe" unicode="&#x153;" horiz-adv-x="1069" 
d="M1017 255h-455q1 -66 31 -118t82.5 -81t117.5 -29q53 0 98 19.5t74 57.5l21 -22q-34 -41 -84.5 -63t-108.5 -22q-90 0 -156 47t-91 126q-25 -79 -89 -126t-150 -47q-72 0 -130.5 33.5t-91.5 93.5t-33 136t33 136t91.5 93.5t130.5 33.5q85 0 149 -46.5t89 -124.5
q24 78 85.5 124.5t143.5 46.5q69 0 124.5 -33t87 -92t31.5 -134v-9zM669 466q-47 -27 -75 -75.5t-31 -108.5h423q-4 60 -32.5 108.5t-75 75.5t-104.5 27t-105 -27zM420.5 56.5q50.5 29.5 79.5 82.5t29 121t-29 120.5t-79.5 82t-113.5 29.5t-113.5 -29.5t-79.5 -82
t-29 -120.5t29 -121t79.5 -82.5t113.5 -29.5t113.5 29.5z" />
    <glyph glyph-name="p" unicode="p" horiz-adv-x="673" 
d="M496 489.5q58 -33.5 91.5 -94t33.5 -136.5t-33.5 -135.5t-91.5 -93t-129 -33.5q-75 0 -134.5 38t-88.5 104v-333h-33v713h32v-142q29 68 88.5 107t135.5 39q71 0 129 -33.5zM479.5 56.5q50.5 29.5 79.5 82t29 120.5t-29 121t-79.5 82.5t-113.5 29.5t-113.5 -29.5
t-79.5 -82.5t-29 -121t29 -120.5t79.5 -82t113.5 -29.5t113.5 29.5z" />
    <glyph glyph-name="thorn" unicode="&#xfe;" horiz-adv-x="673" 
d="M496 489.5q58 -33.5 91.5 -94t33.5 -136.5t-33.5 -135.5t-91.5 -93t-129 -33.5q-75 0 -134.5 38t-88.5 104v-333h-33v936h33v-362q29 67 88 105t135 38q71 0 129 -33.5zM479.5 56.5q50.5 29.5 79.5 82t29 120.5t-29 121t-79.5 82.5t-113.5 29.5t-113.5 -29.5t-79.5 -82.5
t-29 -121t29 -120.5t79.5 -82t113.5 -29.5t113.5 29.5z" />
    <glyph glyph-name="q" unicode="q" horiz-adv-x="673" 
d="M562 519v-713h-33v333q-29 -66 -88.5 -104t-134.5 -38q-71 0 -129 33.5t-91.5 93t-33.5 135.5t33.5 136.5t91.5 94t129 33.5q76 0 135.5 -39t88.5 -107v142h32zM420.5 56.5q50.5 29.5 79.5 82t29 120.5t-29 121t-79.5 82.5t-113.5 29.5t-113.5 -29.5t-79.5 -82.5
t-29 -121t29 -120.5t79.5 -82t113.5 -29.5t113.5 29.5z" />
    <glyph glyph-name="r" unicode="r" horiz-adv-x="388" 
d="M217.5 489.5q51.5 33.5 127.5 33.5v-33h-9q-90 0 -141 -57t-51 -157v-276h-33v519h32v-125q23 62 74.5 95.5z" />
    <glyph glyph-name="racute" unicode="&#x155;" horiz-adv-x="388" 
d="M217.5 489.5q51.5 33.5 127.5 33.5v-33h-9q-90 0 -141 -57t-51 -157v-276h-33v519h32v-125q23 62 74.5 95.5zM317 720h54l-153 -113h-40z" />
    </font>
</defs>
</svg>
