<?xml version="1.0" standalone="no"?>
<!DOCTYPE svg PUBLIC "-//W3C//DTD SVG 1.1//EN" "http://www.w3.org/Graphics/SVG/1.1/DTD/svg11.dtd" >
<svg xmlns="http://www.w3.org/2000/svg" xmlns:xlink="http://www.w3.org/1999/xlink" version="1.1">
<metadata>
Created by FontForge 20170924 at Tue Oct 31 14:58:10 2017
 By www-data
Copyright 2011 The Montserrat Project Authors (https://github.com/JulietaUla/Montserrat)
</metadata>
<defs>
<font id="Montserrat-Thin" horiz-adv-x="0" >
  <font-face 
    font-family="Montserrat Thin"
    font-weight="250"
    font-stretch="normal"
    units-per-em="1000"
    panose-1="0 0 3 0 0 0 0 0 0 0"
    ascent="800"
    descent="-200"
    x-height="517"
    cap-height="700"
    bbox="-788 -259 1529 1021"
    underline-thickness="50"
    underline-position="-100"
    unicode-range="U+000D-FB02"
  />
<missing-glyph horiz-adv-x="587" 
d="M40 700h507v-700h-507v700zM467 70v560h-347v-560h347z" />
    <glyph glyph-name="fi" unicode="fi" horiz-adv-x="641" 
d="M170 697q-27 -29 -27 -84v-96h175v-19h-175v-498h-20v498h-100v19h100v101q0 58 33 92.5t92 34.5q29 0 56.5 -9.5t44.5 -27.5l-14 -14q-34 32 -86 32t-79 -29zM506 517h20v-517h-20v517zM497.5 668q-7.5 8 -7.5 18q0 11 7.5 18.5t18.5 7.5q10 0 18 -7.5t8 -18.5
q0 -10 -8 -18t-18 -8q-11 0 -18.5 8z" />
    <glyph glyph-name="fl" unicode="fl" horiz-adv-x="561" 
d="M170 697q-27 -29 -27 -84v-96h175v-19h-175v-498h-20v498h-100v19h100v101q0 58 33 92.5t92 34.5q29 0 56.5 -9.5t44.5 -27.5l-14 -14q-34 32 -86 32t-79 -29zM426 742h20v-742h-20v742z" />
    <glyph glyph-name=".notdef" horiz-adv-x="587" 
d="M40 700h507v-700h-507v700zM467 70v560h-347v-560h347z" />
    <glyph glyph-name="NULL" 
 />
    <glyph glyph-name="NULL" 
 />
    <glyph glyph-name="nonmarkingreturn" unicode="&#xd;" horiz-adv-x="250" 
 />
    <glyph glyph-name="space" unicode=" " horiz-adv-x="250" 
 />
    <glyph glyph-name="A" unicode="A" horiz-adv-x="688" 
d="M558 211h-428l-98 -211h-23l325 700h20l325 -700h-23zM549 230l-205 443l-205 -443h410z" />
    <glyph glyph-name="Aacute" unicode="&#xc1;" horiz-adv-x="688" 
d="M558 211h-428l-98 -211h-23l325 700h20l325 -700h-23zM549 230l-205 443l-205 -443h410zM439 867h40l-150 -110h-30z" />
    <glyph glyph-name="Abreve" unicode="&#x102;" horiz-adv-x="688" 
d="M558 211h-428l-98 -211h-23l325 700h20l325 -700h-23zM549 230l-205 443l-205 -443h410zM251 785q-38 31 -39 82h19q1 -43 33 -68.5t80 -25.5t80 25.5t33 68.5h19q-1 -51 -39 -82t-93 -31t-93 31z" />
    <glyph glyph-name="uni1EAE" unicode="&#x1eae;" horiz-adv-x="688" 
d="M558 211h-428l-98 -211h-23l325 700h20l325 -700h-23zM549 230l-205 443l-205 -443h410zM254.5 776q-35.5 22 -42.5 61h19q7 -31 36.5 -47.5t76.5 -16.5t76.5 16.5t36.5 47.5h19q-7 -39 -42.5 -61t-89.5 -22t-89.5 22zM426 951h40l-137 -100h-30z" />
    <glyph glyph-name="uni1EB6" unicode="&#x1eb6;" horiz-adv-x="688" 
d="M558 211h-428l-98 -211h-23l325 700h20l325 -700h-23zM549 230l-205 443l-205 -443h410zM325.5 -168.5q-7.5 7.5 -7.5 18.5q0 10 7.5 18t18.5 8q10 0 18 -8t8 -18q0 -11 -8 -18.5t-18 -7.5q-11 0 -18.5 7.5zM251 785q-38 31 -39 82h19q1 -43 33 -68.5t80 -25.5t80 25.5
t33 68.5h19q-1 -51 -39 -82t-93 -31t-93 31z" />
    <glyph glyph-name="uni1EB0" unicode="&#x1eb0;" horiz-adv-x="688" 
d="M558 211h-428l-98 -211h-23l325 700h20l325 -700h-23zM549 230l-205 443l-205 -443h410zM254.5 776q-35.5 22 -42.5 61h19q7 -31 36.5 -47.5t76.5 -16.5t76.5 16.5t36.5 47.5h19q-7 -39 -42.5 -61t-89.5 -22t-89.5 22zM222 951h40l127 -100h-30z" />
    <glyph glyph-name="uni1EB2" unicode="&#x1eb2;" horiz-adv-x="688" 
d="M558 211h-428l-98 -211h-23l325 700h20l325 -700h-23zM549 230l-205 443l-205 -443h410zM254.5 776q-35.5 22 -42.5 61h19q7 -31 36.5 -47.5t76.5 -16.5t76.5 16.5t36.5 47.5h19q-7 -39 -42.5 -61t-89.5 -22t-89.5 22zM337 842q21 10 33 24.5t12 31.5q0 16 -11.5 26
t-30.5 10q-24 0 -43 -13l-8 16q22 16 52 16q28 0 44 -15t16 -40q0 -47 -54 -71z" />
    <glyph glyph-name="uni1EB4" unicode="&#x1eb4;" horiz-adv-x="688" 
d="M558 211h-428l-98 -211h-23l325 700h20l325 -700h-23zM549 230l-205 443l-205 -443h410zM254.5 776q-35.5 22 -42.5 61h19q7 -31 36.5 -47.5t76.5 -16.5t76.5 16.5t36.5 47.5h19q-7 -39 -42.5 -61t-89.5 -22t-89.5 22zM372 873q-14 7 -35 22q-16 12 -28.5 18.5t-25.5 6.5
q-24 0 -38.5 -13.5t-15.5 -38.5h-19q1 32 21 51.5t52 19.5q18 0 32.5 -7t35.5 -22q16 -12 28.5 -18.5t25.5 -6.5q24 0 38.5 13t15.5 37h19q-1 -31 -21 -50t-52 -19q-19 0 -33 7z" />
    <glyph glyph-name="uni01CD" unicode="&#x1cd;" horiz-adv-x="688" 
d="M558 211h-428l-98 -211h-23l325 700h20l325 -700h-23zM549 230l-205 443l-205 -443h410zM482 867l-122 -110h-32l-122 110h27l111 -93l111 93h27z" />
    <glyph glyph-name="Acircumflex" unicode="&#xc2;" horiz-adv-x="688" 
d="M558 211h-428l-98 -211h-23l325 700h20l325 -700h-23zM549 230l-205 443l-205 -443h410zM455 757l-111 93l-111 -93h-27l122 110h32l122 -110h-27z" />
    <glyph glyph-name="uni1EA4" unicode="&#x1ea4;" horiz-adv-x="688" 
d="M558 211h-428l-98 -211h-23l325 700h20l325 -700h-23zM549 230l-205 443l-205 -443h410zM452 757l-108 64l-108 -64h-30l123 80h30l123 -80h-30zM546 932h40l-137 -100h-30z" />
    <glyph glyph-name="uni1EAC" unicode="&#x1eac;" horiz-adv-x="688" 
d="M558 211h-428l-98 -211h-23l325 700h20l325 -700h-23zM549 230l-205 443l-205 -443h410zM325.5 -168.5q-7.5 7.5 -7.5 18.5q0 10 7.5 18t18.5 8q10 0 18 -8t8 -18q0 -11 -8 -18.5t-18 -7.5q-11 0 -18.5 7.5zM455 757l-111 93l-111 -93h-27l122 110h32l122 -110h-27z" />
    <glyph glyph-name="uni1EA6" unicode="&#x1ea6;" horiz-adv-x="688" 
d="M558 211h-428l-98 -211h-23l325 700h20l325 -700h-23zM549 230l-205 443l-205 -443h410zM452 757l-108 64l-108 -64h-30l123 80h30l123 -80h-30zM342 932h40l127 -100h-30z" />
    <glyph glyph-name="uni1EA8" unicode="&#x1ea8;" horiz-adv-x="688" 
d="M558 211h-428l-98 -211h-23l325 700h20l325 -700h-23zM549 230l-205 443l-205 -443h410zM452 757l-108 64l-108 -64h-30l123 80h30l123 -80h-30zM437 833q21 10 33 24.5t12 31.5q0 16 -11.5 26t-30.5 10q-24 0 -43 -13l-8 16q22 16 52 16q28 0 44 -15t16 -40
q0 -47 -54 -71z" />
    <glyph glyph-name="uni1EAA" unicode="&#x1eaa;" horiz-adv-x="688" 
d="M558 211h-428l-98 -211h-23l325 700h20l325 -700h-23zM549 230l-205 443l-205 -443h410zM452 757l-108 64l-108 -64h-30l123 80h30l123 -80h-30zM372 877q-14 7 -35 22q-16 12 -28.5 18.5t-25.5 6.5q-24 0 -38.5 -13.5t-15.5 -38.5h-19q1 32 21 51.5t52 19.5
q18 0 32.5 -7t35.5 -22q16 -12 28.5 -18.5t25.5 -6.5q24 0 38.5 13t15.5 37h19q-1 -31 -21 -50t-52 -19q-19 0 -33 7z" />
    <glyph glyph-name="uni0200" unicode="&#x200;" horiz-adv-x="688" 
d="M558 211h-428l-98 -211h-23l325 700h20l325 -700h-23zM549 230l-205 443l-205 -443h410zM143 867h34l111 -110h-27zM282 867h34l111 -110h-27z" />
    <glyph glyph-name="Adieresis" unicode="&#xc4;" horiz-adv-x="688" 
d="M558 211h-428l-98 -211h-23l325 700h20l325 -700h-23zM549 230l-205 443l-205 -443h410zM243.5 799q-7.5 8 -7.5 18q0 11 7.5 18.5t18.5 7.5q10 0 18 -7.5t8 -18.5q0 -10 -8 -18t-18 -8q-11 0 -18.5 8zM407.5 799q-7.5 8 -7.5 18q0 11 7.5 18.5t18.5 7.5q10 0 18 -7.5
t8 -18.5q0 -10 -8 -18t-18 -8q-11 0 -18.5 8z" />
    <glyph glyph-name="uni1EA0" unicode="&#x1ea0;" horiz-adv-x="688" 
d="M558 211h-428l-98 -211h-23l325 700h20l325 -700h-23zM549 230l-205 443l-205 -443h410zM325.5 -168.5q-7.5 7.5 -7.5 18.5q0 10 7.5 18t18.5 8q10 0 18 -8t8 -18q0 -11 -8 -18.5t-18 -7.5q-11 0 -18.5 7.5z" />
    <glyph glyph-name="Agrave" unicode="&#xc0;" horiz-adv-x="688" 
d="M558 211h-428l-98 -211h-23l325 700h20l325 -700h-23zM549 230l-205 443l-205 -443h410zM209 867h40l140 -110h-30z" />
    <glyph glyph-name="uni1EA2" unicode="&#x1ea2;" horiz-adv-x="688" 
d="M558 211h-428l-98 -211h-23l325 700h20l325 -700h-23zM549 230l-205 443l-205 -443h410zM336 769q63 28 63 77q0 23 -16.5 38.5t-41.5 15.5q-33 0 -62 -19l-8 17q13 10 32 15.5t37 5.5q36 0 57.5 -19.5t21.5 -52.5q0 -30 -18 -53t-55 -41z" />
    <glyph glyph-name="uni0202" unicode="&#x202;" horiz-adv-x="688" 
d="M558 211h-428l-98 -211h-23l325 700h20l325 -700h-23zM549 230l-205 443l-205 -443h410zM251 839q38 31 93 31t93 -31t39 -82h-19q-1 43 -33 68.5t-80 25.5t-80 -25.5t-33 -68.5h-19q1 51 39 82z" />
    <glyph glyph-name="Amacron" unicode="&#x100;" horiz-adv-x="688" 
d="M558 211h-428l-98 -211h-23l325 700h20l325 -700h-23zM549 230l-205 443l-205 -443h410zM208 822h272v-20h-272v20z" />
    <glyph glyph-name="Aogonek" unicode="&#x104;" horiz-adv-x="688" 
d="M558 211h-428l-98 -211h-23l325 700h20l325 -700h-23zM549 230l-205 443l-205 -443h410zM557.5 -190.5q-25.5 22.5 -25.5 60.5q0 85 137 146l10 -16q-74 -32 -100.5 -64.5t-26.5 -65.5q0 -31 20 -47.5t52 -16.5q37 0 62 23l11 -15q-31 -27 -74 -27q-40 0 -65.5 22.5z" />
    <glyph glyph-name="Aring" unicode="&#xc5;" horiz-adv-x="688" 
d="M558 211h-428l-98 -211h-23l325 700h20l325 -700h-23zM549 230l-205 443l-205 -443h410zM277 806.5q-26 26.5 -26 63.5q0 38 26.5 65.5t65.5 27.5t66 -27.5t27 -65.5q0 -37 -26.5 -63.5t-66.5 -26.5t-66 26.5zM395.5 819.5q20.5 20.5 20.5 50.5t-21 52t-52 22
t-51.5 -21.5t-20.5 -52.5q0 -30 20 -50.5t52 -20.5t52.5 20.5z" />
    <glyph glyph-name="Aringacute" unicode="&#x1fa;" horiz-adv-x="688" 
d="M558 211h-428l-98 -211h-23l325 700h20l325 -700h-23zM549 230l-205 443l-205 -443h410zM414 931q22 -27 22 -61q0 -37 -26.5 -63.5t-66.5 -26.5t-66 26.5t-26 63.5q0 38 26.5 65.5t65.5 27.5q30 0 55 -18l81 76l17 -13zM395.5 819.5q20.5 20.5 20.5 50.5t-21 52t-52 22
t-51.5 -21.5t-20.5 -52.5q0 -30 20 -50.5t52 -20.5t52.5 20.5z" />
    <glyph glyph-name="Atilde" unicode="&#xc3;" horiz-adv-x="688" 
d="M558 211h-428l-98 -211h-23l325 700h20l325 -700h-23zM549 230l-205 443l-205 -443h410zM371.5 778.5q-15.5 9.5 -35.5 28.5q-16 15 -28.5 23t-26.5 8q-24 0 -38 -18t-16 -49h-19q2 39 21.5 62.5t51.5 23.5q20 0 35.5 -9.5t35.5 -28.5q16 -15 28.5 -23t26.5 -8
q24 0 38 17.5t16 47.5h19q-2 -38 -21.5 -61t-51.5 -23q-20 0 -35.5 9.5z" />
    <glyph glyph-name="AE" unicode="&#xc6;" horiz-adv-x="1005" 
d="M936 19v-19h-466v211h-304l-134 -211h-23l445 700h467v-19h-431v-316h386v-19h-386v-327h446zM470 230v451h-6l-286 -451h292z" />
    <glyph glyph-name="AEacute" unicode="&#x1fc;" horiz-adv-x="1005" 
d="M936 19v-19h-466v211h-304l-134 -211h-23l445 700h467v-19h-431v-316h386v-19h-386v-327h446zM470 230v451h-6l-286 -451h292zM575 867h40l-150 -110h-30z" />
    <glyph glyph-name="B" unicode="B" horiz-adv-x="748" 
d="M683 183q0 -89 -63.5 -136t-189.5 -47h-297v700h277q110 0 172.5 -45.5t62.5 -131.5q0 -66 -36.5 -107.5t-101.5 -56.5q176 -24 176 -176zM153 681v-316h261q101 0 156 40.5t55 117.5t-55 117.5t-156 40.5h-261zM663 183q0 83 -57.5 123t-171.5 40h-281v-327h281
q229 0 229 164z" />
    <glyph glyph-name="C" unicode="C" horiz-adv-x="711" 
d="M235 43q-82 46 -129 126.5t-47 180.5t47 180.5t129 126.5t183 46q71 0 132.5 -22.5t105.5 -66.5l-12 -14q-88 84 -226 84q-95 0 -172.5 -44t-122 -120.5t-44.5 -169.5t44.5 -169.5t122 -120.5t172.5 -44q137 0 226 85l12 -14q-44 -44 -106 -67t-132 -23q-101 0 -183 46z
" />
    <glyph glyph-name="Cacute" unicode="&#x106;" horiz-adv-x="711" 
d="M235 43q-82 46 -129 126.5t-47 180.5t47 180.5t129 126.5t183 46q71 0 132.5 -22.5t105.5 -66.5l-12 -14q-88 84 -226 84q-95 0 -172.5 -44t-122 -120.5t-44.5 -169.5t44.5 -169.5t122 -120.5t172.5 -44q137 0 226 85l12 -14q-44 -44 -106 -67t-132 -23q-101 0 -183 46z
M503 867h40l-150 -110h-30z" />
    <glyph glyph-name="Ccaron" unicode="&#x10c;" horiz-adv-x="711" 
d="M235 43q-82 46 -129 126.5t-47 180.5t47 180.5t129 126.5t183 46q71 0 132.5 -22.5t105.5 -66.5l-12 -14q-88 84 -226 84q-95 0 -172.5 -44t-122 -120.5t-44.5 -169.5t44.5 -169.5t122 -120.5t172.5 -44q137 0 226 85l12 -14q-44 -44 -106 -67t-132 -23q-101 0 -183 46z
M546 867l-122 -110h-32l-122 110h27l111 -93l111 93h27z" />
    <glyph glyph-name="Ccedilla" unicode="&#xc7;" horiz-adv-x="711" 
d="M235 43q-82 46 -129 126.5t-47 180.5t47 180.5t129 126.5t183 46q71 0 132.5 -22.5t105.5 -66.5l-12 -14q-88 84 -226 84q-95 0 -172.5 -44t-122 -120.5t-44.5 -169.5t44.5 -169.5t122 -120.5t172.5 -44q137 0 226 85l12 -14q-44 -44 -106 -67t-132 -23q-101 0 -183 46z
M318 -186l11 15q25 -23 62 -23q32 0 52 16t20 44q0 27 -19 43.5t-52 16.5h-16l22 79h19l-17 -61q38 -2 60.5 -23t22.5 -55q0 -36 -25.5 -57.5t-65.5 -21.5q-43 0 -74 27z" />
    <glyph glyph-name="uni1E08" unicode="&#x1e08;" horiz-adv-x="711" 
d="M235 43q-82 46 -129 126.5t-47 180.5t47 180.5t129 126.5t183 46q71 0 132.5 -22.5t105.5 -66.5l-12 -14q-88 84 -226 84q-95 0 -172.5 -44t-122 -120.5t-44.5 -169.5t44.5 -169.5t122 -120.5t172.5 -44q137 0 226 85l12 -14q-44 -44 -106 -67t-132 -23q-101 0 -183 46z
M318 -186l11 15q25 -23 62 -23q32 0 52 16t20 44q0 27 -19 43.5t-52 16.5h-16l22 79h19l-17 -61q38 -2 60.5 -23t22.5 -55q0 -36 -25.5 -57.5t-65.5 -21.5q-43 0 -74 27zM503 867h40l-150 -110h-30z" />
    <glyph glyph-name="Ccircumflex" unicode="&#x108;" horiz-adv-x="711" 
d="M235 43q-82 46 -129 126.5t-47 180.5t47 180.5t129 126.5t183 46q71 0 132.5 -22.5t105.5 -66.5l-12 -14q-88 84 -226 84q-95 0 -172.5 -44t-122 -120.5t-44.5 -169.5t44.5 -169.5t122 -120.5t172.5 -44q137 0 226 85l12 -14q-44 -44 -106 -67t-132 -23q-101 0 -183 46z
M519 757l-111 93l-111 -93h-27l122 110h32l122 -110h-27z" />
    <glyph glyph-name="Cdotaccent" unicode="&#x10a;" horiz-adv-x="711" 
d="M235 43q-82 46 -129 126.5t-47 180.5t47 180.5t129 126.5t183 46q71 0 132.5 -22.5t105.5 -66.5l-12 -14q-88 84 -226 84q-95 0 -172.5 -44t-122 -120.5t-44.5 -169.5t44.5 -169.5t122 -120.5t172.5 -44q137 0 226 85l12 -14q-44 -44 -106 -67t-132 -23q-101 0 -183 46z
M389.5 799q-7.5 8 -7.5 18q0 11 7.5 18.5t18.5 7.5q10 0 18 -7.5t8 -18.5q0 -10 -8 -18t-18 -8q-11 0 -18.5 8z" />
    <glyph glyph-name="D" unicode="D" horiz-adv-x="826" 
d="M133 700h265q109 0 192.5 -45t130 -125t46.5 -180t-46.5 -180t-130 -125t-192.5 -45h-265v700zM396 19q105 0 184.5 42.5t123 118t43.5 170.5t-43.5 170.5t-123 118t-184.5 42.5h-243v-662h243z" />
    <glyph glyph-name="uni01C4" unicode="&#x1c4;" horiz-adv-x="1461" 
d="M133 700h265q109 0 192.5 -45t130 -125t46.5 -180t-46.5 -180t-130 -125t-192.5 -45h-265v700zM396 19q105 0 184.5 42.5t123 118t43.5 170.5t-43.5 170.5t-123 118t-184.5 42.5h-243v-662h243zM1411 19v-19h-550v15l512 666h-507v19h535v-15l-512 -666h522zM1274 867
l-122 -110h-32l-122 110h27l111 -93l111 93h27z" />
    <glyph glyph-name="Eth" unicode="&#xd0;" horiz-adv-x="826" 
d="M133 700h265q109 0 192.5 -45t130 -125t46.5 -180t-46.5 -180t-130 -125t-192.5 -45h-265v700zM396 19q105 0 184.5 42.5t123 118t43.5 170.5t-43.5 170.5t-123 118t-184.5 42.5h-243v-662h243zM20 365h360v-19h-360v19z" />
    <glyph glyph-name="Dcaron" unicode="&#x10e;" horiz-adv-x="826" 
d="M133 700h265q109 0 192.5 -45t130 -125t46.5 -180t-46.5 -180t-130 -125t-192.5 -45h-265v700zM396 19q105 0 184.5 42.5t123 118t43.5 170.5t-43.5 170.5t-123 118t-184.5 42.5h-243v-662h243zM529 866l-122 -110h-32l-122 110h27l111 -93l111 93h27z" />
    <glyph glyph-name="Dcroat" unicode="&#x110;" horiz-adv-x="826" 
d="M133 700h265q109 0 192.5 -45t130 -125t46.5 -180t-46.5 -180t-130 -125t-192.5 -45h-265v700zM396 19q105 0 184.5 42.5t123 118t43.5 170.5t-43.5 170.5t-123 118t-184.5 42.5h-243v-662h243zM20 365h360v-19h-360v19z" />
    <glyph glyph-name="uni1E0C" unicode="&#x1e0c;" horiz-adv-x="826" 
d="M133 700h265q109 0 192.5 -45t130 -125t46.5 -180t-46.5 -180t-130 -125t-192.5 -45h-265v700zM396 19q105 0 184.5 42.5t123 118t43.5 170.5t-43.5 170.5t-123 118t-184.5 42.5h-243v-662h243zM377.5 -168.5q-7.5 7.5 -7.5 18.5q0 10 7.5 18t18.5 8q10 0 18 -8t8 -18
q0 -11 -8 -18.5t-18 -7.5q-11 0 -18.5 7.5z" />
    <glyph glyph-name="uni1E0E" unicode="&#x1e0e;" horiz-adv-x="826" 
d="M133 700h265q109 0 192.5 -45t130 -125t46.5 -180t-46.5 -180t-130 -125t-192.5 -45h-265v700zM396 19q105 0 184.5 42.5t123 118t43.5 170.5t-43.5 170.5t-123 118t-184.5 42.5h-243v-662h243zM260 -140h272v-20h-272v20z" />
    <glyph glyph-name="uni01C5" unicode="&#x1c5;" horiz-adv-x="1317" 
d="M133 700h265q109 0 192.5 -45t130 -125t46.5 -180t-46.5 -180t-130 -125t-192.5 -45h-265v700zM396 19q105 0 184.5 42.5t123 118t43.5 170.5t-43.5 170.5t-123 118t-184.5 42.5h-243v-662h243zM1269 19v-19h-397v15l364 483h-359v19h387v-15l-364 -483h369zM1209 717
l-122 -110h-32l-122 110h27l111 -93l111 93h27z" />
    <glyph glyph-name="E" unicode="E" horiz-adv-x="668" 
d="M599 19v-19h-466v700h451v-19h-431v-316h386v-19h-386v-327h446z" />
    <glyph glyph-name="Eacute" unicode="&#xc9;" horiz-adv-x="668" 
d="M599 19v-19h-466v700h451v-19h-431v-316h386v-19h-386v-327h446zM454 867h40l-150 -110h-30z" />
    <glyph glyph-name="Ebreve" unicode="&#x114;" horiz-adv-x="668" 
d="M599 19v-19h-466v700h451v-19h-431v-316h386v-19h-386v-327h446zM266 785q-38 31 -39 82h19q1 -43 33 -68.5t80 -25.5t80 25.5t33 68.5h19q-1 -51 -39 -82t-93 -31t-93 31z" />
    <glyph glyph-name="Ecaron" unicode="&#x11a;" horiz-adv-x="668" 
d="M599 19v-19h-466v700h451v-19h-431v-316h386v-19h-386v-327h446zM497 867l-122 -110h-32l-122 110h27l111 -93l111 93h27z" />
    <glyph glyph-name="uni1E1C" unicode="&#x1e1c;" horiz-adv-x="668" 
d="M599 19v-19h-466v700h451v-19h-431v-316h386v-19h-386v-327h446zM286 -186l11 15q25 -23 62 -23q32 0 52 16t20 44q0 27 -19 43.5t-52 16.5h-16l22 79h19l-17 -61q38 -2 60.5 -23t22.5 -55q0 -36 -25.5 -57.5t-65.5 -21.5q-43 0 -74 27zM266 785q-38 31 -39 82h19
q1 -43 33 -68.5t80 -25.5t80 25.5t33 68.5h19q-1 -51 -39 -82t-93 -31t-93 31z" />
    <glyph glyph-name="Ecircumflex" unicode="&#xca;" horiz-adv-x="668" 
d="M599 19v-19h-466v700h451v-19h-431v-316h386v-19h-386v-327h446zM470 757l-111 93l-111 -93h-27l122 110h32l122 -110h-27z" />
    <glyph glyph-name="uni1EBE" unicode="&#x1ebe;" horiz-adv-x="668" 
d="M599 19v-19h-466v700h451v-19h-431v-316h386v-19h-386v-327h446zM467 757l-108 64l-108 -64h-30l123 80h30l123 -80h-30zM561 932h40l-137 -100h-30z" />
    <glyph glyph-name="uni1EC6" unicode="&#x1ec6;" horiz-adv-x="668" 
d="M599 19v-19h-466v700h451v-19h-431v-316h386v-19h-386v-327h446zM357.5 -168.5q-7.5 7.5 -7.5 18.5q0 10 7.5 18t18.5 8q10 0 18 -8t8 -18q0 -11 -8 -18.5t-18 -7.5q-11 0 -18.5 7.5zM470 757l-111 93l-111 -93h-27l122 110h32l122 -110h-27z" />
    <glyph glyph-name="uni1EC0" unicode="&#x1ec0;" horiz-adv-x="668" 
d="M599 19v-19h-466v700h451v-19h-431v-316h386v-19h-386v-327h446zM467 757l-108 64l-108 -64h-30l123 80h30l123 -80h-30zM357 932h40l127 -100h-30z" />
    <glyph glyph-name="uni1EC2" unicode="&#x1ec2;" horiz-adv-x="668" 
d="M599 19v-19h-466v700h451v-19h-431v-316h386v-19h-386v-327h446zM467 757l-108 64l-108 -64h-30l123 80h30l123 -80h-30zM452 833q21 10 33 24.5t12 31.5q0 16 -11.5 26t-30.5 10q-24 0 -43 -13l-8 16q22 16 52 16q28 0 44 -15t16 -40q0 -47 -54 -71z" />
    <glyph glyph-name="uni1EC4" unicode="&#x1ec4;" horiz-adv-x="668" 
d="M599 19v-19h-466v700h451v-19h-431v-316h386v-19h-386v-327h446zM467 757l-108 64l-108 -64h-30l123 80h30l123 -80h-30zM387 877q-14 7 -35 22q-16 12 -28.5 18.5t-25.5 6.5q-24 0 -38.5 -13.5t-15.5 -38.5h-19q1 32 21 51.5t52 19.5q18 0 32.5 -7t35.5 -22
q16 -12 28.5 -18.5t25.5 -6.5q24 0 38.5 13t15.5 37h19q-1 -31 -21 -50t-52 -19q-19 0 -33 7z" />
    <glyph glyph-name="uni0204" unicode="&#x204;" horiz-adv-x="668" 
d="M599 19v-19h-466v700h451v-19h-431v-316h386v-19h-386v-327h446zM158 867h34l111 -110h-27zM297 867h34l111 -110h-27z" />
    <glyph glyph-name="Edieresis" unicode="&#xcb;" horiz-adv-x="668" 
d="M599 19v-19h-466v700h451v-19h-431v-316h386v-19h-386v-327h446zM258.5 799q-7.5 8 -7.5 18q0 11 7.5 18.5t18.5 7.5q10 0 18 -7.5t8 -18.5q0 -10 -8 -18t-18 -8q-11 0 -18.5 8zM422.5 799q-7.5 8 -7.5 18q0 11 7.5 18.5t18.5 7.5q10 0 18 -7.5t8 -18.5q0 -10 -8 -18
t-18 -8q-11 0 -18.5 8z" />
    <glyph glyph-name="Edotaccent" unicode="&#x116;" horiz-adv-x="668" 
d="M599 19v-19h-466v700h451v-19h-431v-316h386v-19h-386v-327h446zM340.5 799q-7.5 8 -7.5 18q0 11 7.5 18.5t18.5 7.5q10 0 18 -7.5t8 -18.5q0 -10 -8 -18t-18 -8q-11 0 -18.5 8z" />
    <glyph glyph-name="uni1EB8" unicode="&#x1eb8;" horiz-adv-x="668" 
d="M599 19v-19h-466v700h451v-19h-431v-316h386v-19h-386v-327h446zM357.5 -168.5q-7.5 7.5 -7.5 18.5q0 10 7.5 18t18.5 8q10 0 18 -8t8 -18q0 -11 -8 -18.5t-18 -7.5q-11 0 -18.5 7.5z" />
    <glyph glyph-name="Egrave" unicode="&#xc8;" horiz-adv-x="668" 
d="M599 19v-19h-466v700h451v-19h-431v-316h386v-19h-386v-327h446zM224 867h40l140 -110h-30z" />
    <glyph glyph-name="uni1EBA" unicode="&#x1eba;" horiz-adv-x="668" 
d="M599 19v-19h-466v700h451v-19h-431v-316h386v-19h-386v-327h446zM351 769q63 28 63 77q0 23 -16.5 38.5t-41.5 15.5q-33 0 -62 -19l-8 17q13 10 32 15.5t37 5.5q36 0 57.5 -19.5t21.5 -52.5q0 -30 -18 -53t-55 -41z" />
    <glyph glyph-name="uni0206" unicode="&#x206;" horiz-adv-x="668" 
d="M599 19v-19h-466v700h451v-19h-431v-316h386v-19h-386v-327h446zM266 839q38 31 93 31t93 -31t39 -82h-19q-1 43 -33 68.5t-80 25.5t-80 -25.5t-33 -68.5h-19q1 51 39 82z" />
    <glyph glyph-name="Emacron" unicode="&#x112;" horiz-adv-x="668" 
d="M599 19v-19h-466v700h451v-19h-431v-316h386v-19h-386v-327h446zM223 822h272v-20h-272v20z" />
    <glyph glyph-name="uni1E16" unicode="&#x1e16;" horiz-adv-x="668" 
d="M599 19v-19h-466v700h451v-19h-431v-316h386v-19h-386v-327h446zM223 807h272v-20h-272v20zM441 970h40l-137 -100h-30z" />
    <glyph glyph-name="uni1E14" unicode="&#x1e14;" horiz-adv-x="668" 
d="M599 19v-19h-466v700h451v-19h-431v-316h386v-19h-386v-327h446zM223 807h272v-20h-272v20zM237 970h40l127 -100h-30z" />
    <glyph glyph-name="Eogonek" unicode="&#x118;" horiz-adv-x="668" 
d="M599 19v-19h-466v700h451v-19h-431v-316h386v-19h-386v-327h446zM477.5 -190.5q-25.5 22.5 -25.5 60.5q0 85 137 146l10 -16q-74 -32 -100.5 -64.5t-26.5 -65.5q0 -31 20 -47.5t52 -16.5q37 0 62 23l11 -15q-31 -27 -74 -27q-40 0 -65.5 22.5z" />
    <glyph glyph-name="uni1EBC" unicode="&#x1ebc;" horiz-adv-x="668" 
d="M599 19v-19h-466v700h451v-19h-431v-316h386v-19h-386v-327h446zM386.5 778.5q-15.5 9.5 -35.5 28.5q-16 15 -28.5 23t-26.5 8q-24 0 -38 -18t-16 -49h-19q2 39 21.5 62.5t51.5 23.5q20 0 35.5 -9.5t35.5 -28.5q16 -15 28.5 -23t26.5 -8q24 0 38 17.5t16 47.5h19
q-2 -38 -21.5 -61t-51.5 -23q-20 0 -35.5 9.5z" />
    <glyph glyph-name="uni01B7" unicode="&#x1b7;" horiz-adv-x="599" 
d="M467 334.5q66 -52.5 66 -142.5q0 -89 -64 -142t-180 -53q-83 0 -152 27.5t-103 71.5l13 13q33 -41 97.5 -67t145.5 -26q107 0 165 47t58 129q0 83 -60 129.5t-179 46.5h-37v15l240 298h-420v19h448v-15l-240 -298h8q128 0 194 -52.5z" />
    <glyph glyph-name="uni01EE" unicode="&#x1ee;" horiz-adv-x="599" 
d="M467 334.5q66 -52.5 66 -142.5q0 -89 -64 -142t-180 -53q-83 0 -152 27.5t-103 71.5l13 13q33 -41 97.5 -67t145.5 -26q107 0 165 47t58 129q0 83 -60 129.5t-179 46.5h-37v15l240 298h-420v19h448v-15l-240 -298h8q128 0 194 -52.5zM425 867l-122 -110h-32l-122 110h27
l111 -93l111 93h27z" />
    <glyph glyph-name="F" unicode="F" horiz-adv-x="629" 
d="M153 681v-336h386v-19h-386v-326h-20v700h451v-19h-431z" />
    <glyph glyph-name="G" unicode="G" horiz-adv-x="774" 
d="M643 343h19v-256q-44 -44 -106.5 -67t-134.5 -23q-103 0 -185.5 46t-129.5 126.5t-47 180.5t47 180.5t129.5 126.5t185.5 46q73 0 135 -22.5t106 -66.5l-12 -14q-88 84 -229 84q-96 0 -174.5 -44t-123 -120.5t-44.5 -169.5t44.5 -169.5t123 -120.5t174.5 -44
q139 0 222 79v248z" />
    <glyph glyph-name="Gbreve" unicode="&#x11e;" horiz-adv-x="774" 
d="M643 343h19v-256q-44 -44 -106.5 -67t-134.5 -23q-103 0 -185.5 46t-129.5 126.5t-47 180.5t47 180.5t129.5 126.5t185.5 46q73 0 135 -22.5t106 -66.5l-12 -14q-88 84 -229 84q-96 0 -174.5 -44t-123 -120.5t-44.5 -169.5t44.5 -169.5t123 -120.5t174.5 -44
q139 0 222 79v248zM309 784q-38 31 -39 82h19q1 -43 33 -68.5t80 -25.5t80 25.5t33 68.5h19q-1 -51 -39 -82t-93 -31t-93 31z" />
    <glyph glyph-name="Gcaron" unicode="&#x1e6;" horiz-adv-x="774" 
d="M643 343h19v-256q-44 -44 -106.5 -67t-134.5 -23q-103 0 -185.5 46t-129.5 126.5t-47 180.5t47 180.5t129.5 126.5t185.5 46q73 0 135 -22.5t106 -66.5l-12 -14q-88 84 -229 84q-96 0 -174.5 -44t-123 -120.5t-44.5 -169.5t44.5 -169.5t123 -120.5t174.5 -44
q139 0 222 79v248zM540 866l-122 -110h-32l-122 110h27l111 -93l111 93h27z" />
    <glyph glyph-name="Gcircumflex" unicode="&#x11c;" horiz-adv-x="774" 
d="M643 343h19v-256q-44 -44 -106.5 -67t-134.5 -23q-103 0 -185.5 46t-129.5 126.5t-47 180.5t47 180.5t129.5 126.5t185.5 46q73 0 135 -22.5t106 -66.5l-12 -14q-88 84 -229 84q-96 0 -174.5 -44t-123 -120.5t-44.5 -169.5t44.5 -169.5t123 -120.5t174.5 -44
q139 0 222 79v248zM513 756l-111 93l-111 -93h-27l122 110h32l122 -110h-27z" />
    <glyph glyph-name="Gcommaaccent" unicode="&#x122;" horiz-adv-x="774" 
d="M643 343h19v-256q-44 -44 -106.5 -67t-134.5 -23q-103 0 -185.5 46t-129.5 126.5t-47 180.5t47 180.5t129.5 126.5t185.5 46q73 0 135 -22.5t106 -66.5l-12 -14q-88 84 -229 84q-96 0 -174.5 -44t-123 -120.5t-44.5 -169.5t44.5 -169.5t123 -120.5t174.5 -44
q139 0 222 79v248zM420.5 -132q7.5 -8 7.5 -18t-6 -32l-23 -77h-18l18 83q-10 2 -16.5 9t-6.5 17q0 11 7.5 18.5t18.5 7.5t18.5 -8z" />
    <glyph glyph-name="Gdotaccent" unicode="&#x120;" horiz-adv-x="774" 
d="M643 343h19v-256q-44 -44 -106.5 -67t-134.5 -23q-103 0 -185.5 46t-129.5 126.5t-47 180.5t47 180.5t129.5 126.5t185.5 46q73 0 135 -22.5t106 -66.5l-12 -14q-88 84 -229 84q-96 0 -174.5 -44t-123 -120.5t-44.5 -169.5t44.5 -169.5t123 -120.5t174.5 -44
q139 0 222 79v248zM383.5 798q-7.5 8 -7.5 18q0 11 7.5 18.5t18.5 7.5q10 0 18 -7.5t8 -18.5q0 -10 -8 -18t-18 -8q-11 0 -18.5 8z" />
    <glyph glyph-name="uni1E20" unicode="&#x1e20;" horiz-adv-x="774" 
d="M643 343h19v-256q-44 -44 -106.5 -67t-134.5 -23q-103 0 -185.5 46t-129.5 126.5t-47 180.5t47 180.5t129.5 126.5t185.5 46q73 0 135 -22.5t106 -66.5l-12 -14q-88 84 -229 84q-96 0 -174.5 -44t-123 -120.5t-44.5 -169.5t44.5 -169.5t123 -120.5t174.5 -44
q139 0 222 79v248zM266 821h272v-20h-272v20z" />
    <glyph glyph-name="uni01E4" unicode="&#x1e4;" horiz-adv-x="804" 
d="M643 343h19v-256q-44 -44 -106.5 -67t-134.5 -23q-103 0 -185.5 46t-129.5 126.5t-47 180.5t47 180.5t129.5 126.5t185.5 46q73 0 135 -22.5t106 -66.5l-12 -14q-88 84 -229 84q-96 0 -174.5 -44t-123 -120.5t-44.5 -169.5t44.5 -169.5t123 -120.5t174.5 -44
q139 0 222 79v248zM420 243h360v-19h-360v19z" />
    <glyph glyph-name="H" unicode="H" horiz-adv-x="816" 
d="M683 700v-700h-20v346h-510v-346h-20v700h20v-335h510v335h20z" />
    <glyph glyph-name="Hbar" unicode="&#x126;" horiz-adv-x="816" 
d="M683 700v-700h-20v346h-510v-346h-20v700h20v-335h510v335h20zM20 548h776v-19h-776v19z" />
    <glyph glyph-name="uni1E2A" unicode="&#x1e2a;" horiz-adv-x="816" 
d="M683 700v-700h-20v346h-510v-346h-20v700h20v-335h510v335h20zM315 -168.5q-38 29.5 -39 78.5h19q1 -40 33 -64.5t80 -24.5t80 24.5t33 64.5h19q-1 -49 -39 -78.5t-93 -29.5t-93 29.5z" />
    <glyph glyph-name="uni021E" unicode="&#x21e;" horiz-adv-x="816" 
d="M683 700v-700h-20v346h-510v-346h-20v700h20v-335h510v335h20zM546 867l-122 -110h-32l-122 110h27l111 -93l111 93h27z" />
    <glyph glyph-name="Hcircumflex" unicode="&#x124;" horiz-adv-x="816" 
d="M683 700v-700h-20v346h-510v-346h-20v700h20v-335h510v335h20zM519 757l-111 93l-111 -93h-27l122 110h32l122 -110h-27z" />
    <glyph glyph-name="uni1E24" unicode="&#x1e24;" horiz-adv-x="816" 
d="M683 700v-700h-20v346h-510v-346h-20v700h20v-335h510v335h20zM389.5 -168.5q-7.5 7.5 -7.5 18.5q0 10 7.5 18t18.5 8q10 0 18 -8t8 -18q0 -11 -8 -18.5t-18 -7.5q-11 0 -18.5 7.5z" />
    <glyph glyph-name="I" unicode="I" horiz-adv-x="286" 
d="M133 700h20v-700h-20v700z" />
    <glyph glyph-name="IJ" unicode="&#x132;" horiz-adv-x="714" 
d="M216 14.5q-53 17.5 -96 47.5l12 16q40 -30 90.5 -46t105.5 -16q113 0 176 70t63 208v406h20v-407q0 -145 -69.5 -220.5t-190.5 -75.5q-58 0 -111 17.5zM127 700h20v-410h-20v410z" />
    <glyph glyph-name="Iacute" unicode="&#xcd;" horiz-adv-x="286" 
d="M133 700h20v-700h-20v700zM238 867h40l-150 -110h-30z" />
    <glyph glyph-name="Ibreve" unicode="&#x12c;" horiz-adv-x="286" 
d="M133 700h20v-700h-20v700zM50 785q-38 31 -39 82h19q1 -43 33 -68.5t80 -25.5t80 25.5t33 68.5h19q-1 -51 -39 -82t-93 -31t-93 31z" />
    <glyph glyph-name="Icircumflex" unicode="&#xce;" horiz-adv-x="286" 
d="M133 700h20v-700h-20v700zM254 757l-111 93l-111 -93h-27l122 110h32l122 -110h-27z" />
    <glyph glyph-name="uni0208" unicode="&#x208;" horiz-adv-x="286" 
d="M133 700h20v-700h-20v700zM-58 867h34l111 -110h-27zM81 867h34l111 -110h-27z" />
    <glyph glyph-name="Idieresis" unicode="&#xcf;" horiz-adv-x="286" 
d="M133 700h20v-700h-20v700zM42.5 799q-7.5 8 -7.5 18q0 11 7.5 18.5t18.5 7.5q10 0 18 -7.5t8 -18.5q0 -10 -8 -18t-18 -8q-11 0 -18.5 8zM206.5 799q-7.5 8 -7.5 18q0 11 7.5 18.5t18.5 7.5q10 0 18 -7.5t8 -18.5q0 -10 -8 -18t-18 -8q-11 0 -18.5 8z" />
    <glyph glyph-name="uni1E2E" unicode="&#x1e2e;" horiz-adv-x="286" 
d="M133 700h20v-700h-20v700zM42.5 799q-7.5 8 -7.5 18q0 11 7.5 18.5t18.5 7.5q10 0 18 -7.5t8 -18.5q0 -10 -8 -18t-18 -8q-11 0 -18.5 8zM206.5 799q-7.5 8 -7.5 18q0 11 7.5 18.5t18.5 7.5q10 0 18 -7.5t8 -18.5q0 -10 -8 -18t-18 -8q-11 0 -18.5 8zM225 970h40
l-137 -100h-30z" />
    <glyph glyph-name="Idotaccent" unicode="&#x130;" horiz-adv-x="286" 
d="M133 700h20v-700h-20v700zM124.5 799q-7.5 8 -7.5 18q0 11 7.5 18.5t18.5 7.5q10 0 18 -7.5t8 -18.5q0 -10 -8 -18t-18 -8q-11 0 -18.5 8z" />
    <glyph glyph-name="uni1ECA" unicode="&#x1eca;" horiz-adv-x="286" 
d="M133 700h20v-700h-20v700zM124.5 -168.5q-7.5 7.5 -7.5 18.5q0 10 7.5 18t18.5 8q10 0 18 -8t8 -18q0 -11 -8 -18.5t-18 -7.5q-11 0 -18.5 7.5z" />
    <glyph glyph-name="Igrave" unicode="&#xcc;" horiz-adv-x="286" 
d="M133 700h20v-700h-20v700zM8 867h40l140 -110h-30z" />
    <glyph glyph-name="uni1EC8" unicode="&#x1ec8;" horiz-adv-x="286" 
d="M133 700h20v-700h-20v700zM135 769q63 28 63 77q0 23 -16.5 38.5t-41.5 15.5q-33 0 -62 -19l-8 17q13 10 32 15.5t37 5.5q36 0 57.5 -19.5t21.5 -52.5q0 -30 -18 -53t-55 -41z" />
    <glyph glyph-name="uni020A" unicode="&#x20a;" horiz-adv-x="286" 
d="M133 700h20v-700h-20v700zM50 839q38 31 93 31t93 -31t39 -82h-19q-1 43 -33 68.5t-80 25.5t-80 -25.5t-33 -68.5h-19q1 51 39 82z" />
    <glyph glyph-name="Imacron" unicode="&#x12a;" horiz-adv-x="286" 
d="M133 700h20v-700h-20v700zM32 823h222v-20h-222v20z" />
    <glyph glyph-name="Iogonek" unicode="&#x12e;" horiz-adv-x="286" 
d="M133 700h20v-700h-20v700zM96.5 -191.5q-18.5 21.5 -18.5 56.5q0 83 67 152l8 -17q-35 -39 -45 -70t-10 -64q0 -29 13.5 -45t33.5 -16q23 0 40 20l11 -14q-19 -24 -51 -24q-30 0 -48.5 21.5z" />
    <glyph glyph-name="Itilde" unicode="&#x128;" horiz-adv-x="286" 
d="M133 700h20v-700h-20v700zM170.5 778.5q-15.5 9.5 -35.5 28.5q-16 15 -28.5 23t-26.5 8q-24 0 -38 -18t-16 -49h-19q2 39 21.5 62.5t51.5 23.5q20 0 35.5 -9.5t35.5 -28.5q16 -15 28.5 -23t26.5 -8q24 0 38 17.5t16 47.5h19q-2 -38 -21.5 -61t-51.5 -23q-20 0 -35.5 9.5z
" />
    <glyph glyph-name="J" unicode="J" horiz-adv-x="477" 
d="M78.5 23.5q-46.5 26.5 -74.5 72.5l14 12q29 -44 70.5 -68t90.5 -24q77 0 114 44.5t37 135.5v485h-262v19h282v-506q0 -197 -172 -197q-53 0 -99.5 26.5z" />
    <glyph glyph-name="Jcircumflex" unicode="&#x134;" horiz-adv-x="477" 
d="M78.5 23.5q-46.5 26.5 -74.5 72.5l14 12q29 -44 70.5 -68t90.5 -24q77 0 114 44.5t37 135.5v485h-262v19h282v-506q0 -197 -172 -197q-53 0 -99.5 26.5zM320 757l-111 93l-111 -93h-27l122 110h32l122 -110h-27z" />
    <glyph glyph-name="K" unicode="K" horiz-adv-x="693" 
d="M327 365l-174 -179v-186h-20v700h20v-487l474 487h27l-312 -321l335 -379h-27z" />
    <glyph glyph-name="uni01E8" unicode="&#x1e8;" horiz-adv-x="693" 
d="M327 365l-174 -179v-186h-20v700h20v-487l474 487h27l-312 -321l335 -379h-27zM508 867l-122 -110h-32l-122 110h27l111 -93l111 93h27z" />
    <glyph glyph-name="Kcommaaccent" unicode="&#x136;" horiz-adv-x="693" 
d="M327 365l-174 -179v-186h-20v700h20v-487l474 487h27l-312 -321l335 -379h-27zM388.5 -132q7.5 -8 7.5 -18t-6 -32l-23 -77h-18l18 83q-10 2 -16.5 9t-6.5 17q0 11 7.5 18.5t18.5 7.5t18.5 -8z" />
    <glyph glyph-name="L" unicode="L" horiz-adv-x="580" 
d="M133 700h20v-681h417v-19h-437v700z" />
    <glyph glyph-name="uni01C7" unicode="&#x1c7;" horiz-adv-x="1057" 
d="M133 700h20v-681h417v-19h-437v700zM658.5 23.5q-46.5 26.5 -74.5 72.5l14 12q29 -44 70.5 -68t90.5 -24q77 0 114 44.5t37 135.5v485h-262v19h282v-506q0 -197 -172 -197q-53 0 -99.5 26.5z" />
    <glyph glyph-name="Lacute" unicode="&#x139;" horiz-adv-x="580" 
d="M133 700h20v-681h417v-19h-437v700zM238 867h40l-150 -110h-30z" />
    <glyph glyph-name="Lcaron" unicode="&#x13d;" horiz-adv-x="580" 
d="M133 700h20v-681h417v-19h-437v700zM446 720h20l-2 -180h-18v180z" />
    <glyph glyph-name="Lcommaaccent" unicode="&#x13b;" horiz-adv-x="580" 
d="M133 700h20v-681h417v-19h-437v700zM380.5 -132q7.5 -8 7.5 -18t-6 -32l-23 -77h-18l18 83q-10 2 -16.5 9t-6.5 17q0 11 7.5 18.5t18.5 7.5t18.5 -8z" />
    <glyph glyph-name="Ldot" unicode="&#x13f;" horiz-adv-x="580" 
d="M133 700h20v-681h417v-19h-437v700zM415 342q-8 8 -8 18q0 11 8 18.5t18 7.5q11 0 18.5 -7.5t7.5 -18.5q0 -10 -7.5 -18t-18.5 -8q-10 0 -18 8z" />
    <glyph glyph-name="uni1E36" unicode="&#x1e36;" horiz-adv-x="580" 
d="M133 700h20v-681h417v-19h-437v700zM343.5 -168.5q-7.5 7.5 -7.5 18.5q0 10 7.5 18t18.5 8q10 0 18 -8t8 -18q0 -11 -8 -18.5t-18 -7.5q-11 0 -18.5 7.5z" />
    <glyph glyph-name="uni01C8" unicode="&#x1c8;" horiz-adv-x="835" 
d="M133 700h20v-681h417v-19h-437v700zM539 -187.5q-28 9.5 -45 27.5l14 14q34 -32 89 -32q50 0 76.5 29t26.5 84v582h20v-587q0 -58 -32 -92.5t-90 -34.5q-31 0 -59 9.5zM691.5 668q-7.5 8 -7.5 18q0 11 7.5 18.5t18.5 7.5q10 0 18 -7.5t8 -18.5q0 -10 -8 -18t-18 -8
q-11 0 -18.5 8z" />
    <glyph glyph-name="uni1E3A" unicode="&#x1e3a;" horiz-adv-x="580" 
d="M133 700h20v-681h417v-19h-437v700zM226 -140h272v-20h-272v20z" />
    <glyph glyph-name="Lslash" unicode="&#x141;" horiz-adv-x="580" 
d="M133 700h20v-681h417v-19h-437v700zM41 296l243 179l11 -14l-243 -179z" />
    <glyph glyph-name="M" unicode="M" horiz-adv-x="956" 
d="M823 700v-700h-20v657l-319 -558h-12l-319 556v-655h-20v700h17l328 -574l328 574h17z" />
    <glyph glyph-name="uni1E42" unicode="&#x1e42;" horiz-adv-x="956" 
d="M823 700v-700h-20v657l-319 -558h-12l-319 556v-655h-20v700h17l328 -574l328 574h17zM459.5 -168.5q-7.5 7.5 -7.5 18.5q0 10 7.5 18t18.5 8q10 0 18 -8t8 -18q0 -11 -8 -18.5t-18 -7.5q-11 0 -18.5 7.5z" />
    <glyph glyph-name="N" unicode="N" horiz-adv-x="816" 
d="M683 700v-700h-17l-513 663v-663h-20v700h17l513 -663v663h20z" />
    <glyph glyph-name="uni01CA" unicode="&#x1ca;" horiz-adv-x="1293" 
d="M683 700v-700h-17l-513 663v-663h-20v700h17l513 -663v663h20zM894.5 23.5q-46.5 26.5 -74.5 72.5l14 12q29 -44 70.5 -68t90.5 -24q77 0 114 44.5t37 135.5v485h-262v19h282v-506q0 -197 -172 -197q-53 0 -99.5 26.5z" />
    <glyph glyph-name="Nacute" unicode="&#x143;" horiz-adv-x="816" 
d="M683 700v-700h-17l-513 663v-663h-20v700h17l513 -663v663h20zM503 867h40l-150 -110h-30z" />
    <glyph glyph-name="Ncaron" unicode="&#x147;" horiz-adv-x="816" 
d="M683 700v-700h-17l-513 663v-663h-20v700h17l513 -663v663h20zM546 867l-122 -110h-32l-122 110h27l111 -93l111 93h27z" />
    <glyph glyph-name="Ncommaaccent" unicode="&#x145;" horiz-adv-x="816" 
d="M683 700v-700h-17l-513 663v-663h-20v700h17l513 -663v663h20zM426.5 -132q7.5 -8 7.5 -18t-6 -32l-23 -77h-18l18 83q-10 2 -16.5 9t-6.5 17q0 11 7.5 18.5t18.5 7.5t18.5 -8z" />
    <glyph glyph-name="uni1E44" unicode="&#x1e44;" horiz-adv-x="816" 
d="M683 700v-700h-17l-513 663v-663h-20v700h17l513 -663v663h20zM389.5 799q-7.5 8 -7.5 18q0 11 7.5 18.5t18.5 7.5q10 0 18 -7.5t8 -18.5q0 -10 -8 -18t-18 -8q-11 0 -18.5 8z" />
    <glyph glyph-name="uni1E46" unicode="&#x1e46;" horiz-adv-x="816" 
d="M683 700v-700h-17l-513 663v-663h-20v700h17l513 -663v663h20zM389.5 -168.5q-7.5 7.5 -7.5 18.5q0 10 7.5 18t18.5 8q10 0 18 -8t8 -18q0 -11 -8 -18.5t-18 -7.5q-11 0 -18.5 7.5z" />
    <glyph glyph-name="Eng" unicode="&#x14a;" horiz-adv-x="816" 
d="M683 700v-700q0 -197 -172 -197q-53 0 -99.5 26.5t-74.5 72.5l14 12q29 -44 70.5 -68t90.5 -24q77 0 114 44.5t37 135.5v2l-510 659v-663h-20v700h17l513 -663v663h20z" />
    <glyph glyph-name="uni01CB" unicode="&#x1cb;" horiz-adv-x="1071" 
d="M683 700v-700h-17l-513 663v-663h-20v700h17l513 -663v663h20zM775 -187.5q-28 9.5 -45 27.5l14 14q34 -32 89 -32q50 0 76.5 29t26.5 84v582h20v-587q0 -58 -32 -92.5t-90 -34.5q-31 0 -59 9.5zM927.5 668q-7.5 8 -7.5 18q0 11 7.5 18.5t18.5 7.5q10 0 18 -7.5t8 -18.5
q0 -10 -8 -18t-18 -8q-11 0 -18.5 8z" />
    <glyph glyph-name="uni1E48" unicode="&#x1e48;" horiz-adv-x="816" 
d="M683 700v-700h-17l-513 663v-663h-20v700h17l513 -663v663h20zM272 -140h272v-20h-272v20z" />
    <glyph glyph-name="Ntilde" unicode="&#xd1;" horiz-adv-x="816" 
d="M683 700v-700h-17l-513 663v-663h-20v700h17l513 -663v663h20zM435.5 778.5q-15.5 9.5 -35.5 28.5q-16 15 -28.5 23t-26.5 8q-24 0 -38 -18t-16 -49h-19q2 39 21.5 62.5t51.5 23.5q20 0 35.5 -9.5t35.5 -28.5q16 -15 28.5 -23t26.5 -8q24 0 38 17.5t16 47.5h19
q-2 -38 -21.5 -61t-51.5 -23q-20 0 -35.5 9.5z" />
    <glyph glyph-name="O" unicode="O" horiz-adv-x="836" 
d="M235 43q-82 46 -129 126.5t-47 180.5t47 180.5t129 126.5t183 46t183 -46t129 -126.5t47 -180.5t-47 -180.5t-129 -126.5t-183 -46t-183 46zM590.5 59.5q77.5 43.5 122 120t44.5 170.5t-44.5 170.5t-122 120t-172.5 43.5t-172.5 -43.5t-122 -120t-44.5 -170.5
t44.5 -170.5t122 -120t172.5 -43.5t172.5 43.5z" />
    <glyph glyph-name="Oacute" unicode="&#xd3;" horiz-adv-x="836" 
d="M235 43q-82 46 -129 126.5t-47 180.5t47 180.5t129 126.5t183 46t183 -46t129 -126.5t47 -180.5t-47 -180.5t-129 -126.5t-183 -46t-183 46zM590.5 59.5q77.5 43.5 122 120t44.5 170.5t-44.5 170.5t-122 120t-172.5 43.5t-172.5 -43.5t-122 -120t-44.5 -170.5
t44.5 -170.5t122 -120t172.5 -43.5t172.5 43.5zM513 867h40l-150 -110h-30z" />
    <glyph glyph-name="Obreve" unicode="&#x14e;" horiz-adv-x="836" 
d="M235 43q-82 46 -129 126.5t-47 180.5t47 180.5t129 126.5t183 46t183 -46t129 -126.5t47 -180.5t-47 -180.5t-129 -126.5t-183 -46t-183 46zM590.5 59.5q77.5 43.5 122 120t44.5 170.5t-44.5 170.5t-122 120t-172.5 43.5t-172.5 -43.5t-122 -120t-44.5 -170.5
t44.5 -170.5t122 -120t172.5 -43.5t172.5 43.5zM325 785q-38 31 -39 82h19q1 -43 33 -68.5t80 -25.5t80 25.5t33 68.5h19q-1 -51 -39 -82t-93 -31t-93 31z" />
    <glyph glyph-name="Ocircumflex" unicode="&#xd4;" horiz-adv-x="836" 
d="M235 43q-82 46 -129 126.5t-47 180.5t47 180.5t129 126.5t183 46t183 -46t129 -126.5t47 -180.5t-47 -180.5t-129 -126.5t-183 -46t-183 46zM590.5 59.5q77.5 43.5 122 120t44.5 170.5t-44.5 170.5t-122 120t-172.5 43.5t-172.5 -43.5t-122 -120t-44.5 -170.5
t44.5 -170.5t122 -120t172.5 -43.5t172.5 43.5zM529 757l-111 93l-111 -93h-27l122 110h32l122 -110h-27z" />
    <glyph glyph-name="uni1ED0" unicode="&#x1ed0;" horiz-adv-x="836" 
d="M235 43q-82 46 -129 126.5t-47 180.5t47 180.5t129 126.5t183 46t183 -46t129 -126.5t47 -180.5t-47 -180.5t-129 -126.5t-183 -46t-183 46zM590.5 59.5q77.5 43.5 122 120t44.5 170.5t-44.5 170.5t-122 120t-172.5 43.5t-172.5 -43.5t-122 -120t-44.5 -170.5
t44.5 -170.5t122 -120t172.5 -43.5t172.5 43.5zM526 757l-108 64l-108 -64h-30l123 80h30l123 -80h-30zM620 932h40l-137 -100h-30z" />
    <glyph glyph-name="uni1ED8" unicode="&#x1ed8;" horiz-adv-x="836" 
d="M235 43q-82 46 -129 126.5t-47 180.5t47 180.5t129 126.5t183 46t183 -46t129 -126.5t47 -180.5t-47 -180.5t-129 -126.5t-183 -46t-183 46zM590.5 59.5q77.5 43.5 122 120t44.5 170.5t-44.5 170.5t-122 120t-172.5 43.5t-172.5 -43.5t-122 -120t-44.5 -170.5
t44.5 -170.5t122 -120t172.5 -43.5t172.5 43.5zM399.5 -168.5q-7.5 7.5 -7.5 18.5q0 10 7.5 18t18.5 8q10 0 18 -8t8 -18q0 -11 -8 -18.5t-18 -7.5q-11 0 -18.5 7.5zM529 757l-111 93l-111 -93h-27l122 110h32l122 -110h-27z" />
    <glyph glyph-name="uni1ED2" unicode="&#x1ed2;" horiz-adv-x="836" 
d="M235 43q-82 46 -129 126.5t-47 180.5t47 180.5t129 126.5t183 46t183 -46t129 -126.5t47 -180.5t-47 -180.5t-129 -126.5t-183 -46t-183 46zM590.5 59.5q77.5 43.5 122 120t44.5 170.5t-44.5 170.5t-122 120t-172.5 43.5t-172.5 -43.5t-122 -120t-44.5 -170.5
t44.5 -170.5t122 -120t172.5 -43.5t172.5 43.5zM526 757l-108 64l-108 -64h-30l123 80h30l123 -80h-30zM416 932h40l127 -100h-30z" />
    <glyph glyph-name="uni1ED4" unicode="&#x1ed4;" horiz-adv-x="836" 
d="M235 43q-82 46 -129 126.5t-47 180.5t47 180.5t129 126.5t183 46t183 -46t129 -126.5t47 -180.5t-47 -180.5t-129 -126.5t-183 -46t-183 46zM590.5 59.5q77.5 43.5 122 120t44.5 170.5t-44.5 170.5t-122 120t-172.5 43.5t-172.5 -43.5t-122 -120t-44.5 -170.5
t44.5 -170.5t122 -120t172.5 -43.5t172.5 43.5zM526 757l-108 64l-108 -64h-30l123 80h30l123 -80h-30zM511 833q21 10 33 24.5t12 31.5q0 16 -11.5 26t-30.5 10q-24 0 -43 -13l-8 16q22 16 52 16q28 0 44 -15t16 -40q0 -47 -54 -71z" />
    <glyph glyph-name="uni1ED6" unicode="&#x1ed6;" horiz-adv-x="836" 
d="M235 43q-82 46 -129 126.5t-47 180.5t47 180.5t129 126.5t183 46t183 -46t129 -126.5t47 -180.5t-47 -180.5t-129 -126.5t-183 -46t-183 46zM590.5 59.5q77.5 43.5 122 120t44.5 170.5t-44.5 170.5t-122 120t-172.5 43.5t-172.5 -43.5t-122 -120t-44.5 -170.5
t44.5 -170.5t122 -120t172.5 -43.5t172.5 43.5zM526 757l-108 64l-108 -64h-30l123 80h30l123 -80h-30zM446 877q-14 7 -35 22q-16 12 -28.5 18.5t-25.5 6.5q-24 0 -38.5 -13.5t-15.5 -38.5h-19q1 32 21 51.5t52 19.5q18 0 32.5 -7t35.5 -22q16 -12 28.5 -18.5t25.5 -6.5
q24 0 38.5 13t15.5 37h19q-1 -31 -21 -50t-52 -19q-19 0 -33 7z" />
    <glyph glyph-name="uni020C" unicode="&#x20c;" horiz-adv-x="836" 
d="M235 43q-82 46 -129 126.5t-47 180.5t47 180.5t129 126.5t183 46t183 -46t129 -126.5t47 -180.5t-47 -180.5t-129 -126.5t-183 -46t-183 46zM590.5 59.5q77.5 43.5 122 120t44.5 170.5t-44.5 170.5t-122 120t-172.5 43.5t-172.5 -43.5t-122 -120t-44.5 -170.5
t44.5 -170.5t122 -120t172.5 -43.5t172.5 43.5zM217 867h34l111 -110h-27zM356 867h34l111 -110h-27z" />
    <glyph glyph-name="Odieresis" unicode="&#xd6;" horiz-adv-x="836" 
d="M235 43q-82 46 -129 126.5t-47 180.5t47 180.5t129 126.5t183 46t183 -46t129 -126.5t47 -180.5t-47 -180.5t-129 -126.5t-183 -46t-183 46zM590.5 59.5q77.5 43.5 122 120t44.5 170.5t-44.5 170.5t-122 120t-172.5 43.5t-172.5 -43.5t-122 -120t-44.5 -170.5
t44.5 -170.5t122 -120t172.5 -43.5t172.5 43.5zM317.5 799q-7.5 8 -7.5 18q0 11 7.5 18.5t18.5 7.5q10 0 18 -7.5t8 -18.5q0 -10 -8 -18t-18 -8q-11 0 -18.5 8zM481.5 799q-7.5 8 -7.5 18q0 11 7.5 18.5t18.5 7.5q10 0 18 -7.5t8 -18.5q0 -10 -8 -18t-18 -8q-11 0 -18.5 8z
" />
    <glyph glyph-name="uni022A" unicode="&#x22a;" horiz-adv-x="836" 
d="M235 43q-82 46 -129 126.5t-47 180.5t47 180.5t129 126.5t183 46t183 -46t129 -126.5t47 -180.5t-47 -180.5t-129 -126.5t-183 -46t-183 46zM590.5 59.5q77.5 43.5 122 120t44.5 170.5t-44.5 170.5t-122 120t-172.5 43.5t-172.5 -43.5t-122 -120t-44.5 -170.5
t44.5 -170.5t122 -120t172.5 -43.5t172.5 43.5zM317.5 799q-7.5 8 -7.5 18q0 11 7.5 18.5t18.5 7.5q10 0 18 -7.5t8 -18.5q0 -10 -8 -18t-18 -8q-11 0 -18.5 8zM481.5 799q-7.5 8 -7.5 18q0 11 7.5 18.5t18.5 7.5q10 0 18 -7.5t8 -18.5q0 -10 -8 -18t-18 -8q-11 0 -18.5 8z
M282 920h272v-20h-272v20z" />
    <glyph glyph-name="uni0230" unicode="&#x230;" horiz-adv-x="836" 
d="M235 43q-82 46 -129 126.5t-47 180.5t47 180.5t129 126.5t183 46t183 -46t129 -126.5t47 -180.5t-47 -180.5t-129 -126.5t-183 -46t-183 46zM590.5 59.5q77.5 43.5 122 120t44.5 170.5t-44.5 170.5t-122 120t-172.5 43.5t-172.5 -43.5t-122 -120t-44.5 -170.5
t44.5 -170.5t122 -120t172.5 -43.5t172.5 43.5zM399.5 799q-7.5 8 -7.5 18q0 11 7.5 18.5t18.5 7.5q10 0 18 -7.5t8 -18.5q0 -10 -8 -18t-18 -8q-11 0 -18.5 8zM282 920h272v-20h-272v20z" />
    <glyph glyph-name="uni1ECC" unicode="&#x1ecc;" horiz-adv-x="836" 
d="M235 43q-82 46 -129 126.5t-47 180.5t47 180.5t129 126.5t183 46t183 -46t129 -126.5t47 -180.5t-47 -180.5t-129 -126.5t-183 -46t-183 46zM590.5 59.5q77.5 43.5 122 120t44.5 170.5t-44.5 170.5t-122 120t-172.5 43.5t-172.5 -43.5t-122 -120t-44.5 -170.5
t44.5 -170.5t122 -120t172.5 -43.5t172.5 43.5zM399.5 -168.5q-7.5 7.5 -7.5 18.5q0 10 7.5 18t18.5 8q10 0 18 -8t8 -18q0 -11 -8 -18.5t-18 -7.5q-11 0 -18.5 7.5z" />
    <glyph glyph-name="Ograve" unicode="&#xd2;" horiz-adv-x="836" 
d="M235 43q-82 46 -129 126.5t-47 180.5t47 180.5t129 126.5t183 46t183 -46t129 -126.5t47 -180.5t-47 -180.5t-129 -126.5t-183 -46t-183 46zM590.5 59.5q77.5 43.5 122 120t44.5 170.5t-44.5 170.5t-122 120t-172.5 43.5t-172.5 -43.5t-122 -120t-44.5 -170.5
t44.5 -170.5t122 -120t172.5 -43.5t172.5 43.5zM283 867h40l140 -110h-30z" />
    <glyph glyph-name="uni1ECE" unicode="&#x1ece;" horiz-adv-x="836" 
d="M235 43q-82 46 -129 126.5t-47 180.5t47 180.5t129 126.5t183 46t183 -46t129 -126.5t47 -180.5t-47 -180.5t-129 -126.5t-183 -46t-183 46zM590.5 59.5q77.5 43.5 122 120t44.5 170.5t-44.5 170.5t-122 120t-172.5 43.5t-172.5 -43.5t-122 -120t-44.5 -170.5
t44.5 -170.5t122 -120t172.5 -43.5t172.5 43.5zM410 769q63 28 63 77q0 23 -16.5 38.5t-41.5 15.5q-33 0 -62 -19l-8 17q13 10 32 15.5t37 5.5q36 0 57.5 -19.5t21.5 -52.5q0 -30 -18 -53t-55 -41z" />
    <glyph glyph-name="Ohorn" unicode="&#x1a0;" horiz-adv-x="836" 
d="M720.5 545.5q56.5 -87.5 56.5 -195.5q0 -100 -47 -180.5t-129 -126.5t-183 -46t-183 46t-129 126.5t-47 180.5t47 180.5t129 126.5t183 46q47 0 119 -8q53 -7 90 -7q110 0 110 82q0 32 -20 67l18 8q10 -15 16 -35t6 -39q0 -102 -130 -102q-31 0 -60 4
q97 -40 153.5 -127.5zM590.5 60q77.5 44 122 120.5t44.5 169.5t-44.5 169.5t-122 120.5t-172.5 44t-172.5 -44t-122 -120.5t-44.5 -169.5t44.5 -169.5t122 -120.5t172.5 -44t172.5 44z" />
    <glyph glyph-name="uni1EDA" unicode="&#x1eda;" horiz-adv-x="836" 
d="M720.5 545.5q56.5 -87.5 56.5 -195.5q0 -100 -47 -180.5t-129 -126.5t-183 -46t-183 46t-129 126.5t-47 180.5t47 180.5t129 126.5t183 46q47 0 119 -8q53 -7 90 -7q110 0 110 82q0 32 -20 67l18 8q10 -15 16 -35t6 -39q0 -102 -130 -102q-31 0 -60 4
q97 -40 153.5 -127.5zM590.5 60q77.5 44 122 120.5t44.5 169.5t-44.5 169.5t-122 120.5t-172.5 44t-172.5 -44t-122 -120.5t-44.5 -169.5t44.5 -169.5t122 -120.5t172.5 -44t172.5 44zM513 867h40l-150 -110h-30z" />
    <glyph glyph-name="uni1EE2" unicode="&#x1ee2;" horiz-adv-x="836" 
d="M720.5 545.5q56.5 -87.5 56.5 -195.5q0 -100 -47 -180.5t-129 -126.5t-183 -46t-183 46t-129 126.5t-47 180.5t47 180.5t129 126.5t183 46q47 0 119 -8q53 -7 90 -7q110 0 110 82q0 32 -20 67l18 8q10 -15 16 -35t6 -39q0 -102 -130 -102q-31 0 -60 4
q97 -40 153.5 -127.5zM590.5 60q77.5 44 122 120.5t44.5 169.5t-44.5 169.5t-122 120.5t-172.5 44t-172.5 -44t-122 -120.5t-44.5 -169.5t44.5 -169.5t122 -120.5t172.5 -44t172.5 44zM399.5 -168.5q-7.5 7.5 -7.5 18.5q0 10 7.5 18t18.5 8q10 0 18 -8t8 -18q0 -11 -8 -18.5
t-18 -7.5q-11 0 -18.5 7.5z" />
    <glyph glyph-name="uni1EDC" unicode="&#x1edc;" horiz-adv-x="836" 
d="M720.5 545.5q56.5 -87.5 56.5 -195.5q0 -100 -47 -180.5t-129 -126.5t-183 -46t-183 46t-129 126.5t-47 180.5t47 180.5t129 126.5t183 46q47 0 119 -8q53 -7 90 -7q110 0 110 82q0 32 -20 67l18 8q10 -15 16 -35t6 -39q0 -102 -130 -102q-31 0 -60 4
q97 -40 153.5 -127.5zM590.5 60q77.5 44 122 120.5t44.5 169.5t-44.5 169.5t-122 120.5t-172.5 44t-172.5 -44t-122 -120.5t-44.5 -169.5t44.5 -169.5t122 -120.5t172.5 -44t172.5 44zM283 867h40l140 -110h-30z" />
    <glyph glyph-name="uni1EDE" unicode="&#x1ede;" horiz-adv-x="836" 
d="M720.5 545.5q56.5 -87.5 56.5 -195.5q0 -100 -47 -180.5t-129 -126.5t-183 -46t-183 46t-129 126.5t-47 180.5t47 180.5t129 126.5t183 46q47 0 119 -8q53 -7 90 -7q110 0 110 82q0 32 -20 67l18 8q10 -15 16 -35t6 -39q0 -102 -130 -102q-31 0 -60 4
q97 -40 153.5 -127.5zM590.5 60q77.5 44 122 120.5t44.5 169.5t-44.5 169.5t-122 120.5t-172.5 44t-172.5 -44t-122 -120.5t-44.5 -169.5t44.5 -169.5t122 -120.5t172.5 -44t172.5 44zM410 769q63 28 63 77q0 23 -16.5 38.5t-41.5 15.5q-33 0 -62 -19l-8 17q13 10 32 15.5
t37 5.5q36 0 57.5 -19.5t21.5 -52.5q0 -30 -18 -53t-55 -41z" />
    <glyph glyph-name="uni1EE0" unicode="&#x1ee0;" horiz-adv-x="836" 
d="M720.5 545.5q56.5 -87.5 56.5 -195.5q0 -100 -47 -180.5t-129 -126.5t-183 -46t-183 46t-129 126.5t-47 180.5t47 180.5t129 126.5t183 46q47 0 119 -8q53 -7 90 -7q110 0 110 82q0 32 -20 67l18 8q10 -15 16 -35t6 -39q0 -102 -130 -102q-31 0 -60 4
q97 -40 153.5 -127.5zM590.5 60q77.5 44 122 120.5t44.5 169.5t-44.5 169.5t-122 120.5t-172.5 44t-172.5 -44t-122 -120.5t-44.5 -169.5t44.5 -169.5t122 -120.5t172.5 -44t172.5 44zM445.5 778.5q-15.5 9.5 -35.5 28.5q-16 15 -28.5 23t-26.5 8q-24 0 -38 -18t-16 -49h-19
q2 39 21.5 62.5t51.5 23.5q20 0 35.5 -9.5t35.5 -28.5q16 -15 28.5 -23t26.5 -8q24 0 38 17.5t16 47.5h19q-2 -38 -21.5 -61t-51.5 -23q-20 0 -35.5 9.5z" />
    <glyph glyph-name="Ohungarumlaut" unicode="&#x150;" horiz-adv-x="836" 
d="M235 43q-82 46 -129 126.5t-47 180.5t47 180.5t129 126.5t183 46t183 -46t129 -126.5t47 -180.5t-47 -180.5t-129 -126.5t-183 -46t-183 46zM590.5 59.5q77.5 43.5 122 120t44.5 170.5t-44.5 170.5t-122 120t-172.5 43.5t-172.5 -43.5t-122 -120t-44.5 -170.5
t44.5 -170.5t122 -120t172.5 -43.5t172.5 43.5zM446 867h34l-118 -110h-27zM585 867h34l-118 -110h-27z" />
    <glyph glyph-name="uni020E" unicode="&#x20e;" horiz-adv-x="836" 
d="M235 43q-82 46 -129 126.5t-47 180.5t47 180.5t129 126.5t183 46t183 -46t129 -126.5t47 -180.5t-47 -180.5t-129 -126.5t-183 -46t-183 46zM590.5 59.5q77.5 43.5 122 120t44.5 170.5t-44.5 170.5t-122 120t-172.5 43.5t-172.5 -43.5t-122 -120t-44.5 -170.5
t44.5 -170.5t122 -120t172.5 -43.5t172.5 43.5zM325 839q38 31 93 31t93 -31t39 -82h-19q-1 43 -33 68.5t-80 25.5t-80 -25.5t-33 -68.5h-19q1 51 39 82z" />
    <glyph glyph-name="Omacron" unicode="&#x14c;" horiz-adv-x="836" 
d="M235 43q-82 46 -129 126.5t-47 180.5t47 180.5t129 126.5t183 46t183 -46t129 -126.5t47 -180.5t-47 -180.5t-129 -126.5t-183 -46t-183 46zM590.5 59.5q77.5 43.5 122 120t44.5 170.5t-44.5 170.5t-122 120t-172.5 43.5t-172.5 -43.5t-122 -120t-44.5 -170.5
t44.5 -170.5t122 -120t172.5 -43.5t172.5 43.5zM282 822h272v-20h-272v20z" />
    <glyph glyph-name="uni1E52" unicode="&#x1e52;" horiz-adv-x="836" 
d="M235 43q-82 46 -129 126.5t-47 180.5t47 180.5t129 126.5t183 46t183 -46t129 -126.5t47 -180.5t-47 -180.5t-129 -126.5t-183 -46t-183 46zM590.5 59.5q77.5 43.5 122 120t44.5 170.5t-44.5 170.5t-122 120t-172.5 43.5t-172.5 -43.5t-122 -120t-44.5 -170.5
t44.5 -170.5t122 -120t172.5 -43.5t172.5 43.5zM282 807h272v-20h-272v20zM500 970h40l-137 -100h-30z" />
    <glyph glyph-name="uni1E50" unicode="&#x1e50;" horiz-adv-x="836" 
d="M235 43q-82 46 -129 126.5t-47 180.5t47 180.5t129 126.5t183 46t183 -46t129 -126.5t47 -180.5t-47 -180.5t-129 -126.5t-183 -46t-183 46zM590.5 59.5q77.5 43.5 122 120t44.5 170.5t-44.5 170.5t-122 120t-172.5 43.5t-172.5 -43.5t-122 -120t-44.5 -170.5
t44.5 -170.5t122 -120t172.5 -43.5t172.5 43.5zM282 807h272v-20h-272v20zM296 970h40l127 -100h-30z" />
    <glyph glyph-name="uni01EA" unicode="&#x1ea;" horiz-adv-x="836" 
d="M601 657q82 -46 129 -126.5t47 -180.5q0 -90 -37 -162.5t-100 -119.5t-140 -62q-64 -13 -111 -51t-47 -85q0 -31 20 -47.5t52 -16.5q37 0 62 23l11 -15q-31 -27 -74 -27q-40 0 -65.5 22.5t-25.5 60.5q0 32 22 64.5t76 62.5h-2q-101 0 -183 46t-129 126.5t-47 180.5
t47 180.5t129 126.5t183 46t183 -46zM590.5 59.5q77.5 43.5 122 120t44.5 170.5t-44.5 170.5t-122 120t-172.5 43.5t-172.5 -43.5t-122 -120t-44.5 -170.5t44.5 -170.5t122 -120t172.5 -43.5t172.5 43.5z" />
    <glyph glyph-name="Oslash" unicode="&#xd8;" horiz-adv-x="836" 
d="M235 43q-82 46 -129 126.5t-47 180.5t47 180.5t129 126.5t183 46t183 -46t129 -126.5t47 -180.5t-47 -180.5t-129 -126.5t-183 -46t-183 46zM590.5 59.5q77.5 43.5 122 120t44.5 170.5t-44.5 170.5t-122 120t-172.5 43.5t-172.5 -43.5t-122 -120t-44.5 -170.5
t44.5 -170.5t122 -120t172.5 -43.5t172.5 43.5zM714 770h23l-615 -840h-23z" />
    <glyph glyph-name="Oslashacute" unicode="&#x1fe;" horiz-adv-x="836" 
d="M235 43q-82 46 -129 126.5t-47 180.5t47 180.5t129 126.5t183 46t183 -46t129 -126.5t47 -180.5t-47 -180.5t-129 -126.5t-183 -46t-183 46zM590.5 59.5q77.5 43.5 122 120t44.5 170.5t-44.5 170.5t-122 120t-172.5 43.5t-172.5 -43.5t-122 -120t-44.5 -170.5
t44.5 -170.5t122 -120t172.5 -43.5t172.5 43.5zM714 770h23l-615 -840h-23zM513 867h40l-150 -110h-30z" />
    <glyph glyph-name="Otilde" unicode="&#xd5;" horiz-adv-x="836" 
d="M235 43q-82 46 -129 126.5t-47 180.5t47 180.5t129 126.5t183 46t183 -46t129 -126.5t47 -180.5t-47 -180.5t-129 -126.5t-183 -46t-183 46zM590.5 59.5q77.5 43.5 122 120t44.5 170.5t-44.5 170.5t-122 120t-172.5 43.5t-172.5 -43.5t-122 -120t-44.5 -170.5
t44.5 -170.5t122 -120t172.5 -43.5t172.5 43.5zM445.5 778.5q-15.5 9.5 -35.5 28.5q-16 15 -28.5 23t-26.5 8q-24 0 -38 -18t-16 -49h-19q2 39 21.5 62.5t51.5 23.5q20 0 35.5 -9.5t35.5 -28.5q16 -15 28.5 -23t26.5 -8q24 0 38 17.5t16 47.5h19q-2 -38 -21.5 -61t-51.5 -23
q-20 0 -35.5 9.5z" />
    <glyph glyph-name="uni1E4C" unicode="&#x1e4c;" horiz-adv-x="836" 
d="M235 43q-82 46 -129 126.5t-47 180.5t47 180.5t129 126.5t183 46t183 -46t129 -126.5t47 -180.5t-47 -180.5t-129 -126.5t-183 -46t-183 46zM590.5 59.5q77.5 43.5 122 120t44.5 170.5t-44.5 170.5t-122 120t-172.5 43.5t-172.5 -43.5t-122 -120t-44.5 -170.5
t44.5 -170.5t122 -120t172.5 -43.5t172.5 43.5zM446 779q-14 7 -35 22q-16 12 -28.5 18.5t-25.5 6.5q-24 0 -38.5 -13.5t-15.5 -38.5h-19q1 32 21 51.5t52 19.5q18 0 32.5 -7t35.5 -22q16 -12 28.5 -18.5t25.5 -6.5q24 0 38.5 13t15.5 37h19q-1 -31 -21 -50t-52 -19
q-19 0 -33 7zM500 970h40l-137 -100h-30z" />
    <glyph glyph-name="uni1E4E" unicode="&#x1e4e;" horiz-adv-x="836" 
d="M235 43q-82 46 -129 126.5t-47 180.5t47 180.5t129 126.5t183 46t183 -46t129 -126.5t47 -180.5t-47 -180.5t-129 -126.5t-183 -46t-183 46zM590.5 59.5q77.5 43.5 122 120t44.5 170.5t-44.5 170.5t-122 120t-172.5 43.5t-172.5 -43.5t-122 -120t-44.5 -170.5
t44.5 -170.5t122 -120t172.5 -43.5t172.5 43.5zM446 779q-14 7 -35 22q-16 12 -28.5 18.5t-25.5 6.5q-24 0 -38.5 -13.5t-15.5 -38.5h-19q1 32 21 51.5t52 19.5q18 0 32.5 -7t35.5 -22q16 -12 28.5 -18.5t25.5 -6.5q24 0 38.5 13t15.5 37h19q-1 -31 -21 -50t-52 -19
q-19 0 -33 7zM317.5 912q-7.5 8 -7.5 18q0 11 7.5 18.5t18.5 7.5q10 0 18 -7.5t8 -18.5q0 -10 -8 -18t-18 -8q-11 0 -18.5 8zM481.5 912q-7.5 8 -7.5 18q0 11 7.5 18.5t18.5 7.5q10 0 18 -7.5t8 -18.5q0 -10 -8 -18t-18 -8q-11 0 -18.5 8z" />
    <glyph glyph-name="uni022C" unicode="&#x22c;" horiz-adv-x="836" 
d="M235 43q-82 46 -129 126.5t-47 180.5t47 180.5t129 126.5t183 46t183 -46t129 -126.5t47 -180.5t-47 -180.5t-129 -126.5t-183 -46t-183 46zM590.5 59.5q77.5 43.5 122 120t44.5 170.5t-44.5 170.5t-122 120t-172.5 43.5t-172.5 -43.5t-122 -120t-44.5 -170.5
t44.5 -170.5t122 -120t172.5 -43.5t172.5 43.5zM446 779q-14 7 -35 22q-16 12 -28.5 18.5t-25.5 6.5q-24 0 -38.5 -13.5t-15.5 -38.5h-19q1 32 21 51.5t52 19.5q18 0 32.5 -7t35.5 -22q16 -12 28.5 -18.5t25.5 -6.5q24 0 38.5 13t15.5 37h19q-1 -31 -21 -50t-52 -19
q-19 0 -33 7zM282 920h272v-20h-272v20z" />
    <glyph glyph-name="OE" unicode="&#x152;" horiz-adv-x="1112" 
d="M1043 19v-19h-615q-108 0 -192 45t-130.5 124.5t-46.5 179.5t46.5 180t130.5 125.5t192 45.5h600v-19h-431v-316h386v-19h-386v-327h446zM577 19v662h-149q-104 0 -183 -43t-122.5 -118.5t-43.5 -170.5t43.5 -170t122.5 -117.5t183 -42.5h149z" />
    <glyph glyph-name="P" unicode="P" horiz-adv-x="710" 
d="M572 639.5q73 -60.5 73 -169.5t-73 -169.5t-202 -60.5h-217v-240h-20v700h237q129 0 202 -60.5zM559.5 314q65.5 55 65.5 156t-65.5 156t-187.5 55h-219v-422h219q122 0 187.5 55z" />
    <glyph glyph-name="Thorn" unicode="&#xde;" horiz-adv-x="710" 
d="M572 539.5q73 -60.5 73 -169.5t-73 -170t-202 -61h-217v-139h-20v700h20v-100h217q129 0 202 -60.5zM559.5 213q65.5 55 65.5 157q0 101 -65.5 156t-187.5 55h-219v-423h219q122 0 187.5 55z" />
    <glyph glyph-name="Q" unicode="Q" horiz-adv-x="836" 
d="M807 -48q-31 -37 -71.5 -56.5t-87.5 -19.5q-52 0 -104 29t-113 92h-13q-101 0 -183 46t-129 126.5t-47 180.5t47 180.5t129 126.5t183 46t183 -46t129 -126.5t47 -180.5q0 -93 -41 -169.5t-113.5 -124.5t-163.5 -57q98 -104 189 -104q86 0 145 71zM123.5 180.5
q44.5 -76.5 122 -120.5t172.5 -44t172.5 44t122 120.5t44.5 169.5t-44.5 169.5t-122 120.5t-172.5 44t-172.5 -44t-122 -120.5t-44.5 -169.5t44.5 -169.5z" />
    <glyph glyph-name="R" unicode="R" horiz-adv-x="716" 
d="M630 0l-178 247q-35 -7 -82 -7h-217v-240h-20v700h237q129 0 202 -60.5t73 -169.5q0 -84 -45 -140.5t-127 -77.5l182 -252h-25zM372 259q122 0 187.5 55t65.5 156t-65.5 156t-187.5 55h-219v-422h219z" />
    <glyph glyph-name="Racute" unicode="&#x154;" horiz-adv-x="716" 
d="M630 0l-178 247q-35 -7 -82 -7h-217v-240h-20v700h237q129 0 202 -60.5t73 -169.5q0 -84 -45 -140.5t-127 -77.5l182 -252h-25zM372 259q122 0 187.5 55t65.5 156t-65.5 156t-187.5 55h-219v-422h219zM461 867h40l-150 -110h-30z" />
    <glyph glyph-name="Rcaron" unicode="&#x158;" horiz-adv-x="716" 
d="M630 0l-178 247q-35 -7 -82 -7h-217v-240h-20v700h237q129 0 202 -60.5t73 -169.5q0 -84 -45 -140.5t-127 -77.5l182 -252h-25zM372 259q122 0 187.5 55t65.5 156t-65.5 156t-187.5 55h-219v-422h219zM504 867l-122 -110h-32l-122 110h27l111 -93l111 93h27z" />
    <glyph glyph-name="Rcommaaccent" unicode="&#x156;" horiz-adv-x="716" 
d="M630 0l-178 247q-35 -7 -82 -7h-217v-240h-20v700h237q129 0 202 -60.5t73 -169.5q0 -84 -45 -140.5t-127 -77.5l182 -252h-25zM372 259q122 0 187.5 55t65.5 156t-65.5 156t-187.5 55h-219v-422h219zM384.5 -132q7.5 -8 7.5 -18t-6 -32l-23 -77h-18l18 83q-10 2 -16.5 9
t-6.5 17q0 11 7.5 18.5t18.5 7.5t18.5 -8z" />
    <glyph glyph-name="uni0210" unicode="&#x210;" horiz-adv-x="716" 
d="M630 0l-178 247q-35 -7 -82 -7h-217v-240h-20v700h237q129 0 202 -60.5t73 -169.5q0 -84 -45 -140.5t-127 -77.5l182 -252h-25zM372 259q122 0 187.5 55t65.5 156t-65.5 156t-187.5 55h-219v-422h219zM165 867h34l111 -110h-27zM304 867h34l111 -110h-27z" />
    <glyph glyph-name="uni1E5A" unicode="&#x1e5a;" horiz-adv-x="716" 
d="M630 0l-178 247q-35 -7 -82 -7h-217v-240h-20v700h237q129 0 202 -60.5t73 -169.5q0 -84 -45 -140.5t-127 -77.5l182 -252h-25zM372 259q122 0 187.5 55t65.5 156t-65.5 156t-187.5 55h-219v-422h219zM347.5 -168.5q-7.5 7.5 -7.5 18.5q0 10 7.5 18t18.5 8q10 0 18 -8
t8 -18q0 -11 -8 -18.5t-18 -7.5q-11 0 -18.5 7.5z" />
    <glyph glyph-name="uni0212" unicode="&#x212;" horiz-adv-x="716" 
d="M630 0l-178 247q-35 -7 -82 -7h-217v-240h-20v700h237q129 0 202 -60.5t73 -169.5q0 -84 -45 -140.5t-127 -77.5l182 -252h-25zM372 259q122 0 187.5 55t65.5 156t-65.5 156t-187.5 55h-219v-422h219zM273 839q38 31 93 31t93 -31t39 -82h-19q-1 43 -33 68.5t-80 25.5
t-80 -25.5t-33 -68.5h-19q1 51 39 82z" />
    <glyph glyph-name="uni1E5E" unicode="&#x1e5e;" horiz-adv-x="716" 
d="M630 0l-178 247q-35 -7 -82 -7h-217v-240h-20v700h237q129 0 202 -60.5t73 -169.5q0 -84 -45 -140.5t-127 -77.5l182 -252h-25zM372 259q122 0 187.5 55t65.5 156t-65.5 156t-187.5 55h-219v-422h219zM230 -140h272v-20h-272v20z" />
    <glyph glyph-name="S" unicode="S" horiz-adv-x="601" 
d="M161 24.5q-67 27.5 -103 71.5l14 13q34 -40 97 -66.5t134 -26.5q109 0 164.5 43.5t55.5 112.5q0 54 -29 86t-71.5 48t-114.5 33q-77 19 -122 36.5t-76.5 54t-31.5 97.5q0 48 25 88t78 64t131 24q56 0 110 -17.5t93 -46.5l-11 -16q-41 30 -91.5 45.5t-99.5 15.5
q-105 0 -160 -44.5t-55 -113.5q0 -54 29 -86.5t72 -48.5t116 -34q76 -19 121 -36.5t76 -53t31 -95.5q0 -48 -26 -88t-79.5 -63.5t-133.5 -23.5q-76 0 -143 27.5z" />
    <glyph glyph-name="Sacute" unicode="&#x15a;" horiz-adv-x="601" 
d="M161 24.5q-67 27.5 -103 71.5l14 13q34 -40 97 -66.5t134 -26.5q109 0 164.5 43.5t55.5 112.5q0 54 -29 86t-71.5 48t-114.5 33q-77 19 -122 36.5t-76.5 54t-31.5 97.5q0 48 25 88t78 64t131 24q56 0 110 -17.5t93 -46.5l-11 -16q-41 30 -91.5 45.5t-99.5 15.5
q-105 0 -160 -44.5t-55 -113.5q0 -54 29 -86.5t72 -48.5t116 -34q76 -19 121 -36.5t76 -53t31 -95.5q0 -48 -26 -88t-79.5 -63.5t-133.5 -23.5q-76 0 -143 27.5zM413 867h40l-150 -110h-30z" />
    <glyph glyph-name="uni1E64" unicode="&#x1e64;" horiz-adv-x="601" 
d="M161 24.5q-67 27.5 -103 71.5l14 13q34 -40 97 -66.5t134 -26.5q109 0 164.5 43.5t55.5 112.5q0 54 -29 86t-71.5 48t-114.5 33q-77 19 -122 36.5t-76.5 54t-31.5 97.5q0 48 25 88t78 64t131 24q56 0 110 -17.5t93 -46.5l-11 -16q-41 30 -91.5 45.5t-99.5 15.5
q-105 0 -160 -44.5t-55 -113.5q0 -54 29 -86.5t72 -48.5t116 -34q76 -19 121 -36.5t76 -53t31 -95.5q0 -48 -26 -88t-79.5 -63.5t-133.5 -23.5q-76 0 -143 27.5zM400 857h40l-137 -100h-30zM299.5 912q-7.5 8 -7.5 18q0 11 7.5 18.5t18.5 7.5q10 0 18 -7.5t8 -18.5
q0 -10 -8 -18t-18 -8q-11 0 -18.5 8z" />
    <glyph glyph-name="uniA78B" unicode="&#xa78b;" horiz-adv-x="208" 
d="M94 700h20v-401h-20v401z" />
    <glyph glyph-name="Scaron" unicode="&#x160;" horiz-adv-x="601" 
d="M161 24.5q-67 27.5 -103 71.5l14 13q34 -40 97 -66.5t134 -26.5q109 0 164.5 43.5t55.5 112.5q0 54 -29 86t-71.5 48t-114.5 33q-77 19 -122 36.5t-76.5 54t-31.5 97.5q0 48 25 88t78 64t131 24q56 0 110 -17.5t93 -46.5l-11 -16q-41 30 -91.5 45.5t-99.5 15.5
q-105 0 -160 -44.5t-55 -113.5q0 -54 29 -86.5t72 -48.5t116 -34q76 -19 121 -36.5t76 -53t31 -95.5q0 -48 -26 -88t-79.5 -63.5t-133.5 -23.5q-76 0 -143 27.5zM456 867l-122 -110h-32l-122 110h27l111 -93l111 93h27z" />
    <glyph glyph-name="uni1E66" unicode="&#x1e66;" horiz-adv-x="601" 
d="M161 24.5q-67 27.5 -103 71.5l14 13q34 -40 97 -66.5t134 -26.5q109 0 164.5 43.5t55.5 112.5q0 54 -29 86t-71.5 48t-114.5 33q-77 19 -122 36.5t-76.5 54t-31.5 97.5q0 48 25 88t78 64t131 24q56 0 110 -17.5t93 -46.5l-11 -16q-41 30 -91.5 45.5t-99.5 15.5
q-105 0 -160 -44.5t-55 -113.5q0 -54 29 -86.5t72 -48.5t116 -34q76 -19 121 -36.5t76 -53t31 -95.5q0 -48 -26 -88t-79.5 -63.5t-133.5 -23.5q-76 0 -143 27.5zM456 837l-123 -80h-30l-123 80h30l108 -64l108 64h30zM299.5 889q-7.5 8 -7.5 18q0 11 7.5 18.5t18.5 7.5
q10 0 18 -7.5t8 -18.5q0 -10 -8 -18t-18 -8q-11 0 -18.5 8z" />
    <glyph glyph-name="Scedilla" unicode="&#x15e;" horiz-adv-x="601" 
d="M161 24.5q-67 27.5 -103 71.5l14 13q34 -40 97 -66.5t134 -26.5q109 0 164.5 43.5t55.5 112.5q0 54 -29 86t-71.5 48t-114.5 33q-77 19 -122 36.5t-76.5 54t-31.5 97.5q0 48 25 88t78 64t131 24q56 0 110 -17.5t93 -46.5l-11 -16q-41 30 -91.5 45.5t-99.5 15.5
q-105 0 -160 -44.5t-55 -113.5q0 -54 29 -86.5t72 -48.5t116 -34q76 -19 121 -36.5t76 -53t31 -95.5q0 -48 -26 -88t-79.5 -63.5t-133.5 -23.5q-76 0 -143 27.5zM228 -186l11 15q25 -23 62 -23q32 0 52 16t20 44q0 27 -19 43.5t-52 16.5h-16l22 79h19l-17 -61
q38 -2 60.5 -23t22.5 -55q0 -36 -25.5 -57.5t-65.5 -21.5q-43 0 -74 27z" />
    <glyph glyph-name="Scircumflex" unicode="&#x15c;" horiz-adv-x="601" 
d="M161 24.5q-67 27.5 -103 71.5l14 13q34 -40 97 -66.5t134 -26.5q109 0 164.5 43.5t55.5 112.5q0 54 -29 86t-71.5 48t-114.5 33q-77 19 -122 36.5t-76.5 54t-31.5 97.5q0 48 25 88t78 64t131 24q56 0 110 -17.5t93 -46.5l-11 -16q-41 30 -91.5 45.5t-99.5 15.5
q-105 0 -160 -44.5t-55 -113.5q0 -54 29 -86.5t72 -48.5t116 -34q76 -19 121 -36.5t76 -53t31 -95.5q0 -48 -26 -88t-79.5 -63.5t-133.5 -23.5q-76 0 -143 27.5zM429 757l-111 93l-111 -93h-27l122 110h32l122 -110h-27z" />
    <glyph glyph-name="Scommaaccent" unicode="&#x218;" horiz-adv-x="601" 
d="M161 24.5q-67 27.5 -103 71.5l14 13q34 -40 97 -66.5t134 -26.5q109 0 164.5 43.5t55.5 112.5q0 54 -29 86t-71.5 48t-114.5 33q-77 19 -122 36.5t-76.5 54t-31.5 97.5q0 48 25 88t78 64t131 24q56 0 110 -17.5t93 -46.5l-11 -16q-41 30 -91.5 45.5t-99.5 15.5
q-105 0 -160 -44.5t-55 -113.5q0 -54 29 -86.5t72 -48.5t116 -34q76 -19 121 -36.5t76 -53t31 -95.5q0 -48 -26 -88t-79.5 -63.5t-133.5 -23.5q-76 0 -143 27.5zM336.5 -132q7.5 -8 7.5 -18t-6 -32l-23 -77h-18l18 83q-10 2 -16.5 9t-6.5 17q0 11 7.5 18.5t18.5 7.5t18.5 -8
z" />
    <glyph glyph-name="uni1E60" unicode="&#x1e60;" horiz-adv-x="601" 
d="M161 24.5q-67 27.5 -103 71.5l14 13q34 -40 97 -66.5t134 -26.5q109 0 164.5 43.5t55.5 112.5q0 54 -29 86t-71.5 48t-114.5 33q-77 19 -122 36.5t-76.5 54t-31.5 97.5q0 48 25 88t78 64t131 24q56 0 110 -17.5t93 -46.5l-11 -16q-41 30 -91.5 45.5t-99.5 15.5
q-105 0 -160 -44.5t-55 -113.5q0 -54 29 -86.5t72 -48.5t116 -34q76 -19 121 -36.5t76 -53t31 -95.5q0 -48 -26 -88t-79.5 -63.5t-133.5 -23.5q-76 0 -143 27.5zM299.5 799q-7.5 8 -7.5 18q0 11 7.5 18.5t18.5 7.5q10 0 18 -7.5t8 -18.5q0 -10 -8 -18t-18 -8q-11 0 -18.5 8z
" />
    <glyph glyph-name="uni1E62" unicode="&#x1e62;" horiz-adv-x="601" 
d="M161 24.5q-67 27.5 -103 71.5l14 13q34 -40 97 -66.5t134 -26.5q109 0 164.5 43.5t55.5 112.5q0 54 -29 86t-71.5 48t-114.5 33q-77 19 -122 36.5t-76.5 54t-31.5 97.5q0 48 25 88t78 64t131 24q56 0 110 -17.5t93 -46.5l-11 -16q-41 30 -91.5 45.5t-99.5 15.5
q-105 0 -160 -44.5t-55 -113.5q0 -54 29 -86.5t72 -48.5t116 -34q76 -19 121 -36.5t76 -53t31 -95.5q0 -48 -26 -88t-79.5 -63.5t-133.5 -23.5q-76 0 -143 27.5zM299.5 -168.5q-7.5 7.5 -7.5 18.5q0 10 7.5 18t18.5 8q10 0 18 -8t8 -18q0 -11 -8 -18.5t-18 -7.5
q-11 0 -18.5 7.5z" />
    <glyph glyph-name="uni1E68" unicode="&#x1e68;" horiz-adv-x="601" 
d="M161 24.5q-67 27.5 -103 71.5l14 13q34 -40 97 -66.5t134 -26.5q109 0 164.5 43.5t55.5 112.5q0 54 -29 86t-71.5 48t-114.5 33q-77 19 -122 36.5t-76.5 54t-31.5 97.5q0 48 25 88t78 64t131 24q56 0 110 -17.5t93 -46.5l-11 -16q-41 30 -91.5 45.5t-99.5 15.5
q-105 0 -160 -44.5t-55 -113.5q0 -54 29 -86.5t72 -48.5t116 -34q76 -19 121 -36.5t76 -53t31 -95.5q0 -48 -26 -88t-79.5 -63.5t-133.5 -23.5q-76 0 -143 27.5zM299.5 -168.5q-7.5 7.5 -7.5 18.5q0 10 7.5 18t18.5 8q10 0 18 -8t8 -18q0 -11 -8 -18.5t-18 -7.5
q-11 0 -18.5 7.5zM299.5 799q-7.5 8 -7.5 18q0 11 7.5 18.5t18.5 7.5q10 0 18 -7.5t8 -18.5q0 -10 -8 -18t-18 -8q-11 0 -18.5 8z" />
    <glyph glyph-name="uni1E9E" unicode="&#x1e9e;" horiz-adv-x="742" 
d="M616.5 342q60.5 -51 60.5 -147q0 -95 -59 -146.5t-160 -51.5q-43 0 -74.5 6.5t-64.5 21.5l8 19q56 -28 131 -28q92 0 145.5 46t53.5 133t-54.5 133t-148.5 46q-52 0 -91 -12l-7 16l242 250q-72 62 -200 62q-120 0 -185.5 -69t-65.5 -199v-422h-20v424q0 134 72 209.5
t199 75.5q136 0 218 -72v-16l-227 -235q28 7 64 7q103 0 163.5 -51z" />
    <glyph glyph-name="uni018F" unicode="&#x18f;" horiz-adv-x="816" 
d="M581 657q82 -46 129 -126.5t47 -179.5q0 -96 -47 -177t-127 -129t-175 -48q-99 0 -178.5 46t-125 126.5t-45.5 180.5v10h678q-2 91 -47.5 165t-122 116.5t-169.5 42.5q-137 0 -231 -81l-11 15q47 42 109 63.5t133 21.5q101 0 183 -46zM570 59q75 43 120 117.5t47 164.5
h-658q2 -91 45.5 -165.5t117.5 -117t166 -42.5q87 0 162 43z" />
    <glyph glyph-name="T" unicode="T" horiz-adv-x="548" 
d="M264 681h-260v19h540v-19h-260v-681h-20v681z" />
    <glyph glyph-name="Tbar" unicode="&#x166;" horiz-adv-x="548" 
d="M264 681h-260v19h540v-19h-260v-681h-20v681zM94 365h360v-19h-360v19z" />
    <glyph glyph-name="Tcaron" unicode="&#x164;" horiz-adv-x="548" 
d="M264 681h-260v19h540v-19h-260v-681h-20v681zM412 867l-122 -110h-32l-122 110h27l111 -93l111 93h27z" />
    <glyph glyph-name="uni0162" unicode="&#x162;" horiz-adv-x="548" 
d="M264 681h-260v19h540v-19h-260v-681h-20v681zM184 -186l11 15q25 -23 62 -23q32 0 52 16t20 44q0 27 -19 43.5t-52 16.5h-16l22 79h19l-17 -61q38 -2 60.5 -23t22.5 -55q0 -36 -25.5 -57.5t-65.5 -21.5q-43 0 -74 27z" />
    <glyph glyph-name="uni021A" unicode="&#x21a;" horiz-adv-x="548" 
d="M264 681h-260v19h540v-19h-260v-681h-20v681zM292.5 -132q7.5 -8 7.5 -18t-6 -32l-23 -77h-18l18 83q-10 2 -16.5 9t-6.5 17q0 11 7.5 18.5t18.5 7.5t18.5 -8z" />
    <glyph glyph-name="uni1E6C" unicode="&#x1e6c;" horiz-adv-x="548" 
d="M264 681h-260v19h540v-19h-260v-681h-20v681zM255.5 -168.5q-7.5 7.5 -7.5 18.5q0 10 7.5 18t18.5 8q10 0 18 -8t8 -18q0 -11 -8 -18.5t-18 -7.5q-11 0 -18.5 7.5z" />
    <glyph glyph-name="uni1E6E" unicode="&#x1e6e;" horiz-adv-x="548" 
d="M264 681h-260v19h540v-19h-260v-681h-20v681zM138 -140h272v-20h-272v20z" />
    <glyph glyph-name="U" unicode="U" horiz-adv-x="794" 
d="M198 72q-71 75 -71 221v407h20v-406q0 -138 64.5 -208t185.5 -70t185.5 70t64.5 208v406h20v-407q0 -146 -71 -221t-199 -75t-199 75z" />
    <glyph glyph-name="Uacute" unicode="&#xda;" horiz-adv-x="794" 
d="M198 72q-71 75 -71 221v407h20v-406q0 -138 64.5 -208t185.5 -70t185.5 70t64.5 208v406h20v-407q0 -146 -71 -221t-199 -75t-199 75zM492 867h40l-150 -110h-30z" />
    <glyph glyph-name="Ubreve" unicode="&#x16c;" horiz-adv-x="794" 
d="M198 72q-71 75 -71 221v407h20v-406q0 -138 64.5 -208t185.5 -70t185.5 70t64.5 208v406h20v-407q0 -146 -71 -221t-199 -75t-199 75zM304 785q-38 31 -39 82h19q1 -43 33 -68.5t80 -25.5t80 25.5t33 68.5h19q-1 -51 -39 -82t-93 -31t-93 31z" />
    <glyph glyph-name="uni01D3" unicode="&#x1d3;" horiz-adv-x="794" 
d="M198 72q-71 75 -71 221v407h20v-406q0 -138 64.5 -208t185.5 -70t185.5 70t64.5 208v406h20v-407q0 -146 -71 -221t-199 -75t-199 75zM535 867l-122 -110h-32l-122 110h27l111 -93l111 93h27z" />
    <glyph glyph-name="Ucircumflex" unicode="&#xdb;" horiz-adv-x="794" 
d="M198 72q-71 75 -71 221v407h20v-406q0 -138 64.5 -208t185.5 -70t185.5 70t64.5 208v406h20v-407q0 -146 -71 -221t-199 -75t-199 75zM508 757l-111 93l-111 -93h-27l122 110h32l122 -110h-27z" />
    <glyph glyph-name="uni0214" unicode="&#x214;" horiz-adv-x="794" 
d="M198 72q-71 75 -71 221v407h20v-406q0 -138 64.5 -208t185.5 -70t185.5 70t64.5 208v406h20v-407q0 -146 -71 -221t-199 -75t-199 75zM196 867h34l111 -110h-27zM335 867h34l111 -110h-27z" />
    <glyph glyph-name="Udieresis" unicode="&#xdc;" horiz-adv-x="794" 
d="M198 72q-71 75 -71 221v407h20v-406q0 -138 64.5 -208t185.5 -70t185.5 70t64.5 208v406h20v-407q0 -146 -71 -221t-199 -75t-199 75zM296.5 799q-7.5 8 -7.5 18q0 11 7.5 18.5t18.5 7.5q10 0 18 -7.5t8 -18.5q0 -10 -8 -18t-18 -8q-11 0 -18.5 8zM460.5 799
q-7.5 8 -7.5 18q0 11 7.5 18.5t18.5 7.5q10 0 18 -7.5t8 -18.5q0 -10 -8 -18t-18 -8q-11 0 -18.5 8z" />
    <glyph glyph-name="uni1EE4" unicode="&#x1ee4;" horiz-adv-x="794" 
d="M198 72q-71 75 -71 221v407h20v-406q0 -138 64.5 -208t185.5 -70t185.5 70t64.5 208v406h20v-407q0 -146 -71 -221t-199 -75t-199 75zM378.5 -168.5q-7.5 7.5 -7.5 18.5q0 10 7.5 18t18.5 8q10 0 18 -8t8 -18q0 -11 -8 -18.5t-18 -7.5q-11 0 -18.5 7.5z" />
    <glyph glyph-name="Ugrave" unicode="&#xd9;" horiz-adv-x="794" 
d="M198 72q-71 75 -71 221v407h20v-406q0 -138 64.5 -208t185.5 -70t185.5 70t64.5 208v406h20v-407q0 -146 -71 -221t-199 -75t-199 75zM262 867h40l140 -110h-30z" />
    <glyph glyph-name="uni1EE6" unicode="&#x1ee6;" horiz-adv-x="794" 
d="M198 72q-71 75 -71 221v407h20v-406q0 -138 64.5 -208t185.5 -70t185.5 70t64.5 208v406h20v-407q0 -146 -71 -221t-199 -75t-199 75zM389 769q63 28 63 77q0 23 -16.5 38.5t-41.5 15.5q-33 0 -62 -19l-8 17q13 10 32 15.5t37 5.5q36 0 57.5 -19.5t21.5 -52.5
q0 -30 -18 -53t-55 -41z" />
    <glyph glyph-name="Uhorn" unicode="&#x1af;" horiz-adv-x="794" 
d="M198 72q-71 75 -71 221v407h20v-406q0 -138 64.5 -208t185.5 -70t185.5 70t64.5 208v406h20v-407q0 -146 -71 -221t-199 -75t-199 75zM662 700h10q36 0 53 19.5t17 50.5q0 32 -20 67l18 8q10 -15 16 -35t6 -39q0 -40 -22 -65t-68 -25h-10v19z" />
    <glyph glyph-name="uni1EE8" unicode="&#x1ee8;" horiz-adv-x="794" 
d="M198 72q-71 75 -71 221v407h20v-406q0 -138 64.5 -208t185.5 -70t185.5 70t64.5 208v406h20v-407q0 -146 -71 -221t-199 -75t-199 75zM662 700h10q36 0 53 19.5t17 50.5q0 32 -20 67l18 8q10 -15 16 -35t6 -39q0 -40 -22 -65t-68 -25h-10v19zM492 867h40l-150 -110h-30z
" />
    <glyph glyph-name="uni1EF0" unicode="&#x1ef0;" horiz-adv-x="794" 
d="M198 72q-71 75 -71 221v407h20v-406q0 -138 64.5 -208t185.5 -70t185.5 70t64.5 208v406h20v-407q0 -146 -71 -221t-199 -75t-199 75zM662 700h10q36 0 53 19.5t17 50.5q0 32 -20 67l18 8q10 -15 16 -35t6 -39q0 -40 -22 -65t-68 -25h-10v19zM378.5 -168.5
q-7.5 7.5 -7.5 18.5q0 10 7.5 18t18.5 8q10 0 18 -8t8 -18q0 -11 -8 -18.5t-18 -7.5q-11 0 -18.5 7.5z" />
    <glyph glyph-name="uni1EEA" unicode="&#x1eea;" horiz-adv-x="794" 
d="M198 72q-71 75 -71 221v407h20v-406q0 -138 64.5 -208t185.5 -70t185.5 70t64.5 208v406h20v-407q0 -146 -71 -221t-199 -75t-199 75zM662 700h10q36 0 53 19.5t17 50.5q0 32 -20 67l18 8q10 -15 16 -35t6 -39q0 -40 -22 -65t-68 -25h-10v19zM262 867h40l140 -110h-30z
" />
    <glyph glyph-name="uni1EEC" unicode="&#x1eec;" horiz-adv-x="794" 
d="M198 72q-71 75 -71 221v407h20v-406q0 -138 64.5 -208t185.5 -70t185.5 70t64.5 208v406h20v-407q0 -146 -71 -221t-199 -75t-199 75zM662 700h10q36 0 53 19.5t17 50.5q0 32 -20 67l18 8q10 -15 16 -35t6 -39q0 -40 -22 -65t-68 -25h-10v19zM389 769q63 28 63 77
q0 23 -16.5 38.5t-41.5 15.5q-33 0 -62 -19l-8 17q13 10 32 15.5t37 5.5q36 0 57.5 -19.5t21.5 -52.5q0 -30 -18 -53t-55 -41z" />
    <glyph glyph-name="uni1EEE" unicode="&#x1eee;" horiz-adv-x="794" 
d="M198 72q-71 75 -71 221v407h20v-406q0 -138 64.5 -208t185.5 -70t185.5 70t64.5 208v406h20v-407q0 -146 -71 -221t-199 -75t-199 75zM662 700h10q36 0 53 19.5t17 50.5q0 32 -20 67l18 8q10 -15 16 -35t6 -39q0 -40 -22 -65t-68 -25h-10v19zM424.5 778.5
q-15.5 9.5 -35.5 28.5q-16 15 -28.5 23t-26.5 8q-24 0 -38 -18t-16 -49h-19q2 39 21.5 62.5t51.5 23.5q20 0 35.5 -9.5t35.5 -28.5q16 -15 28.5 -23t26.5 -8q24 0 38 17.5t16 47.5h19q-2 -38 -21.5 -61t-51.5 -23q-20 0 -35.5 9.5z" />
    <glyph glyph-name="Uhungarumlaut" unicode="&#x170;" horiz-adv-x="794" 
d="M198 72q-71 75 -71 221v407h20v-406q0 -138 64.5 -208t185.5 -70t185.5 70t64.5 208v406h20v-407q0 -146 -71 -221t-199 -75t-199 75zM425 867h34l-118 -110h-27zM564 867h34l-118 -110h-27z" />
    <glyph glyph-name="uni0216" unicode="&#x216;" horiz-adv-x="794" 
d="M198 72q-71 75 -71 221v407h20v-406q0 -138 64.5 -208t185.5 -70t185.5 70t64.5 208v406h20v-407q0 -146 -71 -221t-199 -75t-199 75zM304 839q38 31 93 31t93 -31t39 -82h-19q-1 43 -33 68.5t-80 25.5t-80 -25.5t-33 -68.5h-19q1 51 39 82z" />
    <glyph glyph-name="Umacron" unicode="&#x16a;" horiz-adv-x="794" 
d="M198 72q-71 75 -71 221v407h20v-406q0 -138 64.5 -208t185.5 -70t185.5 70t64.5 208v406h20v-407q0 -146 -71 -221t-199 -75t-199 75zM261 822h272v-20h-272v20z" />
    <glyph glyph-name="uni1E7A" unicode="&#x1e7a;" horiz-adv-x="794" 
d="M198 72q-71 75 -71 221v407h20v-406q0 -138 64.5 -208t185.5 -70t185.5 70t64.5 208v406h20v-407q0 -146 -71 -221t-199 -75t-199 75zM261 808h272v-20h-272v20zM296.5 913q-7.5 8 -7.5 18q0 11 7.5 18.5t18.5 7.5q10 0 18 -7.5t8 -18.5q0 -10 -8 -18t-18 -8
q-11 0 -18.5 8zM460.5 913q-7.5 8 -7.5 18q0 11 7.5 18.5t18.5 7.5q10 0 18 -7.5t8 -18.5q0 -10 -8 -18t-18 -8q-11 0 -18.5 8z" />
    <glyph glyph-name="Uogonek" unicode="&#x172;" horiz-adv-x="794" 
d="M667 700v-407q0 -228 -177 -285q-156 -51 -156 -138q0 -31 20 -47.5t52 -16.5q37 0 62 23l11 -15q-31 -27 -74 -27q-40 0 -65.5 22.5t-25.5 60.5q0 76 100 128q-6 -1 -17 -1q-128 0 -199 75t-71 221v407h20v-406q0 -138 64.5 -208t185.5 -70t185.5 70t64.5 208v406h20z
" />
    <glyph glyph-name="Uring" unicode="&#x16e;" horiz-adv-x="794" 
d="M198 72q-71 75 -71 221v407h20v-406q0 -138 64.5 -208t185.5 -70t185.5 70t64.5 208v406h20v-407q0 -146 -71 -221t-199 -75t-199 75zM330 806.5q-26 26.5 -26 63.5q0 38 26.5 65.5t65.5 27.5t66 -27.5t27 -65.5q0 -37 -26.5 -63.5t-66.5 -26.5t-66 26.5zM448.5 819.5
q20.5 20.5 20.5 50.5t-21 52t-52 22t-51.5 -21.5t-20.5 -52.5q0 -30 20 -50.5t52 -20.5t52.5 20.5z" />
    <glyph glyph-name="Utilde" unicode="&#x168;" horiz-adv-x="794" 
d="M198 72q-71 75 -71 221v407h20v-406q0 -138 64.5 -208t185.5 -70t185.5 70t64.5 208v406h20v-407q0 -146 -71 -221t-199 -75t-199 75zM424.5 778.5q-15.5 9.5 -35.5 28.5q-16 15 -28.5 23t-26.5 8q-24 0 -38 -18t-16 -49h-19q2 39 21.5 62.5t51.5 23.5q20 0 35.5 -9.5
t35.5 -28.5q16 -15 28.5 -23t26.5 -8q24 0 38 17.5t16 47.5h19q-2 -38 -21.5 -61t-51.5 -23q-20 0 -35.5 9.5z" />
    <glyph glyph-name="uni1E78" unicode="&#x1e78;" horiz-adv-x="794" 
d="M198 72q-71 75 -71 221v407h20v-406q0 -138 64.5 -208t185.5 -70t185.5 70t64.5 208v406h20v-407q0 -146 -71 -221t-199 -75t-199 75zM425 779q-14 7 -35 22q-16 12 -28.5 18.5t-25.5 6.5q-24 0 -38.5 -13.5t-15.5 -38.5h-19q1 32 21 51.5t52 19.5q18 0 32.5 -7t35.5 -22
q16 -12 28.5 -18.5t25.5 -6.5q24 0 38.5 13t15.5 37h19q-1 -31 -21 -50t-52 -19q-19 0 -33 7zM479 970h40l-137 -100h-30z" />
    <glyph glyph-name="V" unicode="V" horiz-adv-x="670" 
d="M660 700l-315 -700h-20l-315 700h23l302 -673l302 673h23z" />
    <glyph glyph-name="W" unicode="W" horiz-adv-x="1080" 
d="M1035 700l-240 -700h-20l-235 672l-235 -672h-20l-240 700h22l229 -668l234 668h20l235 -670l229 670h21z" />
    <glyph glyph-name="Wacute" unicode="&#x1e82;" horiz-adv-x="1080" 
d="M1035 700l-240 -700h-20l-235 672l-235 -672h-20l-240 700h22l229 -668l234 668h20l235 -670l229 670h21zM635 867h40l-150 -110h-30z" />
    <glyph glyph-name="Wcircumflex" unicode="&#x174;" horiz-adv-x="1080" 
d="M1035 700l-240 -700h-20l-235 672l-235 -672h-20l-240 700h22l229 -668l234 668h20l235 -670l229 670h21zM651 757l-111 93l-111 -93h-27l122 110h32l122 -110h-27z" />
    <glyph glyph-name="Wdieresis" unicode="&#x1e84;" horiz-adv-x="1080" 
d="M1035 700l-240 -700h-20l-235 672l-235 -672h-20l-240 700h22l229 -668l234 668h20l235 -670l229 670h21zM439.5 799q-7.5 8 -7.5 18q0 11 7.5 18.5t18.5 7.5q10 0 18 -7.5t8 -18.5q0 -10 -8 -18t-18 -8q-11 0 -18.5 8zM603.5 799q-7.5 8 -7.5 18q0 11 7.5 18.5t18.5 7.5
q10 0 18 -7.5t8 -18.5q0 -10 -8 -18t-18 -8q-11 0 -18.5 8z" />
    <glyph glyph-name="Wgrave" unicode="&#x1e80;" horiz-adv-x="1080" 
d="M1035 700l-240 -700h-20l-235 672l-235 -672h-20l-240 700h22l229 -668l234 668h20l235 -670l229 670h21zM405 867h40l140 -110h-30z" />
    <glyph glyph-name="X" unicode="X" horiz-adv-x="621" 
d="M571 0l-261 347l-261 -347h-24l273 362l-253 338h25l241 -323l241 323h24l-253 -338l273 -362h-25z" />
    <glyph glyph-name="Y" unicode="Y" horiz-adv-x="610" 
d="M315 238v-238h-20v238l-285 462h23l272 -441l272 441h23z" />
    <glyph glyph-name="Yacute" unicode="&#xdd;" horiz-adv-x="610" 
d="M315 238v-238h-20v238l-285 462h23l272 -441l272 441h23zM400 867h40l-150 -110h-30z" />
    <glyph glyph-name="Ycircumflex" unicode="&#x176;" horiz-adv-x="610" 
d="M315 238v-238h-20v238l-285 462h23l272 -441l272 441h23zM416 757l-111 93l-111 -93h-27l122 110h32l122 -110h-27z" />
    <glyph glyph-name="Ydieresis" unicode="&#x178;" horiz-adv-x="610" 
d="M315 238v-238h-20v238l-285 462h23l272 -441l272 441h23zM204.5 799q-7.5 8 -7.5 18q0 11 7.5 18.5t18.5 7.5q10 0 18 -7.5t8 -18.5q0 -10 -8 -18t-18 -8q-11 0 -18.5 8zM368.5 799q-7.5 8 -7.5 18q0 11 7.5 18.5t18.5 7.5q10 0 18 -7.5t8 -18.5q0 -10 -8 -18t-18 -8
q-11 0 -18.5 8z" />
    <glyph glyph-name="uni1E8E" unicode="&#x1e8e;" horiz-adv-x="610" 
d="M315 238v-238h-20v238l-285 462h23l272 -441l272 441h23zM286.5 799q-7.5 8 -7.5 18q0 11 7.5 18.5t18.5 7.5q10 0 18 -7.5t8 -18.5q0 -10 -8 -18t-18 -8q-11 0 -18.5 8z" />
    <glyph glyph-name="uni1EF4" unicode="&#x1ef4;" horiz-adv-x="610" 
d="M315 238v-238h-20v238l-285 462h23l272 -441l272 441h23zM286.5 -168.5q-7.5 7.5 -7.5 18.5q0 10 7.5 18t18.5 8q10 0 18 -8t8 -18q0 -11 -8 -18.5t-18 -7.5q-11 0 -18.5 7.5z" />
    <glyph glyph-name="Ygrave" unicode="&#x1ef2;" horiz-adv-x="610" 
d="M315 238v-238h-20v238l-285 462h23l272 -441l272 441h23zM170 867h40l140 -110h-30z" />
    <glyph glyph-name="uni1EF6" unicode="&#x1ef6;" horiz-adv-x="610" 
d="M315 238v-238h-20v238l-285 462h23l272 -441l272 441h23zM297 769q63 28 63 77q0 23 -16.5 38.5t-41.5 15.5q-33 0 -62 -19l-8 17q13 10 32 15.5t37 5.5q36 0 57.5 -19.5t21.5 -52.5q0 -30 -18 -53t-55 -41z" />
    <glyph glyph-name="uni0232" unicode="&#x232;" horiz-adv-x="610" 
d="M315 238v-238h-20v238l-285 462h23l272 -441l272 441h23zM169 822h272v-20h-272v20z" />
    <glyph glyph-name="uni1EF8" unicode="&#x1ef8;" horiz-adv-x="610" 
d="M315 238v-238h-20v238l-285 462h23l272 -441l272 441h23zM332.5 778.5q-15.5 9.5 -35.5 28.5q-16 15 -28.5 23t-26.5 8q-24 0 -38 -18t-16 -49h-19q2 39 21.5 62.5t51.5 23.5q20 0 35.5 -9.5t35.5 -28.5q16 -15 28.5 -23t26.5 -8q24 0 38 17.5t16 47.5h19
q-2 -38 -21.5 -61t-51.5 -23q-20 0 -35.5 9.5z" />
    <glyph glyph-name="Z" unicode="Z" horiz-adv-x="639" 
d="M600 19v-19h-550v15l512 666h-507v19h535v-15l-512 -666h522z" />
    <glyph glyph-name="Zacute" unicode="&#x179;" horiz-adv-x="639" 
d="M600 19v-19h-550v15l512 666h-507v19h535v-15l-512 -666h522zM420 867h40l-150 -110h-30z" />
    <glyph glyph-name="Zcaron" unicode="&#x17d;" horiz-adv-x="639" 
d="M600 19v-19h-550v15l512 666h-507v19h535v-15l-512 -666h522zM463 867l-122 -110h-32l-122 110h27l111 -93l111 93h27z" />
    <glyph glyph-name="Zdotaccent" unicode="&#x17b;" horiz-adv-x="639" 
d="M600 19v-19h-550v15l512 666h-507v19h535v-15l-512 -666h522zM306.5 799q-7.5 8 -7.5 18q0 11 7.5 18.5t18.5 7.5q10 0 18 -7.5t8 -18.5q0 -10 -8 -18t-18 -8q-11 0 -18.5 8z" />
    <glyph glyph-name="uni1E92" unicode="&#x1e92;" horiz-adv-x="639" 
d="M600 19v-19h-550v15l512 666h-507v19h535v-15l-512 -666h522zM316.5 -168.5q-7.5 7.5 -7.5 18.5q0 10 7.5 18t18.5 8q10 0 18 -8t8 -18q0 -11 -8 -18.5t-18 -7.5q-11 0 -18.5 7.5z" />
    <glyph glyph-name="Iacute_J.loclNLD" horiz-adv-x="714" 
d="M262 867h40l-150 -110h-30zM704 867h40l-150 -110h-30zM216 14.5q-53 17.5 -96 47.5l12 16q40 -30 90.5 -46t105.5 -16q113 0 176 70t63 208v406h20v-407q0 -145 -69.5 -220.5t-190.5 -75.5q-58 0 -111 17.5zM127 700h20v-410h-20v410z" />
    <glyph glyph-name="A.ss01" horiz-adv-x="804" 
d="M603.5 627.5q73.5 -75.5 73.5 -220.5v-407h-20v231h-510v-231h-20v407q0 145 73.5 220.5t201.5 75.5t201.5 -75.5zM657 250v159q0 136 -67 205.5t-188 69.5t-188 -69.5t-67 -205.5v-159h510z" />
    <glyph glyph-name="Aacute.ss01" horiz-adv-x="804" 
d="M603.5 627.5q73.5 -75.5 73.5 -220.5v-407h-20v231h-510v-231h-20v407q0 145 73.5 220.5t201.5 75.5t201.5 -75.5zM657 250v159q0 136 -67 205.5t-188 69.5t-188 -69.5t-67 -205.5v-159h510zM497 867h40l-150 -110h-30z" />
    <glyph glyph-name="Abreve.ss01" horiz-adv-x="804" 
d="M603.5 627.5q73.5 -75.5 73.5 -220.5v-407h-20v231h-510v-231h-20v407q0 145 73.5 220.5t201.5 75.5t201.5 -75.5zM657 250v159q0 136 -67 205.5t-188 69.5t-188 -69.5t-67 -205.5v-159h510zM309 785q-38 31 -39 82h19q1 -43 33 -68.5t80 -25.5t80 25.5t33 68.5h19
q-1 -51 -39 -82t-93 -31t-93 31z" />
    <glyph glyph-name="uni1EAE.ss01" horiz-adv-x="804" 
d="M603.5 627.5q73.5 -75.5 73.5 -220.5v-407h-20v231h-510v-231h-20v407q0 145 73.5 220.5t201.5 75.5t201.5 -75.5zM657 250v159q0 136 -67 205.5t-188 69.5t-188 -69.5t-67 -205.5v-159h510zM312.5 776q-35.5 22 -42.5 61h19q7 -31 36.5 -47.5t76.5 -16.5t76.5 16.5
t36.5 47.5h19q-7 -39 -42.5 -61t-89.5 -22t-89.5 22zM484 951h40l-137 -100h-30z" />
    <glyph glyph-name="uni1EB6.ss01" horiz-adv-x="804" 
d="M603.5 627.5q73.5 -75.5 73.5 -220.5v-407h-20v231h-510v-231h-20v407q0 145 73.5 220.5t201.5 75.5t201.5 -75.5zM657 250v159q0 136 -67 205.5t-188 69.5t-188 -69.5t-67 -205.5v-159h510zM383.5 -168.5q-7.5 7.5 -7.5 18.5q0 10 7.5 18t18.5 8q10 0 18 -8t8 -18
q0 -11 -8 -18.5t-18 -7.5q-11 0 -18.5 7.5zM309 785q-38 31 -39 82h19q1 -43 33 -68.5t80 -25.5t80 25.5t33 68.5h19q-1 -51 -39 -82t-93 -31t-93 31z" />
    <glyph glyph-name="uni1EB0.ss01" horiz-adv-x="804" 
d="M603.5 627.5q73.5 -75.5 73.5 -220.5v-407h-20v231h-510v-231h-20v407q0 145 73.5 220.5t201.5 75.5t201.5 -75.5zM657 250v159q0 136 -67 205.5t-188 69.5t-188 -69.5t-67 -205.5v-159h510zM312.5 776q-35.5 22 -42.5 61h19q7 -31 36.5 -47.5t76.5 -16.5t76.5 16.5
t36.5 47.5h19q-7 -39 -42.5 -61t-89.5 -22t-89.5 22zM280 951h40l127 -100h-30z" />
    <glyph glyph-name="uni1EB2.ss01" horiz-adv-x="804" 
d="M603.5 627.5q73.5 -75.5 73.5 -220.5v-407h-20v231h-510v-231h-20v407q0 145 73.5 220.5t201.5 75.5t201.5 -75.5zM657 250v159q0 136 -67 205.5t-188 69.5t-188 -69.5t-67 -205.5v-159h510zM312.5 776q-35.5 22 -42.5 61h19q7 -31 36.5 -47.5t76.5 -16.5t76.5 16.5
t36.5 47.5h19q-7 -39 -42.5 -61t-89.5 -22t-89.5 22zM395 842q21 10 33 24.5t12 31.5q0 16 -11.5 26t-30.5 10q-24 0 -43 -13l-8 16q22 16 52 16q28 0 44 -15t16 -40q0 -47 -54 -71z" />
    <glyph glyph-name="uni1EB4.ss01" horiz-adv-x="804" 
d="M603.5 627.5q73.5 -75.5 73.5 -220.5v-407h-20v231h-510v-231h-20v407q0 145 73.5 220.5t201.5 75.5t201.5 -75.5zM657 250v159q0 136 -67 205.5t-188 69.5t-188 -69.5t-67 -205.5v-159h510zM312.5 776q-35.5 22 -42.5 61h19q7 -31 36.5 -47.5t76.5 -16.5t76.5 16.5
t36.5 47.5h19q-7 -39 -42.5 -61t-89.5 -22t-89.5 22zM430 873q-14 7 -35 22q-16 12 -28.5 18.5t-25.5 6.5q-24 0 -38.5 -13.5t-15.5 -38.5h-19q1 32 21 51.5t52 19.5q18 0 32.5 -7t35.5 -22q16 -12 28.5 -18.5t25.5 -6.5q24 0 38.5 13t15.5 37h19q-1 -31 -21 -50t-52 -19
q-19 0 -33 7z" />
    <glyph glyph-name="uni01CD.ss01" horiz-adv-x="804" 
d="M603.5 627.5q73.5 -75.5 73.5 -220.5v-407h-20v231h-510v-231h-20v407q0 145 73.5 220.5t201.5 75.5t201.5 -75.5zM657 250v159q0 136 -67 205.5t-188 69.5t-188 -69.5t-67 -205.5v-159h510zM540 867l-122 -110h-32l-122 110h27l111 -93l111 93h27z" />
    <glyph glyph-name="Acircumflex.ss01" horiz-adv-x="804" 
d="M603.5 627.5q73.5 -75.5 73.5 -220.5v-407h-20v231h-510v-231h-20v407q0 145 73.5 220.5t201.5 75.5t201.5 -75.5zM657 250v159q0 136 -67 205.5t-188 69.5t-188 -69.5t-67 -205.5v-159h510zM513 757l-111 93l-111 -93h-27l122 110h32l122 -110h-27z" />
    <glyph glyph-name="uni1EA4.ss01" horiz-adv-x="804" 
d="M603.5 627.5q73.5 -75.5 73.5 -220.5v-407h-20v231h-510v-231h-20v407q0 145 73.5 220.5t201.5 75.5t201.5 -75.5zM657 250v159q0 136 -67 205.5t-188 69.5t-188 -69.5t-67 -205.5v-159h510zM510 757l-108 64l-108 -64h-30l123 80h30l123 -80h-30zM604 932h40l-137 -100
h-30z" />
    <glyph glyph-name="uni1EAC.ss01" horiz-adv-x="804" 
d="M603.5 627.5q73.5 -75.5 73.5 -220.5v-407h-20v231h-510v-231h-20v407q0 145 73.5 220.5t201.5 75.5t201.5 -75.5zM657 250v159q0 136 -67 205.5t-188 69.5t-188 -69.5t-67 -205.5v-159h510zM383.5 -168.5q-7.5 7.5 -7.5 18.5q0 10 7.5 18t18.5 8q10 0 18 -8t8 -18
q0 -11 -8 -18.5t-18 -7.5q-11 0 -18.5 7.5zM513 757l-111 93l-111 -93h-27l122 110h32l122 -110h-27z" />
    <glyph glyph-name="uni1EA6.ss01" horiz-adv-x="804" 
d="M603.5 627.5q73.5 -75.5 73.5 -220.5v-407h-20v231h-510v-231h-20v407q0 145 73.5 220.5t201.5 75.5t201.5 -75.5zM657 250v159q0 136 -67 205.5t-188 69.5t-188 -69.5t-67 -205.5v-159h510zM510 757l-108 64l-108 -64h-30l123 80h30l123 -80h-30zM400 932h40l127 -100
h-30z" />
    <glyph glyph-name="uni1EA8.ss01" horiz-adv-x="804" 
d="M603.5 627.5q73.5 -75.5 73.5 -220.5v-407h-20v231h-510v-231h-20v407q0 145 73.5 220.5t201.5 75.5t201.5 -75.5zM657 250v159q0 136 -67 205.5t-188 69.5t-188 -69.5t-67 -205.5v-159h510zM510 757l-108 64l-108 -64h-30l123 80h30l123 -80h-30zM495 833q21 10 33 24.5
t12 31.5q0 16 -11.5 26t-30.5 10q-24 0 -43 -13l-8 16q22 16 52 16q28 0 44 -15t16 -40q0 -47 -54 -71z" />
    <glyph glyph-name="uni1EAA.ss01" horiz-adv-x="804" 
d="M603.5 627.5q73.5 -75.5 73.5 -220.5v-407h-20v231h-510v-231h-20v407q0 145 73.5 220.5t201.5 75.5t201.5 -75.5zM657 250v159q0 136 -67 205.5t-188 69.5t-188 -69.5t-67 -205.5v-159h510zM510 757l-108 64l-108 -64h-30l123 80h30l123 -80h-30zM430 877q-14 7 -35 22
q-16 12 -28.5 18.5t-25.5 6.5q-24 0 -38.5 -13.5t-15.5 -38.5h-19q1 32 21 51.5t52 19.5q18 0 32.5 -7t35.5 -22q16 -12 28.5 -18.5t25.5 -6.5q24 0 38.5 13t15.5 37h19q-1 -31 -21 -50t-52 -19q-19 0 -33 7z" />
    <glyph glyph-name="uni0200.ss01" horiz-adv-x="804" 
d="M603.5 627.5q73.5 -75.5 73.5 -220.5v-407h-20v231h-510v-231h-20v407q0 145 73.5 220.5t201.5 75.5t201.5 -75.5zM657 250v159q0 136 -67 205.5t-188 69.5t-188 -69.5t-67 -205.5v-159h510zM201 867h34l111 -110h-27zM340 867h34l111 -110h-27z" />
    <glyph glyph-name="Adieresis.ss01" horiz-adv-x="804" 
d="M603.5 627.5q73.5 -75.5 73.5 -220.5v-407h-20v231h-510v-231h-20v407q0 145 73.5 220.5t201.5 75.5t201.5 -75.5zM657 250v159q0 136 -67 205.5t-188 69.5t-188 -69.5t-67 -205.5v-159h510zM301.5 799q-7.5 8 -7.5 18q0 11 7.5 18.5t18.5 7.5q10 0 18 -7.5t8 -18.5
q0 -10 -8 -18t-18 -8q-11 0 -18.5 8zM465.5 799q-7.5 8 -7.5 18q0 11 7.5 18.5t18.5 7.5q10 0 18 -7.5t8 -18.5q0 -10 -8 -18t-18 -8q-11 0 -18.5 8z" />
    <glyph glyph-name="uni1EA0.ss01" horiz-adv-x="804" 
d="M603.5 627.5q73.5 -75.5 73.5 -220.5v-407h-20v231h-510v-231h-20v407q0 145 73.5 220.5t201.5 75.5t201.5 -75.5zM657 250v159q0 136 -67 205.5t-188 69.5t-188 -69.5t-67 -205.5v-159h510zM383.5 -168.5q-7.5 7.5 -7.5 18.5q0 10 7.5 18t18.5 8q10 0 18 -8t8 -18
q0 -11 -8 -18.5t-18 -7.5q-11 0 -18.5 7.5z" />
    <glyph glyph-name="Agrave.ss01" horiz-adv-x="804" 
d="M603.5 627.5q73.5 -75.5 73.5 -220.5v-407h-20v231h-510v-231h-20v407q0 145 73.5 220.5t201.5 75.5t201.5 -75.5zM657 250v159q0 136 -67 205.5t-188 69.5t-188 -69.5t-67 -205.5v-159h510zM267 867h40l140 -110h-30z" />
    <glyph glyph-name="uni1EA2.ss01" horiz-adv-x="804" 
d="M603.5 627.5q73.5 -75.5 73.5 -220.5v-407h-20v231h-510v-231h-20v407q0 145 73.5 220.5t201.5 75.5t201.5 -75.5zM657 250v159q0 136 -67 205.5t-188 69.5t-188 -69.5t-67 -205.5v-159h510zM394 769q63 28 63 77q0 23 -16.5 38.5t-41.5 15.5q-33 0 -62 -19l-8 17
q13 10 32 15.5t37 5.5q36 0 57.5 -19.5t21.5 -52.5q0 -30 -18 -53t-55 -41z" />
    <glyph glyph-name="uni0202.ss01" horiz-adv-x="804" 
d="M603.5 627.5q73.5 -75.5 73.5 -220.5v-407h-20v231h-510v-231h-20v407q0 145 73.5 220.5t201.5 75.5t201.5 -75.5zM657 250v159q0 136 -67 205.5t-188 69.5t-188 -69.5t-67 -205.5v-159h510zM309 839q38 31 93 31t93 -31t39 -82h-19q-1 43 -33 68.5t-80 25.5t-80 -25.5
t-33 -68.5h-19q1 51 39 82z" />
    <glyph glyph-name="Amacron.ss01" horiz-adv-x="804" 
d="M603.5 627.5q73.5 -75.5 73.5 -220.5v-407h-20v231h-510v-231h-20v407q0 145 73.5 220.5t201.5 75.5t201.5 -75.5zM657 250v159q0 136 -67 205.5t-188 69.5t-188 -69.5t-67 -205.5v-159h510zM266 822h272v-20h-272v20z" />
    <glyph glyph-name="Aogonek.ss01" horiz-adv-x="804" 
d="M603.5 627.5q73.5 -75.5 73.5 -220.5v-407h-20v231h-510v-231h-20v407q0 145 73.5 220.5t201.5 75.5t201.5 -75.5zM657 250v159q0 136 -67 205.5t-188 69.5t-188 -69.5t-67 -205.5v-159h510zM555.5 -190.5q-25.5 22.5 -25.5 60.5q0 85 137 146l10 -16
q-74 -32 -100.5 -64.5t-26.5 -65.5q0 -31 20 -47.5t52 -16.5q37 0 62 23l11 -15q-31 -27 -74 -27q-40 0 -65.5 22.5z" />
    <glyph glyph-name="Aring.ss01" horiz-adv-x="804" 
d="M603.5 627.5q73.5 -75.5 73.5 -220.5v-407h-20v231h-510v-231h-20v407q0 145 73.5 220.5t201.5 75.5t201.5 -75.5zM657 250v159q0 136 -67 205.5t-188 69.5t-188 -69.5t-67 -205.5v-159h510zM335 806.5q-26 26.5 -26 63.5q0 38 26.5 65.5t65.5 27.5t66 -27.5t27 -65.5
q0 -37 -26.5 -63.5t-66.5 -26.5t-66 26.5zM453.5 819.5q20.5 20.5 20.5 50.5t-21 52t-52 22t-51.5 -21.5t-20.5 -52.5q0 -30 20 -50.5t52 -20.5t52.5 20.5z" />
    <glyph glyph-name="Aringacute.ss01" horiz-adv-x="804" 
d="M603.5 627.5q73.5 -75.5 73.5 -220.5v-407h-20v231h-510v-231h-20v407q0 145 73.5 220.5t201.5 75.5t201.5 -75.5zM657 250v159q0 136 -67 205.5t-188 69.5t-188 -69.5t-67 -205.5v-159h510zM472 931q22 -27 22 -61q0 -37 -26.5 -63.5t-66.5 -26.5t-66 26.5t-26 63.5
q0 38 26.5 65.5t65.5 27.5q30 0 55 -18l81 76l17 -13zM453.5 819.5q20.5 20.5 20.5 50.5t-21 52t-52 22t-51.5 -21.5t-20.5 -52.5q0 -30 20 -50.5t52 -20.5t52.5 20.5z" />
    <glyph glyph-name="Atilde.ss01" horiz-adv-x="804" 
d="M603.5 627.5q73.5 -75.5 73.5 -220.5v-407h-20v231h-510v-231h-20v407q0 145 73.5 220.5t201.5 75.5t201.5 -75.5zM657 250v159q0 136 -67 205.5t-188 69.5t-188 -69.5t-67 -205.5v-159h510zM429.5 778.5q-15.5 9.5 -35.5 28.5q-16 15 -28.5 23t-26.5 8q-24 0 -38 -18
t-16 -49h-19q2 39 21.5 62.5t51.5 23.5q20 0 35.5 -9.5t35.5 -28.5q16 -15 28.5 -23t26.5 -8q24 0 38 17.5t16 47.5h19q-2 -38 -21.5 -61t-51.5 -23q-20 0 -35.5 9.5z" />
    <glyph glyph-name="AE.ss01" horiz-adv-x="1059" 
d="M1017 19v-19h-466v241h-416v-241h-20v405q0 140 69.5 217.5t195.5 77.5h622v-19h-431v-316h386v-19h-386v-327h446zM551 260v421h-171q-118 0 -181.5 -72t-63.5 -204v-145h416z" />
    <glyph glyph-name="AEacute.ss01" horiz-adv-x="1059" 
d="M1017 19v-19h-466v241h-416v-241h-20v405q0 140 69.5 217.5t195.5 77.5h622v-19h-431v-316h386v-19h-386v-327h446zM551 260v421h-171q-118 0 -181.5 -72t-63.5 -204v-145h416zM619 867h40l-150 -110h-30z" />
    <glyph glyph-name="uni01C4.ss01" horiz-adv-x="1461" 
d="M133 700h265q109 0 192.5 -45t130 -125t46.5 -180t-46.5 -180t-130 -125t-192.5 -45h-265v700zM396 19q105 0 184.5 42.5t123 118t43.5 170.5t-43.5 170.5t-123 118t-184.5 42.5h-243v-662h243zM1416 19v-19h-550v15l252 331h-186v19h200l241 316h-507v19h535v-15
l-243 -320h174v-19h-189l-249 -327h522zM1274 867l-122 -110h-32l-122 110h27l111 -93l111 93h27z" />
    <glyph glyph-name="uni01C5.ss01" horiz-adv-x="1327" 
d="M133 700h265q109 0 192.5 -45t130 -125t46.5 -180t-46.5 -180t-130 -125t-192.5 -45h-265v700zM396 19q105 0 184.5 42.5t123 118t43.5 170.5t-43.5 170.5t-123 118t-184.5 42.5h-243v-662h243zM1274 19v-19h-397v15l179 237h-134v19h148l171 227h-359v19h387v-15
l-174 -231h134v-19h-149l-175 -233h369zM1214 717l-122 -110h-32l-122 110h27l111 -93l111 93h27z" />
    <glyph glyph-name="E.ss01" horiz-adv-x="614" 
d="M590 92q-40 -45 -109.5 -70t-156.5 -25q-125 0 -192 51.5t-67 135.5q0 70 44.5 114.5t120.5 57.5q-65 16 -100 58.5t-35 106.5q0 51 28 92.5t83 65.5t133 24q62 0 119.5 -16t97.5 -44l-10 -16q-91 57 -206 57q-109 0 -167 -45.5t-58 -118.5q0 -74 50.5 -114.5
t139.5 -40.5h164v-19h-163q-101 0 -161 -40.5t-60 -120.5q0 -78 61 -123.5t179 -45.5q81 0 146.5 23.5t103.5 65.5z" />
    <glyph glyph-name="Eacute.ss01" horiz-adv-x="614" 
d="M590 92q-40 -45 -109.5 -70t-156.5 -25q-125 0 -192 51.5t-67 135.5q0 70 44.5 114.5t120.5 57.5q-65 16 -100 58.5t-35 106.5q0 51 28 92.5t83 65.5t133 24q62 0 119.5 -16t97.5 -44l-10 -16q-91 57 -206 57q-109 0 -167 -45.5t-58 -118.5q0 -74 50.5 -114.5
t139.5 -40.5h164v-19h-163q-101 0 -161 -40.5t-60 -120.5q0 -78 61 -123.5t179 -45.5q81 0 146.5 23.5t103.5 65.5zM431 867h40l-150 -110h-30z" />
    <glyph glyph-name="Ebreve.ss01" horiz-adv-x="614" 
d="M590 92q-40 -45 -109.5 -70t-156.5 -25q-125 0 -192 51.5t-67 135.5q0 70 44.5 114.5t120.5 57.5q-65 16 -100 58.5t-35 106.5q0 51 28 92.5t83 65.5t133 24q62 0 119.5 -16t97.5 -44l-10 -16q-91 57 -206 57q-109 0 -167 -45.5t-58 -118.5q0 -74 50.5 -114.5
t139.5 -40.5h164v-19h-163q-101 0 -161 -40.5t-60 -120.5q0 -78 61 -123.5t179 -45.5q81 0 146.5 23.5t103.5 65.5zM243 785q-38 31 -39 82h19q1 -43 33 -68.5t80 -25.5t80 25.5t33 68.5h19q-1 -51 -39 -82t-93 -31t-93 31z" />
    <glyph glyph-name="Ecaron.ss01" horiz-adv-x="614" 
d="M590 92q-40 -45 -109.5 -70t-156.5 -25q-125 0 -192 51.5t-67 135.5q0 70 44.5 114.5t120.5 57.5q-65 16 -100 58.5t-35 106.5q0 51 28 92.5t83 65.5t133 24q62 0 119.5 -16t97.5 -44l-10 -16q-91 57 -206 57q-109 0 -167 -45.5t-58 -118.5q0 -74 50.5 -114.5
t139.5 -40.5h164v-19h-163q-101 0 -161 -40.5t-60 -120.5q0 -78 61 -123.5t179 -45.5q81 0 146.5 23.5t103.5 65.5zM474 867l-122 -110h-32l-122 110h27l111 -93l111 93h27z" />
    <glyph glyph-name="uni1E1C.ss01" horiz-adv-x="614" 
d="M590 92q-40 -45 -109.5 -70t-156.5 -25q-125 0 -192 51.5t-67 135.5q0 70 44.5 114.5t120.5 57.5q-65 16 -100 58.5t-35 106.5q0 51 28 92.5t83 65.5t133 24q62 0 119.5 -16t97.5 -44l-10 -16q-91 57 -206 57q-109 0 -167 -45.5t-58 -118.5q0 -74 50.5 -114.5
t139.5 -40.5h164v-19h-163q-101 0 -161 -40.5t-60 -120.5q0 -78 61 -123.5t179 -45.5q81 0 146.5 23.5t103.5 65.5zM246 -186l11 15q25 -23 62 -23q32 0 52 16t20 44q0 27 -19 43.5t-52 16.5h-16l22 79h19l-17 -61q38 -2 60.5 -23t22.5 -55q0 -36 -25.5 -57.5t-65.5 -21.5
q-43 0 -74 27zM243 785q-38 31 -39 82h19q1 -43 33 -68.5t80 -25.5t80 25.5t33 68.5h19q-1 -51 -39 -82t-93 -31t-93 31z" />
    <glyph glyph-name="Ecircumflex.ss01" horiz-adv-x="614" 
d="M590 92q-40 -45 -109.5 -70t-156.5 -25q-125 0 -192 51.5t-67 135.5q0 70 44.5 114.5t120.5 57.5q-65 16 -100 58.5t-35 106.5q0 51 28 92.5t83 65.5t133 24q62 0 119.5 -16t97.5 -44l-10 -16q-91 57 -206 57q-109 0 -167 -45.5t-58 -118.5q0 -74 50.5 -114.5
t139.5 -40.5h164v-19h-163q-101 0 -161 -40.5t-60 -120.5q0 -78 61 -123.5t179 -45.5q81 0 146.5 23.5t103.5 65.5zM447 757l-111 93l-111 -93h-27l122 110h32l122 -110h-27z" />
    <glyph glyph-name="uni1EBE.ss01" horiz-adv-x="614" 
d="M590 92q-40 -45 -109.5 -70t-156.5 -25q-125 0 -192 51.5t-67 135.5q0 70 44.5 114.5t120.5 57.5q-65 16 -100 58.5t-35 106.5q0 51 28 92.5t83 65.5t133 24q62 0 119.5 -16t97.5 -44l-10 -16q-91 57 -206 57q-109 0 -167 -45.5t-58 -118.5q0 -74 50.5 -114.5
t139.5 -40.5h164v-19h-163q-101 0 -161 -40.5t-60 -120.5q0 -78 61 -123.5t179 -45.5q81 0 146.5 23.5t103.5 65.5zM444 757l-108 64l-108 -64h-30l123 80h30l123 -80h-30zM538 932h40l-137 -100h-30z" />
    <glyph glyph-name="uni1EC6.ss01" horiz-adv-x="614" 
d="M590 92q-40 -45 -109.5 -70t-156.5 -25q-125 0 -192 51.5t-67 135.5q0 70 44.5 114.5t120.5 57.5q-65 16 -100 58.5t-35 106.5q0 51 28 92.5t83 65.5t133 24q62 0 119.5 -16t97.5 -44l-10 -16q-91 57 -206 57q-109 0 -167 -45.5t-58 -118.5q0 -74 50.5 -114.5
t139.5 -40.5h164v-19h-163q-101 0 -161 -40.5t-60 -120.5q0 -78 61 -123.5t179 -45.5q81 0 146.5 23.5t103.5 65.5zM317.5 -168.5q-7.5 7.5 -7.5 18.5q0 10 7.5 18t18.5 8q10 0 18 -8t8 -18q0 -11 -8 -18.5t-18 -7.5q-11 0 -18.5 7.5zM447 757l-111 93l-111 -93h-27l122 110
h32l122 -110h-27z" />
    <glyph glyph-name="uni1EC0.ss01" horiz-adv-x="614" 
d="M590 92q-40 -45 -109.5 -70t-156.5 -25q-125 0 -192 51.5t-67 135.5q0 70 44.5 114.5t120.5 57.5q-65 16 -100 58.5t-35 106.5q0 51 28 92.5t83 65.5t133 24q62 0 119.5 -16t97.5 -44l-10 -16q-91 57 -206 57q-109 0 -167 -45.5t-58 -118.5q0 -74 50.5 -114.5
t139.5 -40.5h164v-19h-163q-101 0 -161 -40.5t-60 -120.5q0 -78 61 -123.5t179 -45.5q81 0 146.5 23.5t103.5 65.5zM444 757l-108 64l-108 -64h-30l123 80h30l123 -80h-30zM334 932h40l127 -100h-30z" />
    <glyph glyph-name="uni1EC2.ss01" horiz-adv-x="614" 
d="M590 92q-40 -45 -109.5 -70t-156.5 -25q-125 0 -192 51.5t-67 135.5q0 70 44.5 114.5t120.5 57.5q-65 16 -100 58.5t-35 106.5q0 51 28 92.5t83 65.5t133 24q62 0 119.5 -16t97.5 -44l-10 -16q-91 57 -206 57q-109 0 -167 -45.5t-58 -118.5q0 -74 50.5 -114.5
t139.5 -40.5h164v-19h-163q-101 0 -161 -40.5t-60 -120.5q0 -78 61 -123.5t179 -45.5q81 0 146.5 23.5t103.5 65.5zM444 757l-108 64l-108 -64h-30l123 80h30l123 -80h-30zM429 833q21 10 33 24.5t12 31.5q0 16 -11.5 26t-30.5 10q-24 0 -43 -13l-8 16q22 16 52 16
q28 0 44 -15t16 -40q0 -47 -54 -71z" />
    <glyph glyph-name="uni1EC4.ss01" horiz-adv-x="614" 
d="M590 92q-40 -45 -109.5 -70t-156.5 -25q-125 0 -192 51.5t-67 135.5q0 70 44.5 114.5t120.5 57.5q-65 16 -100 58.5t-35 106.5q0 51 28 92.5t83 65.5t133 24q62 0 119.5 -16t97.5 -44l-10 -16q-91 57 -206 57q-109 0 -167 -45.5t-58 -118.5q0 -74 50.5 -114.5
t139.5 -40.5h164v-19h-163q-101 0 -161 -40.5t-60 -120.5q0 -78 61 -123.5t179 -45.5q81 0 146.5 23.5t103.5 65.5zM444 757l-108 64l-108 -64h-30l123 80h30l123 -80h-30zM364 877q-14 7 -35 22q-16 12 -28.5 18.5t-25.5 6.5q-24 0 -38.5 -13.5t-15.5 -38.5h-19
q1 32 21 51.5t52 19.5q18 0 32.5 -7t35.5 -22q16 -12 28.5 -18.5t25.5 -6.5q24 0 38.5 13t15.5 37h19q-1 -31 -21 -50t-52 -19q-19 0 -33 7z" />
    <glyph glyph-name="uni0204.ss01" horiz-adv-x="614" 
d="M590 92q-40 -45 -109.5 -70t-156.5 -25q-125 0 -192 51.5t-67 135.5q0 70 44.5 114.5t120.5 57.5q-65 16 -100 58.5t-35 106.5q0 51 28 92.5t83 65.5t133 24q62 0 119.5 -16t97.5 -44l-10 -16q-91 57 -206 57q-109 0 -167 -45.5t-58 -118.5q0 -74 50.5 -114.5
t139.5 -40.5h164v-19h-163q-101 0 -161 -40.5t-60 -120.5q0 -78 61 -123.5t179 -45.5q81 0 146.5 23.5t103.5 65.5zM135 867h34l111 -110h-27zM274 867h34l111 -110h-27z" />
    <glyph glyph-name="Edieresis.ss01" horiz-adv-x="614" 
d="M590 92q-40 -45 -109.5 -70t-156.5 -25q-125 0 -192 51.5t-67 135.5q0 70 44.5 114.5t120.5 57.5q-65 16 -100 58.5t-35 106.5q0 51 28 92.5t83 65.5t133 24q62 0 119.5 -16t97.5 -44l-10 -16q-91 57 -206 57q-109 0 -167 -45.5t-58 -118.5q0 -74 50.5 -114.5
t139.5 -40.5h164v-19h-163q-101 0 -161 -40.5t-60 -120.5q0 -78 61 -123.5t179 -45.5q81 0 146.5 23.5t103.5 65.5zM235.5 799q-7.5 8 -7.5 18q0 11 7.5 18.5t18.5 7.5q10 0 18 -7.5t8 -18.5q0 -10 -8 -18t-18 -8q-11 0 -18.5 8zM399.5 799q-7.5 8 -7.5 18q0 11 7.5 18.5
t18.5 7.5q10 0 18 -7.5t8 -18.5q0 -10 -8 -18t-18 -8q-11 0 -18.5 8z" />
    <glyph glyph-name="Edotaccent.ss01" horiz-adv-x="614" 
d="M590 92q-40 -45 -109.5 -70t-156.5 -25q-125 0 -192 51.5t-67 135.5q0 70 44.5 114.5t120.5 57.5q-65 16 -100 58.5t-35 106.5q0 51 28 92.5t83 65.5t133 24q62 0 119.5 -16t97.5 -44l-10 -16q-91 57 -206 57q-109 0 -167 -45.5t-58 -118.5q0 -74 50.5 -114.5
t139.5 -40.5h164v-19h-163q-101 0 -161 -40.5t-60 -120.5q0 -78 61 -123.5t179 -45.5q81 0 146.5 23.5t103.5 65.5zM317.5 799q-7.5 8 -7.5 18q0 11 7.5 18.5t18.5 7.5q10 0 18 -7.5t8 -18.5q0 -10 -8 -18t-18 -8q-11 0 -18.5 8z" />
    <glyph glyph-name="uni1EB8.ss01" horiz-adv-x="614" 
d="M590 92q-40 -45 -109.5 -70t-156.5 -25q-125 0 -192 51.5t-67 135.5q0 70 44.5 114.5t120.5 57.5q-65 16 -100 58.5t-35 106.5q0 51 28 92.5t83 65.5t133 24q62 0 119.5 -16t97.5 -44l-10 -16q-91 57 -206 57q-109 0 -167 -45.5t-58 -118.5q0 -74 50.5 -114.5
t139.5 -40.5h164v-19h-163q-101 0 -161 -40.5t-60 -120.5q0 -78 61 -123.5t179 -45.5q81 0 146.5 23.5t103.5 65.5zM317.5 -168.5q-7.5 7.5 -7.5 18.5q0 10 7.5 18t18.5 8q10 0 18 -8t8 -18q0 -11 -8 -18.5t-18 -7.5q-11 0 -18.5 7.5z" />
    <glyph glyph-name="Egrave.ss01" horiz-adv-x="614" 
d="M590 92q-40 -45 -109.5 -70t-156.5 -25q-125 0 -192 51.5t-67 135.5q0 70 44.5 114.5t120.5 57.5q-65 16 -100 58.5t-35 106.5q0 51 28 92.5t83 65.5t133 24q62 0 119.5 -16t97.5 -44l-10 -16q-91 57 -206 57q-109 0 -167 -45.5t-58 -118.5q0 -74 50.5 -114.5
t139.5 -40.5h164v-19h-163q-101 0 -161 -40.5t-60 -120.5q0 -78 61 -123.5t179 -45.5q81 0 146.5 23.5t103.5 65.5zM201 867h40l140 -110h-30z" />
    <glyph glyph-name="uni1EBA.ss01" horiz-adv-x="614" 
d="M590 92q-40 -45 -109.5 -70t-156.5 -25q-125 0 -192 51.5t-67 135.5q0 70 44.5 114.5t120.5 57.5q-65 16 -100 58.5t-35 106.5q0 51 28 92.5t83 65.5t133 24q62 0 119.5 -16t97.5 -44l-10 -16q-91 57 -206 57q-109 0 -167 -45.5t-58 -118.5q0 -74 50.5 -114.5
t139.5 -40.5h164v-19h-163q-101 0 -161 -40.5t-60 -120.5q0 -78 61 -123.5t179 -45.5q81 0 146.5 23.5t103.5 65.5zM328 769q63 28 63 77q0 23 -16.5 38.5t-41.5 15.5q-33 0 -62 -19l-8 17q13 10 32 15.5t37 5.5q36 0 57.5 -19.5t21.5 -52.5q0 -30 -18 -53t-55 -41z" />
    <glyph glyph-name="uni0206.ss01" horiz-adv-x="614" 
d="M590 92q-40 -45 -109.5 -70t-156.5 -25q-125 0 -192 51.5t-67 135.5q0 70 44.5 114.5t120.5 57.5q-65 16 -100 58.5t-35 106.5q0 51 28 92.5t83 65.5t133 24q62 0 119.5 -16t97.5 -44l-10 -16q-91 57 -206 57q-109 0 -167 -45.5t-58 -118.5q0 -74 50.5 -114.5
t139.5 -40.5h164v-19h-163q-101 0 -161 -40.5t-60 -120.5q0 -78 61 -123.5t179 -45.5q81 0 146.5 23.5t103.5 65.5zM243 839q38 31 93 31t93 -31t39 -82h-19q-1 43 -33 68.5t-80 25.5t-80 -25.5t-33 -68.5h-19q1 51 39 82z" />
    <glyph glyph-name="Emacron.ss01" horiz-adv-x="614" 
d="M590 92q-40 -45 -109.5 -70t-156.5 -25q-125 0 -192 51.5t-67 135.5q0 70 44.5 114.5t120.5 57.5q-65 16 -100 58.5t-35 106.5q0 51 28 92.5t83 65.5t133 24q62 0 119.5 -16t97.5 -44l-10 -16q-91 57 -206 57q-109 0 -167 -45.5t-58 -118.5q0 -74 50.5 -114.5
t139.5 -40.5h164v-19h-163q-101 0 -161 -40.5t-60 -120.5q0 -78 61 -123.5t179 -45.5q81 0 146.5 23.5t103.5 65.5zM200 822h272v-20h-272v20z" />
    <glyph glyph-name="uni1E16.ss01" horiz-adv-x="614" 
d="M590 92q-40 -45 -109.5 -70t-156.5 -25q-125 0 -192 51.5t-67 135.5q0 70 44.5 114.5t120.5 57.5q-65 16 -100 58.5t-35 106.5q0 51 28 92.5t83 65.5t133 24q62 0 119.5 -16t97.5 -44l-10 -16q-91 57 -206 57q-109 0 -167 -45.5t-58 -118.5q0 -74 50.5 -114.5
t139.5 -40.5h164v-19h-163q-101 0 -161 -40.5t-60 -120.5q0 -78 61 -123.5t179 -45.5q81 0 146.5 23.5t103.5 65.5zM200 807h272v-20h-272v20zM418 970h40l-137 -100h-30z" />
    <glyph glyph-name="uni1E14.ss01" horiz-adv-x="614" 
d="M590 92q-40 -45 -109.5 -70t-156.5 -25q-125 0 -192 51.5t-67 135.5q0 70 44.5 114.5t120.5 57.5q-65 16 -100 58.5t-35 106.5q0 51 28 92.5t83 65.5t133 24q62 0 119.5 -16t97.5 -44l-10 -16q-91 57 -206 57q-109 0 -167 -45.5t-58 -118.5q0 -74 50.5 -114.5
t139.5 -40.5h164v-19h-163q-101 0 -161 -40.5t-60 -120.5q0 -78 61 -123.5t179 -45.5q81 0 146.5 23.5t103.5 65.5zM200 807h272v-20h-272v20zM214 970h40l127 -100h-30z" />
    <glyph glyph-name="Eogonek.ss01" horiz-adv-x="614" 
d="M570 -171l11 -15q-31 -27 -74 -27q-40 0 -65 23.5t-25 61.5q0 77 79 156q-75 -31 -172 -31q-125 0 -192 51.5t-67 135.5q0 70 44.5 114.5t120.5 57.5q-65 16 -100 58.5t-35 106.5q0 51 28 92.5t83 65.5t133 24q62 0 119.5 -16t97.5 -44l-10 -16q-91 57 -206 57
q-109 0 -167 -45.5t-58 -118.5q0 -74 50.5 -114.5t139.5 -40.5h164v-19h-163q-101 0 -161 -40.5t-60 -120.5q0 -78 61 -123.5t179 -45.5q78 0 144 24.5t106 64.5l14 -15q-89 -73 -120.5 -125t-31.5 -93q0 -31 19.5 -48.5t51.5 -17.5q37 0 62 23z" />
    <glyph glyph-name="uni1EBC.ss01" horiz-adv-x="614" 
d="M590 92q-40 -45 -109.5 -70t-156.5 -25q-125 0 -192 51.5t-67 135.5q0 70 44.5 114.5t120.5 57.5q-65 16 -100 58.5t-35 106.5q0 51 28 92.5t83 65.5t133 24q62 0 119.5 -16t97.5 -44l-10 -16q-91 57 -206 57q-109 0 -167 -45.5t-58 -118.5q0 -74 50.5 -114.5
t139.5 -40.5h164v-19h-163q-101 0 -161 -40.5t-60 -120.5q0 -78 61 -123.5t179 -45.5q81 0 146.5 23.5t103.5 65.5zM363.5 778.5q-15.5 9.5 -35.5 28.5q-16 15 -28.5 23t-26.5 8q-24 0 -38 -18t-16 -49h-19q2 39 21.5 62.5t51.5 23.5q20 0 35.5 -9.5t35.5 -28.5
q16 -15 28.5 -23t26.5 -8q24 0 38 17.5t16 47.5h19q-2 -38 -21.5 -61t-51.5 -23q-20 0 -35.5 9.5z" />
    <glyph glyph-name="F.ss01" horiz-adv-x="595" 
d="M202.5 631q-55.5 -53 -55.5 -152v-134h363v-19h-363v-326h-20v482q0 102 62 161.5t183 59.5q128 0 205 -61l-13 -16q-74 58 -192 58q-114 0 -169.5 -53z" />
    <glyph glyph-name="G.ss01" horiz-adv-x="774" 
d="M643 343h19v-343h-19v85q-47 -44 -108.5 -66t-126.5 -22q-90 0 -170 42t-129.5 122t-49.5 189q0 100 47 180.5t129.5 126.5t185.5 46q73 0 135 -22.5t106 -66.5l-12 -14q-88 84 -229 84q-96 0 -174.5 -44t-123 -120.5t-44.5 -169.5q0 -101 46 -177t121.5 -116.5
t161.5 -40.5q65 0 126.5 24t108.5 73v230z" />
    <glyph glyph-name="Gbreve.ss01" horiz-adv-x="774" 
d="M643 343h19v-343h-19v85q-47 -44 -108.5 -66t-126.5 -22q-90 0 -170 42t-129.5 122t-49.5 189q0 100 47 180.5t129.5 126.5t185.5 46q73 0 135 -22.5t106 -66.5l-12 -14q-88 84 -229 84q-96 0 -174.5 -44t-123 -120.5t-44.5 -169.5q0 -101 46 -177t121.5 -116.5
t161.5 -40.5q65 0 126.5 24t108.5 73v230zM309 785q-38 31 -39 82h19q1 -43 33 -68.5t80 -25.5t80 25.5t33 68.5h19q-1 -51 -39 -82t-93 -31t-93 31z" />
    <glyph glyph-name="Gcaron.ss01" horiz-adv-x="774" 
d="M643 343h19v-343h-19v85q-47 -44 -108.5 -66t-126.5 -22q-90 0 -170 42t-129.5 122t-49.5 189q0 100 47 180.5t129.5 126.5t185.5 46q73 0 135 -22.5t106 -66.5l-12 -14q-88 84 -229 84q-96 0 -174.5 -44t-123 -120.5t-44.5 -169.5q0 -101 46 -177t121.5 -116.5
t161.5 -40.5q65 0 126.5 24t108.5 73v230zM540 867l-122 -110h-32l-122 110h27l111 -93l111 93h27z" />
    <glyph glyph-name="Gcircumflex.ss01" horiz-adv-x="774" 
d="M643 343h19v-343h-19v85q-47 -44 -108.5 -66t-126.5 -22q-90 0 -170 42t-129.5 122t-49.5 189q0 100 47 180.5t129.5 126.5t185.5 46q73 0 135 -22.5t106 -66.5l-12 -14q-88 84 -229 84q-96 0 -174.5 -44t-123 -120.5t-44.5 -169.5q0 -101 46 -177t121.5 -116.5
t161.5 -40.5q65 0 126.5 24t108.5 73v230zM513 757l-111 93l-111 -93h-27l122 110h32l122 -110h-27z" />
    <glyph glyph-name="Gcommaaccent.ss01" horiz-adv-x="774" 
d="M643 343h19v-343h-19v85q-47 -44 -108.5 -66t-126.5 -22q-90 0 -170 42t-129.5 122t-49.5 189q0 100 47 180.5t129.5 126.5t185.5 46q73 0 135 -22.5t106 -66.5l-12 -14q-88 84 -229 84q-96 0 -174.5 -44t-123 -120.5t-44.5 -169.5q0 -101 46 -177t121.5 -116.5
t161.5 -40.5q65 0 126.5 24t108.5 73v230zM420.5 -132q7.5 -8 7.5 -18t-6 -32l-23 -77h-18l18 83q-10 2 -16.5 9t-6.5 17q0 11 7.5 18.5t18.5 7.5t18.5 -8z" />
    <glyph glyph-name="Gdotaccent.ss01" horiz-adv-x="774" 
d="M643 343h19v-343h-19v85q-47 -44 -108.5 -66t-126.5 -22q-90 0 -170 42t-129.5 122t-49.5 189q0 100 47 180.5t129.5 126.5t185.5 46q73 0 135 -22.5t106 -66.5l-12 -14q-88 84 -229 84q-96 0 -174.5 -44t-123 -120.5t-44.5 -169.5q0 -101 46 -177t121.5 -116.5
t161.5 -40.5q65 0 126.5 24t108.5 73v230zM383.5 799q-7.5 8 -7.5 18q0 11 7.5 18.5t18.5 7.5q10 0 18 -7.5t8 -18.5q0 -10 -8 -18t-18 -8q-11 0 -18.5 8z" />
    <glyph glyph-name="uni1E20.ss01" horiz-adv-x="774" 
d="M643 343h19v-343h-19v85q-47 -44 -108.5 -66t-126.5 -22q-90 0 -170 42t-129.5 122t-49.5 189q0 100 47 180.5t129.5 126.5t185.5 46q73 0 135 -22.5t106 -66.5l-12 -14q-88 84 -229 84q-96 0 -174.5 -44t-123 -120.5t-44.5 -169.5q0 -101 46 -177t121.5 -116.5
t161.5 -40.5q65 0 126.5 24t108.5 73v230zM266 822h272v-20h-272v20z" />
    <glyph glyph-name="uni01E4.ss01" horiz-adv-x="810" 
d="M643 343h19v-343h-19v85q-47 -44 -108.5 -66t-126.5 -22q-90 0 -170 42t-129.5 122t-49.5 189q0 100 47 180.5t129.5 126.5t185.5 46q73 0 135 -22.5t106 -66.5l-12 -14q-88 84 -229 84q-96 0 -174.5 -44t-123 -120.5t-44.5 -169.5q0 -101 46 -177t121.5 -116.5
t161.5 -40.5q65 0 126.5 24t108.5 73v230zM421 243h360v-19h-360v19z" />
    <glyph glyph-name="I.ss01" horiz-adv-x="422" 
d="M221 681v-662h154v-19h-328v19h154v662h-154v19h328v-19h-154z" />
    <glyph glyph-name="IJ.ss01" horiz-adv-x="714" 
d="M216 -85.5q-53 17.5 -96 47.5l12 16q40 -30 90.5 -46t105.5 -16q113 0 176 70t63 208v506h20v-507q0 -145 -69.5 -220.5t-190.5 -75.5q-58 0 -111 17.5zM127 700h20v-510h-20v510z" />
    <glyph glyph-name="Iacute.ss01" horiz-adv-x="422" 
d="M221 681v-662h154v-19h-328v19h154v662h-154v19h328v-19h-154zM306 867h40l-150 -110h-30z" />
    <glyph glyph-name="Iacute_J.loclNLD.ss01" horiz-adv-x="714" 
d="M262 867h40l-150 -110h-30zM704 867h40l-150 -110h-30zM216 -85.5q-53 17.5 -96 47.5l12 16q40 -30 90.5 -46t105.5 -16q113 0 176 70t63 208v506h20v-507q0 -145 -69.5 -220.5t-190.5 -75.5q-58 0 -111 17.5zM127 700h20v-510h-20v510z" />
    <glyph glyph-name="Ibreve.ss01" horiz-adv-x="422" 
d="M221 681v-662h154v-19h-328v19h154v662h-154v19h328v-19h-154zM118 785q-38 31 -39 82h19q1 -43 33 -68.5t80 -25.5t80 25.5t33 68.5h19q-1 -51 -39 -82t-93 -31t-93 31z" />
    <glyph glyph-name="Icircumflex.ss01" horiz-adv-x="422" 
d="M221 681v-662h154v-19h-328v19h154v662h-154v19h328v-19h-154zM322 757l-111 93l-111 -93h-27l122 110h32l122 -110h-27z" />
    <glyph glyph-name="uni0208.ss01" horiz-adv-x="422" 
d="M221 681v-662h154v-19h-328v19h154v662h-154v19h328v-19h-154zM10 867h34l111 -110h-27zM149 867h34l111 -110h-27z" />
    <glyph glyph-name="Idieresis.ss01" horiz-adv-x="422" 
d="M221 681v-662h154v-19h-328v19h154v662h-154v19h328v-19h-154zM110.5 799q-7.5 8 -7.5 18q0 11 7.5 18.5t18.5 7.5q10 0 18 -7.5t8 -18.5q0 -10 -8 -18t-18 -8q-11 0 -18.5 8zM274.5 799q-7.5 8 -7.5 18q0 11 7.5 18.5t18.5 7.5q10 0 18 -7.5t8 -18.5q0 -10 -8 -18
t-18 -8q-11 0 -18.5 8z" />
    <glyph glyph-name="uni1E2E.ss01" horiz-adv-x="422" 
d="M221 681v-662h154v-19h-328v19h154v662h-154v19h328v-19h-154zM110.5 799q-7.5 8 -7.5 18q0 11 7.5 18.5t18.5 7.5q10 0 18 -7.5t8 -18.5q0 -10 -8 -18t-18 -8q-11 0 -18.5 8zM274.5 799q-7.5 8 -7.5 18q0 11 7.5 18.5t18.5 7.5q10 0 18 -7.5t8 -18.5q0 -10 -8 -18
t-18 -8q-11 0 -18.5 8zM293 970h40l-137 -100h-30z" />
    <glyph glyph-name="Idotaccent.ss01" horiz-adv-x="422" 
d="M221 681v-662h154v-19h-328v19h154v662h-154v19h328v-19h-154zM192.5 799q-7.5 8 -7.5 18q0 11 7.5 18.5t18.5 7.5q10 0 18 -7.5t8 -18.5q0 -10 -8 -18t-18 -8q-11 0 -18.5 8z" />
    <glyph glyph-name="uni1ECA.ss01" horiz-adv-x="422" 
d="M221 681v-662h154v-19h-328v19h154v662h-154v19h328v-19h-154zM192.5 -168.5q-7.5 7.5 -7.5 18.5q0 10 7.5 18t18.5 8q10 0 18 -8t8 -18q0 -11 -8 -18.5t-18 -7.5q-11 0 -18.5 7.5z" />
    <glyph glyph-name="Igrave.ss01" horiz-adv-x="422" 
d="M221 681v-662h154v-19h-328v19h154v662h-154v19h328v-19h-154zM76 867h40l140 -110h-30z" />
    <glyph glyph-name="uni1EC8.ss01" horiz-adv-x="422" 
d="M221 681v-662h154v-19h-328v19h154v662h-154v19h328v-19h-154zM203 769q63 28 63 77q0 23 -16.5 38.5t-41.5 15.5q-33 0 -62 -19l-8 17q13 10 32 15.5t37 5.5q36 0 57.5 -19.5t21.5 -52.5q0 -30 -18 -53t-55 -41z" />
    <glyph glyph-name="uni020A.ss01" horiz-adv-x="422" 
d="M221 681v-662h154v-19h-328v19h154v662h-154v19h328v-19h-154zM118 839q38 31 93 31t93 -31t39 -82h-19q-1 43 -33 68.5t-80 25.5t-80 -25.5t-33 -68.5h-19q1 51 39 82z" />
    <glyph glyph-name="Imacron.ss01" horiz-adv-x="422" 
d="M221 681v-662h154v-19h-328v19h154v662h-154v19h328v-19h-154zM75 822h272v-20h-272v20z" />
    <glyph glyph-name="Iogonek.ss01" horiz-adv-x="422" 
d="M221 681v-662h154v-19h-328v19h154v662h-154v19h328v-19h-154zM164.5 -191.5q-18.5 21.5 -18.5 56.5q0 83 67 152l8 -17q-35 -39 -45 -70t-10 -64q0 -29 13.5 -45t33.5 -16q23 0 40 20l11 -14q-19 -24 -51 -24q-30 0 -48.5 21.5z" />
    <glyph glyph-name="Itilde.ss01" horiz-adv-x="422" 
d="M221 681v-662h154v-19h-328v19h154v662h-154v19h328v-19h-154zM238.5 778.5q-15.5 9.5 -35.5 28.5q-16 15 -28.5 23t-26.5 8q-24 0 -38 -18t-16 -49h-19q2 39 21.5 62.5t51.5 23.5q20 0 35.5 -9.5t35.5 -28.5q16 -15 28.5 -23t26.5 -8q24 0 38 17.5t16 47.5h19
q-2 -38 -21.5 -61t-51.5 -23q-20 0 -35.5 9.5z" />
    <glyph glyph-name="J.ss01" horiz-adv-x="477" 
d="M78.5 -76.5q-46.5 26.5 -74.5 72.5l14 12q29 -44 70.5 -68t90.5 -24q77 0 114 44.5t37 135.5v585h-262v19h282v-606q0 -197 -172 -197q-53 0 -99.5 26.5z" />
    <glyph glyph-name="Jcircumflex.ss01" horiz-adv-x="477" 
d="M78.5 -76.5q-46.5 26.5 -74.5 72.5l14 12q29 -44 70.5 -68t90.5 -24q77 0 114 44.5t37 135.5v585h-262v19h282v-606q0 -197 -172 -197q-53 0 -99.5 26.5zM320 757l-111 93l-111 -93h-27l122 110h32l122 -110h-27z" />
    <glyph glyph-name="uni01C7.ss01" horiz-adv-x="1087" 
d="M133 700h20v-681h417v-19h-437v700zM688.5 -76.5q-46.5 26.5 -74.5 72.5l14 12q29 -44 70.5 -68t90.5 -24q77 0 114 44.5t37 135.5v585h-262v19h282v-606q0 -197 -172 -197q-53 0 -99.5 26.5z" />
    <glyph glyph-name="M.ss01" horiz-adv-x="1224" 
d="M1032 636q65 -67 65 -194v-442h-20v441q0 121 -58.5 182t-168.5 61q-109 0 -167.5 -65t-58.5 -198v-421h-20v441q0 121 -58.5 182t-167.5 61t-167 -64.5t-58 -198.5v-421h-20v700h20v-149q52 152 226 152q93 0 154.5 -44t82.5 -131q24 89 84.5 132t150.5 43
q116 0 181 -67z" />
    <glyph glyph-name="uni1E42.ss01" horiz-adv-x="1224" 
d="M1032 636q65 -67 65 -194v-442h-20v441q0 121 -58.5 182t-168.5 61q-109 0 -167.5 -65t-58.5 -198v-421h-20v441q0 121 -58.5 182t-167.5 61t-167 -64.5t-58 -198.5v-421h-20v700h20v-149q52 152 226 152q93 0 154.5 -44t82.5 -131q24 89 84.5 132t150.5 43
q116 0 181 -67zM595.5 -168.5q-7.5 7.5 -7.5 18.5q0 10 7.5 18t18.5 8q10 0 18 -8t8 -18q0 -11 -8 -18.5t-18 -7.5q-11 0 -18.5 7.5z" />
    <glyph glyph-name="N.ss01" horiz-adv-x="800" 
d="M601.5 630.5q71.5 -72.5 71.5 -208.5v-422h-20v421q0 129 -65 196t-185 67q-121 0 -185.5 -70.5t-64.5 -212.5v-401h-20v700h20v-167q27 84 91.5 127t159.5 43q126 0 197.5 -72.5z" />
    <glyph glyph-name="uni01CA.ss01" horiz-adv-x="1277" 
d="M601.5 630.5q71.5 -72.5 71.5 -208.5v-422h-20v421q0 129 -65 196t-185 67q-121 0 -185.5 -70.5t-64.5 -212.5v-401h-20v700h20v-167q27 84 91.5 127t159.5 43q126 0 197.5 -72.5zM878.5 -76.5q-46.5 26.5 -74.5 72.5l14 12q29 -44 70.5 -68t90.5 -24q77 0 114 44.5
t37 135.5v585h-262v19h282v-606q0 -197 -172 -197q-53 0 -99.5 26.5z" />
    <glyph glyph-name="Nacute.ss01" horiz-adv-x="800" 
d="M601.5 630.5q71.5 -72.5 71.5 -208.5v-422h-20v421q0 129 -65 196t-185 67q-121 0 -185.5 -70.5t-64.5 -212.5v-401h-20v700h20v-167q27 84 91.5 127t159.5 43q126 0 197.5 -72.5zM498 867h40l-150 -110h-30z" />
    <glyph glyph-name="Ncaron.ss01" horiz-adv-x="800" 
d="M601.5 630.5q71.5 -72.5 71.5 -208.5v-422h-20v421q0 129 -65 196t-185 67q-121 0 -185.5 -70.5t-64.5 -212.5v-401h-20v700h20v-167q27 84 91.5 127t159.5 43q126 0 197.5 -72.5zM541 867l-122 -110h-32l-122 110h27l111 -93l111 93h27z" />
    <glyph glyph-name="Ncommaaccent.ss01" horiz-adv-x="800" 
d="M601.5 630.5q71.5 -72.5 71.5 -208.5v-422h-20v421q0 129 -65 196t-185 67q-121 0 -185.5 -70.5t-64.5 -212.5v-401h-20v700h20v-167q27 84 91.5 127t159.5 43q126 0 197.5 -72.5zM419.5 -132q7.5 -8 7.5 -18t-6 -32l-23 -77h-18l18 83q-10 2 -16.5 9t-6.5 17
q0 11 7.5 18.5t18.5 7.5t18.5 -8z" />
    <glyph glyph-name="uni1E44.ss01" horiz-adv-x="800" 
d="M601.5 630.5q71.5 -72.5 71.5 -208.5v-422h-20v421q0 129 -65 196t-185 67q-121 0 -185.5 -70.5t-64.5 -212.5v-401h-20v700h20v-167q27 84 91.5 127t159.5 43q126 0 197.5 -72.5zM384.5 799q-7.5 8 -7.5 18q0 11 7.5 18.5t18.5 7.5q10 0 18 -7.5t8 -18.5q0 -10 -8 -18
t-18 -8q-11 0 -18.5 8z" />
    <glyph glyph-name="uni1E46.ss01" horiz-adv-x="800" 
d="M601.5 630.5q71.5 -72.5 71.5 -208.5v-422h-20v421q0 129 -65 196t-185 67q-121 0 -185.5 -70.5t-64.5 -212.5v-401h-20v700h20v-167q27 84 91.5 127t159.5 43q126 0 197.5 -72.5zM382.5 -168.5q-7.5 7.5 -7.5 18.5q0 10 7.5 18t18.5 8q10 0 18 -8t8 -18q0 -11 -8 -18.5
t-18 -7.5q-11 0 -18.5 7.5z" />
    <glyph glyph-name="Eng.ss01" horiz-adv-x="800" 
d="M601.5 630.5q71.5 -72.5 71.5 -208.5v-422q0 -197 -172 -197q-53 0 -99.5 26.5t-74.5 72.5l14 12q29 -44 70.5 -68t90.5 -24q77 0 114 44.5t37 135.5v419q0 129 -65 196t-185 67q-121 0 -185.5 -70.5t-64.5 -212.5v-401h-20v700h20v-167q27 84 91.5 127t159.5 43
q126 0 197.5 -72.5z" />
    <glyph glyph-name="uni01CB.ss01" horiz-adv-x="1055" 
d="M601.5 630.5q71.5 -72.5 71.5 -208.5v-422h-20v421q0 129 -65 196t-185 67q-121 0 -185.5 -70.5t-64.5 -212.5v-401h-20v700h20v-167q27 84 91.5 127t159.5 43q126 0 197.5 -72.5zM759 -187.5q-28 9.5 -45 27.5l14 14q34 -32 89 -32q50 0 76.5 29t26.5 84v582h20v-587
q0 -58 -32 -92.5t-90 -34.5q-31 0 -59 9.5zM911.5 668q-7.5 8 -7.5 18q0 11 7.5 18.5t18.5 7.5q10 0 18 -7.5t8 -18.5q0 -10 -8 -18t-18 -8q-11 0 -18.5 8z" />
    <glyph glyph-name="uni1E48.ss01" horiz-adv-x="800" 
d="M601.5 630.5q71.5 -72.5 71.5 -208.5v-422h-20v421q0 129 -65 196t-185 67q-121 0 -185.5 -70.5t-64.5 -212.5v-401h-20v700h20v-167q27 84 91.5 127t159.5 43q126 0 197.5 -72.5zM265 -140h272v-20h-272v20z" />
    <glyph glyph-name="Ntilde.ss01" horiz-adv-x="800" 
d="M601.5 630.5q71.5 -72.5 71.5 -208.5v-422h-20v421q0 129 -65 196t-185 67q-121 0 -185.5 -70.5t-64.5 -212.5v-401h-20v700h20v-167q27 84 91.5 127t159.5 43q126 0 197.5 -72.5zM430.5 778.5q-15.5 9.5 -35.5 28.5q-16 15 -28.5 23t-26.5 8q-24 0 -38 -18t-16 -49h-19
q2 39 21.5 62.5t51.5 23.5q20 0 35.5 -9.5t35.5 -28.5q16 -15 28.5 -23t26.5 -8q24 0 38 17.5t16 47.5h19q-2 -38 -21.5 -61t-51.5 -23q-20 0 -35.5 9.5z" />
    <glyph glyph-name="Q.ss01" horiz-adv-x="836" 
d="M731.5 172.5q-45.5 -79.5 -125 -126.5t-178.5 -49v-132h-20v132q-99 2 -178.5 49t-125 126.5t-45.5 177.5q0 100 47 180.5t129 126.5t183 46t183 -46t129 -126.5t47 -180.5q0 -98 -45.5 -177.5zM596 62.5q75 44.5 118 120t43 167.5q0 93 -44.5 169.5t-122 120.5
t-172.5 44t-172.5 -44t-122 -120.5t-44.5 -169.5q0 -92 43 -167.5t118 -120t168 -46.5v189h20v-189q93 2 168 46.5z" />
    <glyph glyph-name="uni018F.ss01" horiz-adv-x="816" 
d="M581 657q82 -46 129 -126.5t47 -179.5q0 -96 -47 -177t-127 -129t-175 -48q-107 0 -191.5 54t-125.5 145l629 263q-22 66 -69 117t-112.5 79.5t-140.5 28.5q-137 0 -231 -81l-11 15q47 42 109 63.5t133 21.5q101 0 183 -46zM572 60.5q76 44.5 120.5 120.5t44.5 168v2
q0 48 -12 90l-607 -254q42 -80 118 -125.5t172 -45.5q88 0 164 44.5z" />
    <glyph glyph-name="T.ss01" horiz-adv-x="548" 
d="M534 615q-56 34 -120.5 50.5t-129.5 18.5v-684h-20v684q-64 -1 -128 -18t-122 -51l-10 16q123 72 269 72q148 0 271 -72z" />
    <glyph glyph-name="Tbar.ss01" horiz-adv-x="548" 
d="M534 615q-56 34 -120.5 50.5t-129.5 18.5v-684h-20v684q-64 -1 -128 -18t-122 -51l-10 16q123 72 269 72q148 0 271 -72zM94 359h360v-19h-360v19z" />
    <glyph glyph-name="Tcaron.ss01" horiz-adv-x="548" 
d="M534 615q-56 34 -120.5 50.5t-129.5 18.5v-684h-20v684q-64 -1 -128 -18t-122 -51l-10 16q123 72 269 72q148 0 271 -72zM412 866l-122 -110h-32l-122 110h27l111 -93l111 93h27z" />
    <glyph glyph-name="uni0162.ss01" horiz-adv-x="548" 
d="M534 615q-56 34 -120.5 50.5t-129.5 18.5v-684h-20v684q-64 -1 -128 -18t-122 -51l-10 16q123 72 269 72q148 0 271 -72zM184 -186l11 15q25 -23 62 -23q32 0 52 16t20 44q0 27 -19 43.5t-52 16.5h-16l22 79h19l-17 -61q38 -2 60.5 -23t22.5 -55q0 -36 -25.5 -57.5
t-65.5 -21.5q-43 0 -74 27z" />
    <glyph glyph-name="uni021A.ss01" horiz-adv-x="548" 
d="M534 615q-56 34 -120.5 50.5t-129.5 18.5v-684h-20v684q-64 -1 -128 -18t-122 -51l-10 16q123 72 269 72q148 0 271 -72zM292.5 -132q7.5 -8 7.5 -18t-6 -32l-23 -77h-18l18 83q-10 2 -16.5 9t-6.5 17q0 11 7.5 18.5t18.5 7.5t18.5 -8z" />
    <glyph glyph-name="uni1E6C.ss01" horiz-adv-x="548" 
d="M534 615q-56 34 -120.5 50.5t-129.5 18.5v-684h-20v684q-64 -1 -128 -18t-122 -51l-10 16q123 72 269 72q148 0 271 -72zM255.5 -168.5q-7.5 7.5 -7.5 18.5q0 10 7.5 18t18.5 8q10 0 18 -8t8 -18q0 -11 -8 -18.5t-18 -7.5q-11 0 -18.5 7.5z" />
    <glyph glyph-name="uni1E6E.ss01" horiz-adv-x="548" 
d="M534 615q-56 34 -120.5 50.5t-129.5 18.5v-684h-20v684q-64 -1 -128 -18t-122 -51l-10 16q123 72 269 72q148 0 271 -72zM138 -140h272v-20h-272v20z" />
    <glyph glyph-name="U.ss01" horiz-adv-x="796" 
d="M663 700v-700h-20v167q-27 -84 -91 -127t-158 -43q-125 0 -196 73t-71 208v422h20v-421q0 -129 64.5 -196t183.5 -67q120 0 184 70.5t64 212.5v401h20z" />
    <glyph glyph-name="Uacute.ss01" horiz-adv-x="796" 
d="M663 700v-700h-20v167q-27 -84 -91 -127t-158 -43q-125 0 -196 73t-71 208v422h20v-421q0 -129 64.5 -196t183.5 -67q120 0 184 70.5t64 212.5v401h20zM488 867h40l-150 -110h-30z" />
    <glyph glyph-name="Ubreve.ss01" horiz-adv-x="796" 
d="M663 700v-700h-20v167q-27 -84 -91 -127t-158 -43q-125 0 -196 73t-71 208v422h20v-421q0 -129 64.5 -196t183.5 -67q120 0 184 70.5t64 212.5v401h20zM300 785q-38 31 -39 82h19q1 -43 33 -68.5t80 -25.5t80 25.5t33 68.5h19q-1 -51 -39 -82t-93 -31t-93 31z" />
    <glyph glyph-name="uni01D3.ss01" horiz-adv-x="796" 
d="M663 700v-700h-20v167q-27 -84 -91 -127t-158 -43q-125 0 -196 73t-71 208v422h20v-421q0 -129 64.5 -196t183.5 -67q120 0 184 70.5t64 212.5v401h20zM531 867l-122 -110h-32l-122 110h27l111 -93l111 93h27z" />
    <glyph glyph-name="Ucircumflex.ss01" horiz-adv-x="796" 
d="M663 700v-700h-20v167q-27 -84 -91 -127t-158 -43q-125 0 -196 73t-71 208v422h20v-421q0 -129 64.5 -196t183.5 -67q120 0 184 70.5t64 212.5v401h20zM504 757l-111 93l-111 -93h-27l122 110h32l122 -110h-27z" />
    <glyph glyph-name="uni0214.ss01" horiz-adv-x="796" 
d="M663 700v-700h-20v167q-27 -84 -91 -127t-158 -43q-125 0 -196 73t-71 208v422h20v-421q0 -129 64.5 -196t183.5 -67q120 0 184 70.5t64 212.5v401h20zM192 867h34l111 -110h-27zM331 867h34l111 -110h-27z" />
    <glyph glyph-name="Udieresis.ss01" horiz-adv-x="796" 
d="M663 700v-700h-20v167q-27 -84 -91 -127t-158 -43q-125 0 -196 73t-71 208v422h20v-421q0 -129 64.5 -196t183.5 -67q120 0 184 70.5t64 212.5v401h20zM292.5 799q-7.5 8 -7.5 18q0 11 7.5 18.5t18.5 7.5q10 0 18 -7.5t8 -18.5q0 -10 -8 -18t-18 -8q-11 0 -18.5 8z
M456.5 799q-7.5 8 -7.5 18q0 11 7.5 18.5t18.5 7.5q10 0 18 -7.5t8 -18.5q0 -10 -8 -18t-18 -8q-11 0 -18.5 8z" />
    <glyph glyph-name="uni1EE4.ss01" horiz-adv-x="796" 
d="M663 700v-700h-20v167q-27 -84 -91 -127t-158 -43q-125 0 -196 73t-71 208v422h20v-421q0 -129 64.5 -196t183.5 -67q120 0 184 70.5t64 212.5v401h20zM374.5 -168.5q-7.5 7.5 -7.5 18.5q0 10 7.5 18t18.5 8q10 0 18 -8t8 -18q0 -11 -8 -18.5t-18 -7.5q-11 0 -18.5 7.5z
" />
    <glyph glyph-name="Ugrave.ss01" horiz-adv-x="796" 
d="M663 700v-700h-20v167q-27 -84 -91 -127t-158 -43q-125 0 -196 73t-71 208v422h20v-421q0 -129 64.5 -196t183.5 -67q120 0 184 70.5t64 212.5v401h20zM258 867h40l140 -110h-30z" />
    <glyph glyph-name="uni1EE6.ss01" horiz-adv-x="796" 
d="M663 700v-700h-20v167q-27 -84 -91 -127t-158 -43q-125 0 -196 73t-71 208v422h20v-421q0 -129 64.5 -196t183.5 -67q120 0 184 70.5t64 212.5v401h20zM385 769q63 28 63 77q0 23 -16.5 38.5t-41.5 15.5q-33 0 -62 -19l-8 17q13 10 32 15.5t37 5.5q36 0 57.5 -19.5
t21.5 -52.5q0 -30 -18 -53t-55 -41z" />
    <glyph glyph-name="Uhorn.ss01" horiz-adv-x="796" 
d="M663 700v-700h-20v167q-27 -84 -91 -127t-158 -43q-125 0 -196 73t-71 208v422h20v-421q0 -129 64.5 -196t183.5 -67q120 0 184 70.5t64 212.5v401h20zM658 700h10q36 0 53 19.5t17 50.5q0 32 -20 67l18 8q10 -15 16 -35t6 -39q0 -40 -22 -65t-68 -25h-10v19z" />
    <glyph glyph-name="uni1EE8.ss01" horiz-adv-x="796" 
d="M663 700v-700h-20v167q-27 -84 -91 -127t-158 -43q-125 0 -196 73t-71 208v422h20v-421q0 -129 64.5 -196t183.5 -67q120 0 184 70.5t64 212.5v401h20zM658 700h10q36 0 53 19.5t17 50.5q0 32 -20 67l18 8q10 -15 16 -35t6 -39q0 -40 -22 -65t-68 -25h-10v19zM488 867h40
l-150 -110h-30z" />
    <glyph glyph-name="uni1EF0.ss01" horiz-adv-x="796" 
d="M663 700v-700h-20v167q-27 -84 -91 -127t-158 -43q-125 0 -196 73t-71 208v422h20v-421q0 -129 64.5 -196t183.5 -67q120 0 184 70.5t64 212.5v401h20zM658 700h10q36 0 53 19.5t17 50.5q0 32 -20 67l18 8q10 -15 16 -35t6 -39q0 -40 -22 -65t-68 -25h-10v19z
M374.5 -168.5q-7.5 7.5 -7.5 18.5q0 10 7.5 18t18.5 8q10 0 18 -8t8 -18q0 -11 -8 -18.5t-18 -7.5q-11 0 -18.5 7.5z" />
    <glyph glyph-name="uni1EEA.ss01" horiz-adv-x="796" 
d="M663 700v-700h-20v167q-27 -84 -91 -127t-158 -43q-125 0 -196 73t-71 208v422h20v-421q0 -129 64.5 -196t183.5 -67q120 0 184 70.5t64 212.5v401h20zM658 700h10q36 0 53 19.5t17 50.5q0 32 -20 67l18 8q10 -15 16 -35t6 -39q0 -40 -22 -65t-68 -25h-10v19zM258 867h40
l140 -110h-30z" />
    <glyph glyph-name="uni1EEC.ss01" horiz-adv-x="796" 
d="M663 700v-700h-20v167q-27 -84 -91 -127t-158 -43q-125 0 -196 73t-71 208v422h20v-421q0 -129 64.5 -196t183.5 -67q120 0 184 70.5t64 212.5v401h20zM658 700h10q36 0 53 19.5t17 50.5q0 32 -20 67l18 8q10 -15 16 -35t6 -39q0 -40 -22 -65t-68 -25h-10v19zM385 769
q63 28 63 77q0 23 -16.5 38.5t-41.5 15.5q-33 0 -62 -19l-8 17q13 10 32 15.5t37 5.5q36 0 57.5 -19.5t21.5 -52.5q0 -30 -18 -53t-55 -41z" />
    <glyph glyph-name="uni1EEE.ss01" horiz-adv-x="796" 
d="M663 700v-700h-20v167q-27 -84 -91 -127t-158 -43q-125 0 -196 73t-71 208v422h20v-421q0 -129 64.5 -196t183.5 -67q120 0 184 70.5t64 212.5v401h20zM658 700h10q36 0 53 19.5t17 50.5q0 32 -20 67l18 8q10 -15 16 -35t6 -39q0 -40 -22 -65t-68 -25h-10v19z
M420.5 778.5q-15.5 9.5 -35.5 28.5q-16 15 -28.5 23t-26.5 8q-24 0 -38 -18t-16 -49h-19q2 39 21.5 62.5t51.5 23.5q20 0 35.5 -9.5t35.5 -28.5q16 -15 28.5 -23t26.5 -8q24 0 38 17.5t16 47.5h19q-2 -38 -21.5 -61t-51.5 -23q-20 0 -35.5 9.5z" />
    <glyph glyph-name="Uhungarumlaut.ss01" horiz-adv-x="796" 
d="M663 700v-700h-20v167q-27 -84 -91 -127t-158 -43q-125 0 -196 73t-71 208v422h20v-421q0 -129 64.5 -196t183.5 -67q120 0 184 70.5t64 212.5v401h20zM421 867h34l-118 -110h-27zM560 867h34l-118 -110h-27z" />
    <glyph glyph-name="uni0216.ss01" horiz-adv-x="796" 
d="M663 700v-700h-20v167q-27 -84 -91 -127t-158 -43q-125 0 -196 73t-71 208v422h20v-421q0 -129 64.5 -196t183.5 -67q120 0 184 70.5t64 212.5v401h20zM300 839q38 31 93 31t93 -31t39 -82h-19q-1 43 -33 68.5t-80 25.5t-80 -25.5t-33 -68.5h-19q1 51 39 82z" />
    <glyph glyph-name="Umacron.ss01" horiz-adv-x="796" 
d="M663 700v-700h-20v167q-27 -84 -91 -127t-158 -43q-125 0 -196 73t-71 208v422h20v-421q0 -129 64.5 -196t183.5 -67q120 0 184 70.5t64 212.5v401h20zM257 822h272v-20h-272v20z" />
    <glyph glyph-name="uni1E7A.ss01" horiz-adv-x="796" 
d="M663 700v-700h-20v167q-27 -84 -91 -127t-158 -43q-125 0 -196 73t-71 208v422h20v-421q0 -129 64.5 -196t183.5 -67q120 0 184 70.5t64 212.5v401h20zM257 808h272v-20h-272v20zM292.5 913q-7.5 8 -7.5 18q0 11 7.5 18.5t18.5 7.5q10 0 18 -7.5t8 -18.5q0 -10 -8 -18
t-18 -8q-11 0 -18.5 8zM456.5 913q-7.5 8 -7.5 18q0 11 7.5 18.5t18.5 7.5q10 0 18 -7.5t8 -18.5q0 -10 -8 -18t-18 -8q-11 0 -18.5 8z" />
    <glyph glyph-name="Uogonek.ss01" horiz-adv-x="796" 
d="M663 700v-700h-20v167q-27 -84 -91 -127t-158 -43q-125 0 -196 73t-71 208v422h20v-421q0 -129 64.5 -196t183.5 -67q120 0 184 70.5t64 212.5v401h20zM541.5 -190.5q-25.5 22.5 -25.5 60.5q0 85 137 146l10 -16q-74 -32 -100.5 -64.5t-26.5 -65.5q0 -31 20 -47.5
t52 -16.5q37 0 62 23l11 -15q-31 -27 -74 -27q-40 0 -65.5 22.5z" />
    <glyph glyph-name="Uring.ss01" horiz-adv-x="796" 
d="M663 700v-700h-20v167q-27 -84 -91 -127t-158 -43q-125 0 -196 73t-71 208v422h20v-421q0 -129 64.5 -196t183.5 -67q120 0 184 70.5t64 212.5v401h20zM326 806.5q-26 26.5 -26 63.5q0 38 26.5 65.5t65.5 27.5t66 -27.5t27 -65.5q0 -37 -26.5 -63.5t-66.5 -26.5t-66 26.5
zM444.5 819.5q20.5 20.5 20.5 50.5t-21 52t-52 22t-51.5 -21.5t-20.5 -52.5q0 -30 20 -50.5t52 -20.5t52.5 20.5z" />
    <glyph glyph-name="Utilde.ss01" horiz-adv-x="796" 
d="M663 700v-700h-20v167q-27 -84 -91 -127t-158 -43q-125 0 -196 73t-71 208v422h20v-421q0 -129 64.5 -196t183.5 -67q120 0 184 70.5t64 212.5v401h20zM420.5 778.5q-15.5 9.5 -35.5 28.5q-16 15 -28.5 23t-26.5 8q-24 0 -38 -18t-16 -49h-19q2 39 21.5 62.5t51.5 23.5
q20 0 35.5 -9.5t35.5 -28.5q16 -15 28.5 -23t26.5 -8q24 0 38 17.5t16 47.5h19q-2 -38 -21.5 -61t-51.5 -23q-20 0 -35.5 9.5z" />
    <glyph glyph-name="uni1E78.ss01" horiz-adv-x="796" 
d="M663 700v-700h-20v167q-27 -84 -91 -127t-158 -43q-125 0 -196 73t-71 208v422h20v-421q0 -129 64.5 -196t183.5 -67q120 0 184 70.5t64 212.5v401h20zM421 779q-14 7 -35 22q-16 12 -28.5 18.5t-25.5 6.5q-24 0 -38.5 -13.5t-15.5 -38.5h-19q1 32 21 51.5t52 19.5
q18 0 32.5 -7t35.5 -22q16 -12 28.5 -18.5t25.5 -6.5q24 0 38.5 13t15.5 37h19q-1 -31 -21 -50t-52 -19q-19 0 -33 7zM475 970h40l-137 -100h-30z" />
    <glyph glyph-name="W.ss01" horiz-adv-x="1210" 
d="M1083 700v-433q0 -134 -65 -202t-180 -68q-95 0 -155 47t-78 141q-18 -94 -78.5 -141t-154.5 -47q-116 0 -180.5 68t-64.5 202v433h20v-432q0 -128 58.5 -190t166.5 -62q107 0 165 62.5t58 189.5v432h20v-432q0 -128 57.5 -190t165.5 -62t166.5 62.5t58.5 189.5v432h20z
" />
    <glyph glyph-name="Wacute.ss01" horiz-adv-x="1210" 
d="M1083 700v-433q0 -134 -65 -202t-180 -68q-95 0 -155 47t-78 141q-18 -94 -78.5 -141t-154.5 -47q-116 0 -180.5 68t-64.5 202v433h20v-432q0 -128 58.5 -190t166.5 -62q107 0 165 62.5t58 189.5v432h20v-432q0 -128 57.5 -190t165.5 -62t166.5 62.5t58.5 189.5v432h20z
M700 867h40l-150 -110h-30z" />
    <glyph glyph-name="Wcircumflex.ss01" horiz-adv-x="1210" 
d="M1083 700v-433q0 -134 -65 -202t-180 -68q-95 0 -155 47t-78 141q-18 -94 -78.5 -141t-154.5 -47q-116 0 -180.5 68t-64.5 202v433h20v-432q0 -128 58.5 -190t166.5 -62q107 0 165 62.5t58 189.5v432h20v-432q0 -128 57.5 -190t165.5 -62t166.5 62.5t58.5 189.5v432h20z
M716 757l-111 93l-111 -93h-27l122 110h32l122 -110h-27z" />
    <glyph glyph-name="Wdieresis.ss01" horiz-adv-x="1210" 
d="M1083 700v-433q0 -134 -65 -202t-180 -68q-95 0 -155 47t-78 141q-18 -94 -78.5 -141t-154.5 -47q-116 0 -180.5 68t-64.5 202v433h20v-432q0 -128 58.5 -190t166.5 -62q107 0 165 62.5t58 189.5v432h20v-432q0 -128 57.5 -190t165.5 -62t166.5 62.5t58.5 189.5v432h20z
M504.5 799q-7.5 8 -7.5 18q0 11 7.5 18.5t18.5 7.5q10 0 18 -7.5t8 -18.5q0 -10 -8 -18t-18 -8q-11 0 -18.5 8zM668.5 799q-7.5 8 -7.5 18q0 11 7.5 18.5t18.5 7.5q10 0 18 -7.5t8 -18.5q0 -10 -8 -18t-18 -8q-11 0 -18.5 8z" />
    <glyph glyph-name="Wgrave.ss01" horiz-adv-x="1210" 
d="M1083 700v-433q0 -134 -65 -202t-180 -68q-95 0 -155 47t-78 141q-18 -94 -78.5 -141t-154.5 -47q-116 0 -180.5 68t-64.5 202v433h20v-432q0 -128 58.5 -190t166.5 -62q107 0 165 62.5t58 189.5v432h20v-432q0 -128 57.5 -190t165.5 -62t166.5 62.5t58.5 189.5v432h20z
M470 867h40l140 -110h-30z" />
    <glyph glyph-name="Y.ss01" horiz-adv-x="789" 
d="M662 700v-507q0 -146 -71 -221t-199 -75q-83 0 -148 30t-108 86l15 14q44 -56 103.5 -83.5t138.5 -27.5q120 0 184.5 70t64.5 208v157q-27 -84 -91.5 -127t-159.5 -43q-126 0 -197.5 72.5t-71.5 208.5v238h20v-237q0 -129 65 -196t185 -67q121 0 185.5 70.5t64.5 212.5
v217h20z" />
    <glyph glyph-name="Yacute.ss01" horiz-adv-x="789" 
d="M662 700v-507q0 -146 -71 -221t-199 -75q-83 0 -148 30t-108 86l15 14q44 -56 103.5 -83.5t138.5 -27.5q120 0 184.5 70t64.5 208v157q-27 -84 -91.5 -127t-159.5 -43q-126 0 -197.5 72.5t-71.5 208.5v238h20v-237q0 -129 65 -196t185 -67q121 0 185.5 70.5t64.5 212.5
v217h20zM487 867h40l-150 -110h-30z" />
    <glyph glyph-name="Ycircumflex.ss01" horiz-adv-x="789" 
d="M662 700v-507q0 -146 -71 -221t-199 -75q-83 0 -148 30t-108 86l15 14q44 -56 103.5 -83.5t138.5 -27.5q120 0 184.5 70t64.5 208v157q-27 -84 -91.5 -127t-159.5 -43q-126 0 -197.5 72.5t-71.5 208.5v238h20v-237q0 -129 65 -196t185 -67q121 0 185.5 70.5t64.5 212.5
v217h20zM503 757l-111 93l-111 -93h-27l122 110h32l122 -110h-27z" />
    <glyph glyph-name="Ydieresis.ss01" horiz-adv-x="789" 
d="M662 700v-507q0 -146 -71 -221t-199 -75q-83 0 -148 30t-108 86l15 14q44 -56 103.5 -83.5t138.5 -27.5q120 0 184.5 70t64.5 208v157q-27 -84 -91.5 -127t-159.5 -43q-126 0 -197.5 72.5t-71.5 208.5v238h20v-237q0 -129 65 -196t185 -67q121 0 185.5 70.5t64.5 212.5
v217h20zM291.5 799q-7.5 8 -7.5 18q0 11 7.5 18.5t18.5 7.5q10 0 18 -7.5t8 -18.5q0 -10 -8 -18t-18 -8q-11 0 -18.5 8zM455.5 799q-7.5 8 -7.5 18q0 11 7.5 18.5t18.5 7.5q10 0 18 -7.5t8 -18.5q0 -10 -8 -18t-18 -8q-11 0 -18.5 8z" />
    <glyph glyph-name="uni1E8E.ss01" horiz-adv-x="789" 
d="M662 700v-507q0 -146 -71 -221t-199 -75q-83 0 -148 30t-108 86l15 14q44 -56 103.5 -83.5t138.5 -27.5q120 0 184.5 70t64.5 208v157q-27 -84 -91.5 -127t-159.5 -43q-126 0 -197.5 72.5t-71.5 208.5v238h20v-237q0 -129 65 -196t185 -67q121 0 185.5 70.5t64.5 212.5
v217h20zM373.5 799q-7.5 8 -7.5 18q0 11 7.5 18.5t18.5 7.5q10 0 18 -7.5t8 -18.5q0 -10 -8 -18t-18 -8q-11 0 -18.5 8z" />
    <glyph glyph-name="uni1EF4.ss01" horiz-adv-x="789" 
d="M662 700v-507q0 -146 -71 -221t-199 -75q-83 0 -148 30t-108 86l15 14q44 -56 103.5 -83.5t138.5 -27.5q120 0 184.5 70t64.5 208v157q-27 -84 -91.5 -127t-159.5 -43q-126 0 -197.5 72.5t-71.5 208.5v238h20v-237q0 -129 65 -196t185 -67q121 0 185.5 70.5t64.5 212.5
v217h20zM633.5 -168.5q-7.5 7.5 -7.5 18.5q0 10 7.5 18t18.5 8q10 0 18 -8t8 -18q0 -11 -8 -18.5t-18 -7.5q-11 0 -18.5 7.5z" />
    <glyph glyph-name="Ygrave.ss01" horiz-adv-x="789" 
d="M662 700v-507q0 -146 -71 -221t-199 -75q-83 0 -148 30t-108 86l15 14q44 -56 103.5 -83.5t138.5 -27.5q120 0 184.5 70t64.5 208v157q-27 -84 -91.5 -127t-159.5 -43q-126 0 -197.5 72.5t-71.5 208.5v238h20v-237q0 -129 65 -196t185 -67q121 0 185.5 70.5t64.5 212.5
v217h20zM257 867h40l140 -110h-30z" />
    <glyph glyph-name="uni1EF6.ss01" horiz-adv-x="789" 
d="M662 700v-507q0 -146 -71 -221t-199 -75q-83 0 -148 30t-108 86l15 14q44 -56 103.5 -83.5t138.5 -27.5q120 0 184.5 70t64.5 208v157q-27 -84 -91.5 -127t-159.5 -43q-126 0 -197.5 72.5t-71.5 208.5v238h20v-237q0 -129 65 -196t185 -67q121 0 185.5 70.5t64.5 212.5
v217h20zM384 769q63 28 63 77q0 23 -16.5 38.5t-41.5 15.5q-33 0 -62 -19l-8 17q13 10 32 15.5t37 5.5q36 0 57.5 -19.5t21.5 -52.5q0 -30 -18 -53t-55 -41z" />
    <glyph glyph-name="uni0232.ss01" horiz-adv-x="789" 
d="M662 700v-507q0 -146 -71 -221t-199 -75q-83 0 -148 30t-108 86l15 14q44 -56 103.5 -83.5t138.5 -27.5q120 0 184.5 70t64.5 208v157q-27 -84 -91.5 -127t-159.5 -43q-126 0 -197.5 72.5t-71.5 208.5v238h20v-237q0 -129 65 -196t185 -67q121 0 185.5 70.5t64.5 212.5
v217h20zM256 822h272v-20h-272v20z" />
    <glyph glyph-name="uni1EF8.ss01" horiz-adv-x="789" 
d="M662 700v-507q0 -146 -71 -221t-199 -75q-83 0 -148 30t-108 86l15 14q44 -56 103.5 -83.5t138.5 -27.5q120 0 184.5 70t64.5 208v157q-27 -84 -91.5 -127t-159.5 -43q-126 0 -197.5 72.5t-71.5 208.5v238h20v-237q0 -129 65 -196t185 -67q121 0 185.5 70.5t64.5 212.5
v217h20zM419.5 778.5q-15.5 9.5 -35.5 28.5q-16 15 -28.5 23t-26.5 8q-24 0 -38 -18t-16 -49h-19q2 39 21.5 62.5t51.5 23.5q20 0 35.5 -9.5t35.5 -28.5q16 -15 28.5 -23t26.5 -8q24 0 38 17.5t16 47.5h19q-2 -38 -21.5 -61t-51.5 -23q-20 0 -35.5 9.5z" />
    <glyph glyph-name="Z.ss01" horiz-adv-x="649" 
d="M605 19v-19h-550v15l252 331h-186v19h200l241 316h-507v19h535v-15l-243 -320h174v-19h-189l-249 -327h522z" />
    <glyph glyph-name="Zacute.ss01" horiz-adv-x="649" 
d="M605 19v-19h-550v15l252 331h-186v19h200l241 316h-507v19h535v-15l-243 -320h174v-19h-189l-249 -327h522zM420 867h40l-150 -110h-30z" />
    <glyph glyph-name="Zcaron.ss01" horiz-adv-x="649" 
d="M605 19v-19h-550v15l252 331h-186v19h200l241 316h-507v19h535v-15l-243 -320h174v-19h-189l-249 -327h522zM463 867l-122 -110h-32l-122 110h27l111 -93l111 93h27z" />
    <glyph glyph-name="Zdotaccent.ss01" horiz-adv-x="649" 
d="M605 19v-19h-550v15l252 331h-186v19h200l241 316h-507v19h535v-15l-243 -320h174v-19h-189l-249 -327h522zM306.5 799q-7.5 8 -7.5 18q0 11 7.5 18.5t18.5 7.5q10 0 18 -7.5t8 -18.5q0 -10 -8 -18t-18 -8q-11 0 -18.5 8z" />
    <glyph glyph-name="uni1E92.ss01" horiz-adv-x="649" 
d="M605 19v-19h-550v15l252 331h-186v19h200l241 316h-507v19h535v-15l-243 -320h174v-19h-189l-249 -327h522zM316.5 -168.5q-7.5 7.5 -7.5 18.5q0 10 7.5 18t18.5 8q10 0 18 -8t8 -18q0 -11 -8 -18.5t-18 -7.5q-11 0 -18.5 7.5z" />
    <glyph glyph-name="a" unicode="a" horiz-adv-x="574" 
d="M417.5 473.5q47.5 -46.5 47.5 -134.5v-339h-20v110q-25 -53 -75.5 -83t-121.5 -30q-86 0 -134.5 39.5t-48.5 105.5q0 62 43.5 100.5t140.5 38.5h196v57q0 81 -41.5 122t-122.5 41q-56 0 -104.5 -19.5t-83.5 -52.5l-14 14q37 36 90 56.5t111 20.5q90 0 137.5 -46.5z
M445 148v114h-197q-84 0 -123.5 -32t-39.5 -87q0 -59 43 -93t120 -34q144 0 197 132z" />
    <glyph glyph-name="aacute" unicode="&#xe1;" horiz-adv-x="574" 
d="M417.5 473.5q47.5 -46.5 47.5 -134.5v-339h-20v110q-25 -53 -75.5 -83t-121.5 -30q-86 0 -134.5 39.5t-48.5 105.5q0 62 43.5 100.5t140.5 38.5h196v57q0 81 -41.5 122t-122.5 41q-56 0 -104.5 -19.5t-83.5 -52.5l-14 14q37 36 90 56.5t111 20.5q90 0 137.5 -46.5z
M445 148v114h-197q-84 0 -123.5 -32t-39.5 -87q0 -59 43 -93t120 -34q144 0 197 132zM368 717h40l-150 -110h-30z" />
    <glyph glyph-name="abreve" unicode="&#x103;" horiz-adv-x="574" 
d="M417.5 473.5q47.5 -46.5 47.5 -134.5v-339h-20v110q-25 -53 -75.5 -83t-121.5 -30q-86 0 -134.5 39.5t-48.5 105.5q0 62 43.5 100.5t140.5 38.5h196v57q0 81 -41.5 122t-122.5 41q-56 0 -104.5 -19.5t-83.5 -52.5l-14 14q37 36 90 56.5t111 20.5q90 0 137.5 -46.5z
M445 148v114h-197q-84 0 -123.5 -32t-39.5 -87q0 -59 43 -93t120 -34q144 0 197 132zM180 635q-38 31 -39 82h19q1 -43 33 -68.5t80 -25.5t80 25.5t33 68.5h19q-1 -51 -39 -82t-93 -31t-93 31z" />
    <glyph glyph-name="uni1EAF" unicode="&#x1eaf;" horiz-adv-x="574" 
d="M417.5 473.5q47.5 -46.5 47.5 -134.5v-339h-20v110q-25 -53 -75.5 -83t-121.5 -30q-86 0 -134.5 39.5t-48.5 105.5q0 62 43.5 100.5t140.5 38.5h196v57q0 81 -41.5 122t-122.5 41q-56 0 -104.5 -19.5t-83.5 -52.5l-14 14q37 36 90 56.5t111 20.5q90 0 137.5 -46.5z
M445 148v114h-197q-84 0 -123.5 -32t-39.5 -87q0 -59 43 -93t120 -34q144 0 197 132zM183.5 626q-35.5 22 -42.5 61h19q7 -31 36.5 -47.5t76.5 -16.5t76.5 16.5t36.5 47.5h19q-7 -39 -42.5 -61t-89.5 -22t-89.5 22zM355 801h40l-137 -100h-30z" />
    <glyph glyph-name="uni1EB7" unicode="&#x1eb7;" horiz-adv-x="574" 
d="M417.5 473.5q47.5 -46.5 47.5 -134.5v-339h-20v110q-25 -53 -75.5 -83t-121.5 -30q-86 0 -134.5 39.5t-48.5 105.5q0 62 43.5 100.5t140.5 38.5h196v57q0 81 -41.5 122t-122.5 41q-56 0 -104.5 -19.5t-83.5 -52.5l-14 14q37 36 90 56.5t111 20.5q90 0 137.5 -46.5z
M445 148v114h-197q-84 0 -123.5 -32t-39.5 -87q0 -59 43 -93t120 -34q144 0 197 132zM264.5 -168.5q-7.5 7.5 -7.5 18.5q0 10 7.5 18t18.5 8q10 0 18 -8t8 -18q0 -11 -8 -18.5t-18 -7.5q-11 0 -18.5 7.5zM180 635q-38 31 -39 82h19q1 -43 33 -68.5t80 -25.5t80 25.5t33 68.5
h19q-1 -51 -39 -82t-93 -31t-93 31z" />
    <glyph glyph-name="uni1EB1" unicode="&#x1eb1;" horiz-adv-x="574" 
d="M417.5 473.5q47.5 -46.5 47.5 -134.5v-339h-20v110q-25 -53 -75.5 -83t-121.5 -30q-86 0 -134.5 39.5t-48.5 105.5q0 62 43.5 100.5t140.5 38.5h196v57q0 81 -41.5 122t-122.5 41q-56 0 -104.5 -19.5t-83.5 -52.5l-14 14q37 36 90 56.5t111 20.5q90 0 137.5 -46.5z
M445 148v114h-197q-84 0 -123.5 -32t-39.5 -87q0 -59 43 -93t120 -34q144 0 197 132zM183.5 626q-35.5 22 -42.5 61h19q7 -31 36.5 -47.5t76.5 -16.5t76.5 16.5t36.5 47.5h19q-7 -39 -42.5 -61t-89.5 -22t-89.5 22zM151 801h40l127 -100h-30z" />
    <glyph glyph-name="uni1EB3" unicode="&#x1eb3;" horiz-adv-x="574" 
d="M417.5 473.5q47.5 -46.5 47.5 -134.5v-339h-20v110q-25 -53 -75.5 -83t-121.5 -30q-86 0 -134.5 39.5t-48.5 105.5q0 62 43.5 100.5t140.5 38.5h196v57q0 81 -41.5 122t-122.5 41q-56 0 -104.5 -19.5t-83.5 -52.5l-14 14q37 36 90 56.5t111 20.5q90 0 137.5 -46.5z
M445 148v114h-197q-84 0 -123.5 -32t-39.5 -87q0 -59 43 -93t120 -34q144 0 197 132zM183.5 626q-35.5 22 -42.5 61h19q7 -31 36.5 -47.5t76.5 -16.5t76.5 16.5t36.5 47.5h19q-7 -39 -42.5 -61t-89.5 -22t-89.5 22zM266 692q21 10 33 24.5t12 31.5q0 16 -11.5 26t-30.5 10
q-24 0 -43 -13l-8 16q22 16 52 16q28 0 44 -15t16 -40q0 -47 -54 -71z" />
    <glyph glyph-name="uni1EB5" unicode="&#x1eb5;" horiz-adv-x="574" 
d="M417.5 473.5q47.5 -46.5 47.5 -134.5v-339h-20v110q-25 -53 -75.5 -83t-121.5 -30q-86 0 -134.5 39.5t-48.5 105.5q0 62 43.5 100.5t140.5 38.5h196v57q0 81 -41.5 122t-122.5 41q-56 0 -104.5 -19.5t-83.5 -52.5l-14 14q37 36 90 56.5t111 20.5q90 0 137.5 -46.5z
M445 148v114h-197q-84 0 -123.5 -32t-39.5 -87q0 -59 43 -93t120 -34q144 0 197 132zM183.5 626q-35.5 22 -42.5 61h19q7 -31 36.5 -47.5t76.5 -16.5t76.5 16.5t36.5 47.5h19q-7 -39 -42.5 -61t-89.5 -22t-89.5 22zM301 723q-14 7 -35 22q-16 12 -28.5 18.5t-25.5 6.5
q-24 0 -38.5 -13.5t-15.5 -38.5h-19q1 32 21 51.5t52 19.5q18 0 32.5 -7t35.5 -22q16 -12 28.5 -18.5t25.5 -6.5q24 0 38.5 13t15.5 37h19q-1 -31 -21 -50t-52 -19q-19 0 -33 7z" />
    <glyph glyph-name="uni01CE" unicode="&#x1ce;" horiz-adv-x="574" 
d="M417.5 473.5q47.5 -46.5 47.5 -134.5v-339h-20v110q-25 -53 -75.5 -83t-121.5 -30q-86 0 -134.5 39.5t-48.5 105.5q0 62 43.5 100.5t140.5 38.5h196v57q0 81 -41.5 122t-122.5 41q-56 0 -104.5 -19.5t-83.5 -52.5l-14 14q37 36 90 56.5t111 20.5q90 0 137.5 -46.5z
M445 148v114h-197q-84 0 -123.5 -32t-39.5 -87q0 -59 43 -93t120 -34q144 0 197 132zM411 717l-122 -110h-32l-122 110h27l111 -93l111 93h27z" />
    <glyph glyph-name="acircumflex" unicode="&#xe2;" horiz-adv-x="574" 
d="M417.5 473.5q47.5 -46.5 47.5 -134.5v-339h-20v110q-25 -53 -75.5 -83t-121.5 -30q-86 0 -134.5 39.5t-48.5 105.5q0 62 43.5 100.5t140.5 38.5h196v57q0 81 -41.5 122t-122.5 41q-56 0 -104.5 -19.5t-83.5 -52.5l-14 14q37 36 90 56.5t111 20.5q90 0 137.5 -46.5z
M445 148v114h-197q-84 0 -123.5 -32t-39.5 -87q0 -59 43 -93t120 -34q144 0 197 132zM384 607l-111 93l-111 -93h-27l122 110h32l122 -110h-27z" />
    <glyph glyph-name="uni1EA5" unicode="&#x1ea5;" horiz-adv-x="574" 
d="M417.5 473.5q47.5 -46.5 47.5 -134.5v-339h-20v110q-25 -53 -75.5 -83t-121.5 -30q-86 0 -134.5 39.5t-48.5 105.5q0 62 43.5 100.5t140.5 38.5h196v57q0 81 -41.5 122t-122.5 41q-56 0 -104.5 -19.5t-83.5 -52.5l-14 14q37 36 90 56.5t111 20.5q90 0 137.5 -46.5z
M445 148v114h-197q-84 0 -123.5 -32t-39.5 -87q0 -59 43 -93t120 -34q144 0 197 132zM381 607l-108 64l-108 -64h-30l123 80h30l123 -80h-30zM475 782h40l-137 -100h-30z" />
    <glyph glyph-name="uni1EAD" unicode="&#x1ead;" horiz-adv-x="574" 
d="M417.5 473.5q47.5 -46.5 47.5 -134.5v-339h-20v110q-25 -53 -75.5 -83t-121.5 -30q-86 0 -134.5 39.5t-48.5 105.5q0 62 43.5 100.5t140.5 38.5h196v57q0 81 -41.5 122t-122.5 41q-56 0 -104.5 -19.5t-83.5 -52.5l-14 14q37 36 90 56.5t111 20.5q90 0 137.5 -46.5z
M445 148v114h-197q-84 0 -123.5 -32t-39.5 -87q0 -59 43 -93t120 -34q144 0 197 132zM264.5 -168.5q-7.5 7.5 -7.5 18.5q0 10 7.5 18t18.5 8q10 0 18 -8t8 -18q0 -11 -8 -18.5t-18 -7.5q-11 0 -18.5 7.5zM384 607l-111 93l-111 -93h-27l122 110h32l122 -110h-27z" />
    <glyph glyph-name="uni1EA7" unicode="&#x1ea7;" horiz-adv-x="574" 
d="M417.5 473.5q47.5 -46.5 47.5 -134.5v-339h-20v110q-25 -53 -75.5 -83t-121.5 -30q-86 0 -134.5 39.5t-48.5 105.5q0 62 43.5 100.5t140.5 38.5h196v57q0 81 -41.5 122t-122.5 41q-56 0 -104.5 -19.5t-83.5 -52.5l-14 14q37 36 90 56.5t111 20.5q90 0 137.5 -46.5z
M445 148v114h-197q-84 0 -123.5 -32t-39.5 -87q0 -59 43 -93t120 -34q144 0 197 132zM381 607l-108 64l-108 -64h-30l123 80h30l123 -80h-30zM271 782h40l127 -100h-30z" />
    <glyph glyph-name="uni1EA9" unicode="&#x1ea9;" horiz-adv-x="574" 
d="M417.5 473.5q47.5 -46.5 47.5 -134.5v-339h-20v110q-25 -53 -75.5 -83t-121.5 -30q-86 0 -134.5 39.5t-48.5 105.5q0 62 43.5 100.5t140.5 38.5h196v57q0 81 -41.5 122t-122.5 41q-56 0 -104.5 -19.5t-83.5 -52.5l-14 14q37 36 90 56.5t111 20.5q90 0 137.5 -46.5z
M445 148v114h-197q-84 0 -123.5 -32t-39.5 -87q0 -59 43 -93t120 -34q144 0 197 132zM381 607l-108 64l-108 -64h-30l123 80h30l123 -80h-30zM366 683q21 10 33 24.5t12 31.5q0 16 -11.5 26t-30.5 10q-24 0 -43 -13l-8 16q22 16 52 16q28 0 44 -15t16 -40q0 -47 -54 -71z
" />
    <glyph glyph-name="uni1EAB" unicode="&#x1eab;" horiz-adv-x="574" 
d="M417.5 473.5q47.5 -46.5 47.5 -134.5v-339h-20v110q-25 -53 -75.5 -83t-121.5 -30q-86 0 -134.5 39.5t-48.5 105.5q0 62 43.5 100.5t140.5 38.5h196v57q0 81 -41.5 122t-122.5 41q-56 0 -104.5 -19.5t-83.5 -52.5l-14 14q37 36 90 56.5t111 20.5q90 0 137.5 -46.5z
M445 148v114h-197q-84 0 -123.5 -32t-39.5 -87q0 -59 43 -93t120 -34q144 0 197 132zM381 607l-108 64l-108 -64h-30l123 80h30l123 -80h-30zM301 727q-14 7 -35 22q-16 12 -28.5 18.5t-25.5 6.5q-24 0 -38.5 -13.5t-15.5 -38.5h-19q1 32 21 51.5t52 19.5q18 0 32.5 -7
t35.5 -22q16 -12 28.5 -18.5t25.5 -6.5q24 0 38.5 13t15.5 37h19q-1 -31 -21 -50t-52 -19q-19 0 -33 7z" />
    <glyph glyph-name="uni0201" unicode="&#x201;" horiz-adv-x="574" 
d="M417.5 473.5q47.5 -46.5 47.5 -134.5v-339h-20v110q-25 -53 -75.5 -83t-121.5 -30q-86 0 -134.5 39.5t-48.5 105.5q0 62 43.5 100.5t140.5 38.5h196v57q0 81 -41.5 122t-122.5 41q-56 0 -104.5 -19.5t-83.5 -52.5l-14 14q37 36 90 56.5t111 20.5q90 0 137.5 -46.5z
M445 148v114h-197q-84 0 -123.5 -32t-39.5 -87q0 -59 43 -93t120 -34q144 0 197 132zM72 717h34l111 -110h-27zM211 717h34l111 -110h-27z" />
    <glyph glyph-name="adieresis" unicode="&#xe4;" horiz-adv-x="574" 
d="M417.5 473.5q47.5 -46.5 47.5 -134.5v-339h-20v110q-25 -53 -75.5 -83t-121.5 -30q-86 0 -134.5 39.5t-48.5 105.5q0 62 43.5 100.5t140.5 38.5h196v57q0 81 -41.5 122t-122.5 41q-56 0 -104.5 -19.5t-83.5 -52.5l-14 14q37 36 90 56.5t111 20.5q90 0 137.5 -46.5z
M445 148v114h-197q-84 0 -123.5 -32t-39.5 -87q0 -59 43 -93t120 -34q144 0 197 132zM172.5 649q-7.5 8 -7.5 18q0 11 7.5 18.5t18.5 7.5q10 0 18 -7.5t8 -18.5q0 -10 -8 -18t-18 -8q-11 0 -18.5 8zM336.5 649q-7.5 8 -7.5 18q0 11 7.5 18.5t18.5 7.5q10 0 18 -7.5t8 -18.5
q0 -10 -8 -18t-18 -8q-11 0 -18.5 8z" />
    <glyph glyph-name="uni1EA1" unicode="&#x1ea1;" horiz-adv-x="574" 
d="M417.5 473.5q47.5 -46.5 47.5 -134.5v-339h-20v110q-25 -53 -75.5 -83t-121.5 -30q-86 0 -134.5 39.5t-48.5 105.5q0 62 43.5 100.5t140.5 38.5h196v57q0 81 -41.5 122t-122.5 41q-56 0 -104.5 -19.5t-83.5 -52.5l-14 14q37 36 90 56.5t111 20.5q90 0 137.5 -46.5z
M445 148v114h-197q-84 0 -123.5 -32t-39.5 -87q0 -59 43 -93t120 -34q144 0 197 132zM264.5 -168.5q-7.5 7.5 -7.5 18.5q0 10 7.5 18t18.5 8q10 0 18 -8t8 -18q0 -11 -8 -18.5t-18 -7.5q-11 0 -18.5 7.5z" />
    <glyph glyph-name="agrave" unicode="&#xe0;" horiz-adv-x="574" 
d="M417.5 473.5q47.5 -46.5 47.5 -134.5v-339h-20v110q-25 -53 -75.5 -83t-121.5 -30q-86 0 -134.5 39.5t-48.5 105.5q0 62 43.5 100.5t140.5 38.5h196v57q0 81 -41.5 122t-122.5 41q-56 0 -104.5 -19.5t-83.5 -52.5l-14 14q37 36 90 56.5t111 20.5q90 0 137.5 -46.5z
M445 148v114h-197q-84 0 -123.5 -32t-39.5 -87q0 -59 43 -93t120 -34q144 0 197 132zM138 717h40l140 -110h-30z" />
    <glyph glyph-name="uni1EA3" unicode="&#x1ea3;" horiz-adv-x="574" 
d="M417.5 473.5q47.5 -46.5 47.5 -134.5v-339h-20v110q-25 -53 -75.5 -83t-121.5 -30q-86 0 -134.5 39.5t-48.5 105.5q0 62 43.5 100.5t140.5 38.5h196v57q0 81 -41.5 122t-122.5 41q-56 0 -104.5 -19.5t-83.5 -52.5l-14 14q37 36 90 56.5t111 20.5q90 0 137.5 -46.5z
M445 148v114h-197q-84 0 -123.5 -32t-39.5 -87q0 -59 43 -93t120 -34q144 0 197 132zM265 619q63 28 63 77q0 23 -16.5 38.5t-41.5 15.5q-33 0 -62 -19l-8 17q13 10 32 15.5t37 5.5q36 0 57.5 -19.5t21.5 -52.5q0 -30 -18 -53t-55 -41z" />
    <glyph glyph-name="uni0203" unicode="&#x203;" horiz-adv-x="574" 
d="M417.5 473.5q47.5 -46.5 47.5 -134.5v-339h-20v110q-25 -53 -75.5 -83t-121.5 -30q-86 0 -134.5 39.5t-48.5 105.5q0 62 43.5 100.5t140.5 38.5h196v57q0 81 -41.5 122t-122.5 41q-56 0 -104.5 -19.5t-83.5 -52.5l-14 14q37 36 90 56.5t111 20.5q90 0 137.5 -46.5z
M445 148v114h-197q-84 0 -123.5 -32t-39.5 -87q0 -59 43 -93t120 -34q144 0 197 132zM180 689q38 31 93 31t93 -31t39 -82h-19q-1 43 -33 68.5t-80 25.5t-80 -25.5t-33 -68.5h-19q1 51 39 82z" />
    <glyph glyph-name="amacron" unicode="&#x101;" horiz-adv-x="574" 
d="M417.5 473.5q47.5 -46.5 47.5 -134.5v-339h-20v110q-25 -53 -75.5 -83t-121.5 -30q-86 0 -134.5 39.5t-48.5 105.5q0 62 43.5 100.5t140.5 38.5h196v57q0 81 -41.5 122t-122.5 41q-56 0 -104.5 -19.5t-83.5 -52.5l-14 14q37 36 90 56.5t111 20.5q90 0 137.5 -46.5z
M445 148v114h-197q-84 0 -123.5 -32t-39.5 -87q0 -59 43 -93t120 -34q144 0 197 132zM137 672h272v-20h-272v20z" />
    <glyph glyph-name="aogonek" unicode="&#x105;" horiz-adv-x="574" 
d="M417.5 473.5q47.5 -46.5 47.5 -134.5v-339h-20v110q-25 -53 -75.5 -83t-121.5 -30q-86 0 -134.5 39.5t-48.5 105.5q0 62 43.5 100.5t140.5 38.5h196v57q0 81 -41.5 122t-122.5 41q-56 0 -104.5 -19.5t-83.5 -52.5l-14 14q37 36 90 56.5t111 20.5q90 0 137.5 -46.5z
M445 148v114h-197q-84 0 -123.5 -32t-39.5 -87q0 -59 43 -93t120 -34q144 0 197 132zM343.5 -190.5q-25.5 22.5 -25.5 60.5q0 85 137 146l10 -16q-74 -32 -100.5 -64.5t-26.5 -65.5q0 -31 20 -47.5t52 -16.5q37 0 62 23l11 -15q-31 -27 -74 -27q-40 0 -65.5 22.5z" />
    <glyph glyph-name="aring" unicode="&#xe5;" horiz-adv-x="574" 
d="M417.5 473.5q47.5 -46.5 47.5 -134.5v-339h-20v110q-25 -53 -75.5 -83t-121.5 -30q-86 0 -134.5 39.5t-48.5 105.5q0 62 43.5 100.5t140.5 38.5h196v57q0 81 -41.5 122t-122.5 41q-56 0 -104.5 -19.5t-83.5 -52.5l-14 14q37 36 90 56.5t111 20.5q90 0 137.5 -46.5z
M445 148v114h-197q-84 0 -123.5 -32t-39.5 -87q0 -59 43 -93t120 -34q144 0 197 132zM206 623.5q-26 26.5 -26 63.5q0 38 26.5 65.5t65.5 27.5t66 -27.5t27 -65.5q0 -37 -26.5 -63.5t-66.5 -26.5t-66 26.5zM324.5 636.5q20.5 20.5 20.5 50.5t-21 52t-52 22t-51.5 -21.5
t-20.5 -52.5q0 -30 20 -50.5t52 -20.5t52.5 20.5z" />
    <glyph glyph-name="aringacute" unicode="&#x1fb;" horiz-adv-x="574" 
d="M417.5 473.5q47.5 -46.5 47.5 -134.5v-339h-20v110q-25 -53 -75.5 -83t-121.5 -30q-86 0 -134.5 39.5t-48.5 105.5q0 62 43.5 100.5t140.5 38.5h196v57q0 81 -41.5 122t-122.5 41q-56 0 -104.5 -19.5t-83.5 -52.5l-14 14q37 36 90 56.5t111 20.5q90 0 137.5 -46.5z
M445 148v114h-197q-84 0 -123.5 -32t-39.5 -87q0 -59 43 -93t120 -34q144 0 197 132zM343 748q22 -27 22 -61q0 -37 -26.5 -63.5t-66.5 -26.5t-66 26.5t-26 63.5q0 38 26.5 65.5t65.5 27.5q30 0 55 -18l81 76l17 -13zM324.5 636.5q20.5 20.5 20.5 50.5t-21 52t-52 22
t-51.5 -21.5t-20.5 -52.5q0 -30 20 -50.5t52 -20.5t52.5 20.5z" />
    <glyph glyph-name="atilde" unicode="&#xe3;" horiz-adv-x="574" 
d="M417.5 473.5q47.5 -46.5 47.5 -134.5v-339h-20v110q-25 -53 -75.5 -83t-121.5 -30q-86 0 -134.5 39.5t-48.5 105.5q0 62 43.5 100.5t140.5 38.5h196v57q0 81 -41.5 122t-122.5 41q-56 0 -104.5 -19.5t-83.5 -52.5l-14 14q37 36 90 56.5t111 20.5q90 0 137.5 -46.5z
M445 148v114h-197q-84 0 -123.5 -32t-39.5 -87q0 -59 43 -93t120 -34q144 0 197 132zM300.5 628.5q-15.5 9.5 -35.5 28.5q-16 15 -28.5 23t-26.5 8q-24 0 -38 -18t-16 -49h-19q2 39 21.5 62.5t51.5 23.5q20 0 35.5 -9.5t35.5 -28.5q16 -15 28.5 -23t26.5 -8q24 0 38 17.5
t16 47.5h19q-2 -38 -21.5 -61t-51.5 -23q-20 0 -35.5 9.5z" />
    <glyph glyph-name="ae" unicode="&#xe6;" horiz-adv-x="979" 
d="M465 261v-2q0 -70 31 -125.5t85.5 -86.5t122.5 -31q53 0 99 20t77 60l14 -14q-34 -41 -84 -63t-106 -22q-81 0 -146 42t-96 121q-15 -82 -73.5 -122.5t-140.5 -40.5q-86 0 -134.5 39.5t-48.5 105.5q0 61 43.5 99.5t140.5 38.5h196v58q0 81 -41.5 122t-122.5 41
q-56 0 -104.5 -19.5t-83.5 -52.5l-14 14q37 36 90 56.5t111 20.5q168 0 184 -156q27 71 86 113.5t135 42.5q67 0 122 -32.5t86.5 -90.5t31.5 -131v-5h-460zM576 472.5q-49 -28.5 -78 -79t-33 -113.5h441q-4 63 -33.5 113.5t-78.5 79t-109 28.5t-109 -28.5zM391 65
q54 49 54 137v59h-197q-84 0 -123.5 -32t-39.5 -86q0 -59 43 -93t120 -34q89 0 143 49z" />
    <glyph glyph-name="aeacute" unicode="&#x1fd;" horiz-adv-x="979" 
d="M465 261v-2q0 -70 31 -125.5t85.5 -86.5t122.5 -31q53 0 99 20t77 60l14 -14q-34 -41 -84 -63t-106 -22q-81 0 -146 42t-96 121q-15 -82 -73.5 -122.5t-140.5 -40.5q-86 0 -134.5 39.5t-48.5 105.5q0 61 43.5 99.5t140.5 38.5h196v58q0 81 -41.5 122t-122.5 41
q-56 0 -104.5 -19.5t-83.5 -52.5l-14 14q37 36 90 56.5t111 20.5q168 0 184 -156q27 71 86 113.5t135 42.5q67 0 122 -32.5t86.5 -90.5t31.5 -131v-5h-460zM576 472.5q-49 -28.5 -78 -79t-33 -113.5h441q-4 63 -33.5 113.5t-78.5 79t-109 28.5t-109 -28.5zM391 65
q54 49 54 137v59h-197q-84 0 -123.5 -32t-39.5 -86q0 -59 43 -93t120 -34q89 0 143 49zM550 717h40l-150 -110h-30z" />
    <glyph glyph-name="b" unicode="b" horiz-adv-x="671" 
d="M493.5 486.5q57.5 -33.5 90.5 -93t33 -134.5t-33 -135t-90.5 -93.5t-127.5 -33.5q-81 0 -143 43.5t-88 117.5v-158h-20v742h20v-382q26 73 88.5 116.5t142.5 43.5q70 0 127.5 -33.5zM484 47q53 31 83 86.5t30 125.5t-30 125.5t-83 86t-118 30.5t-118 -30.5t-83 -86
t-30 -125.5t30 -125.5t83 -86.5t118 -31t118 31z" />
    <glyph glyph-name="c" unicode="c" horiz-adv-x="545" 
d="M177 30.5q-58 33.5 -90.5 93t-32.5 135.5t32.5 135.5t90.5 92.5t131 33q57 0 105.5 -21.5t80.5 -62.5l-14 -15q-29 40 -74 60t-98 20q-67 0 -120.5 -30.5t-83.5 -86t-30 -125.5q0 -71 30 -126t83.5 -86t120.5 -31q53 0 98 20t74 60l14 -15q-32 -41 -80.5 -62.5
t-105.5 -21.5q-73 0 -131 33.5z" />
    <glyph glyph-name="cacute" unicode="&#x107;" horiz-adv-x="545" 
d="M177 30.5q-58 33.5 -90.5 93t-32.5 135.5t32.5 135.5t90.5 92.5t131 33q57 0 105.5 -21.5t80.5 -62.5l-14 -15q-29 40 -74 60t-98 20q-67 0 -120.5 -30.5t-83.5 -86t-30 -125.5q0 -71 30 -126t83.5 -86t120.5 -31q53 0 98 20t74 60l14 -15q-32 -41 -80.5 -62.5
t-105.5 -21.5q-73 0 -131 33.5zM386 717h40l-150 -110h-30z" />
    <glyph glyph-name="ccaron" unicode="&#x10d;" horiz-adv-x="545" 
d="M177 30.5q-58 33.5 -90.5 93t-32.5 135.5t32.5 135.5t90.5 92.5t131 33q57 0 105.5 -21.5t80.5 -62.5l-14 -15q-29 40 -74 60t-98 20q-67 0 -120.5 -30.5t-83.5 -86t-30 -125.5q0 -71 30 -126t83.5 -86t120.5 -31q53 0 98 20t74 60l14 -15q-32 -41 -80.5 -62.5
t-105.5 -21.5q-73 0 -131 33.5zM429 717l-122 -110h-32l-122 110h27l111 -93l111 93h27z" />
    <glyph glyph-name="ccedilla" unicode="&#xe7;" horiz-adv-x="545" 
d="M177 30.5q-58 33.5 -90.5 93t-32.5 135.5t32.5 135.5t90.5 92.5t131 33q57 0 105.5 -21.5t80.5 -62.5l-14 -15q-29 40 -74 60t-98 20q-67 0 -120.5 -30.5t-83.5 -86t-30 -125.5q0 -71 30 -126t83.5 -86t120.5 -31q53 0 98 20t74 60l14 -15q-32 -41 -80.5 -62.5
t-105.5 -21.5q-73 0 -131 33.5zM201 -186l11 15q25 -23 62 -23q32 0 52 16t20 44q0 27 -19 43.5t-52 16.5h-16l22 79h19l-17 -61q38 -2 60.5 -23t22.5 -55q0 -36 -25.5 -57.5t-65.5 -21.5q-43 0 -74 27z" />
    <glyph glyph-name="uni1E09" unicode="&#x1e09;" horiz-adv-x="545" 
d="M177 30.5q-58 33.5 -90.5 93t-32.5 135.5t32.5 135.5t90.5 92.5t131 33q57 0 105.5 -21.5t80.5 -62.5l-14 -15q-29 40 -74 60t-98 20q-67 0 -120.5 -30.5t-83.5 -86t-30 -125.5q0 -71 30 -126t83.5 -86t120.5 -31q53 0 98 20t74 60l14 -15q-32 -41 -80.5 -62.5
t-105.5 -21.5q-73 0 -131 33.5zM201 -186l11 15q25 -23 62 -23q32 0 52 16t20 44q0 27 -19 43.5t-52 16.5h-16l22 79h19l-17 -61q38 -2 60.5 -23t22.5 -55q0 -36 -25.5 -57.5t-65.5 -21.5q-43 0 -74 27zM386 717h40l-150 -110h-30z" />
    <glyph glyph-name="ccircumflex" unicode="&#x109;" horiz-adv-x="545" 
d="M177 30.5q-58 33.5 -90.5 93t-32.5 135.5t32.5 135.5t90.5 92.5t131 33q57 0 105.5 -21.5t80.5 -62.5l-14 -15q-29 40 -74 60t-98 20q-67 0 -120.5 -30.5t-83.5 -86t-30 -125.5q0 -71 30 -126t83.5 -86t120.5 -31q53 0 98 20t74 60l14 -15q-32 -41 -80.5 -62.5
t-105.5 -21.5q-73 0 -131 33.5zM402 607l-111 93l-111 -93h-27l122 110h32l122 -110h-27z" />
    <glyph glyph-name="cdotaccent" unicode="&#x10b;" horiz-adv-x="545" 
d="M177 30.5q-58 33.5 -90.5 93t-32.5 135.5t32.5 135.5t90.5 92.5t131 33q57 0 105.5 -21.5t80.5 -62.5l-14 -15q-29 40 -74 60t-98 20q-67 0 -120.5 -30.5t-83.5 -86t-30 -125.5q0 -71 30 -126t83.5 -86t120.5 -31q53 0 98 20t74 60l14 -15q-32 -41 -80.5 -62.5
t-105.5 -21.5q-73 0 -131 33.5zM272.5 649q-7.5 8 -7.5 18q0 11 7.5 18.5t18.5 7.5q10 0 18 -7.5t8 -18.5q0 -10 -8 -18t-18 -8q-11 0 -18.5 8z" />
    <glyph glyph-name="d" unicode="d" horiz-adv-x="671" 
d="M556 742v-742h-20v158q-26 -74 -88 -117.5t-143 -43.5q-70 0 -127.5 33.5t-90.5 93.5t-33 135t33 134.5t90.5 93t127.5 33.5q80 0 142.5 -43.5t88.5 -116.5v382h20zM423 47q53 31 83 86.5t30 125.5t-30 125.5t-83 86t-118 30.5t-118 -30.5t-83 -86t-30 -125.5t30 -125.5
t83 -86.5t118 -31t118 31z" />
    <glyph glyph-name="eth" unicode="&#xf0;" horiz-adv-x="618" 
d="M531 531q33 -76 33 -181q0 -164 -71.5 -258.5t-206.5 -94.5q-68 0 -120.5 27t-82 76.5t-29.5 113.5q0 65 29.5 113.5t83.5 75.5t127 27q95 0 160.5 -52.5t76.5 -144.5q13 52 13 119q0 103 -33 176t-95 113l-268 -120l-8 19l254 114q-59 30 -137 30t-150 -21l-5 19
q30 9 71.5 15t83.5 6q91 0 160 -39l88 39l8 -19l-76 -34q61 -43 94 -119zM408.5 44.5q51.5 28.5 78 74t26.5 95.5q0 54 -28 99t-78 71.5t-113 26.5q-102 0 -161 -54t-59 -143q0 -58 26.5 -103t74.5 -70t111 -25q71 0 122.5 28.5z" />
    <glyph glyph-name="dcaron" unicode="&#x10f;" horiz-adv-x="671" 
d="M556 742v-742h-20v158q-26 -74 -88 -117.5t-143 -43.5q-70 0 -127.5 33.5t-90.5 93.5t-33 135t33 134.5t90.5 93t127.5 33.5q80 0 142.5 -43.5t88.5 -116.5v382h20zM423 47q53 31 83 86.5t30 125.5t-30 125.5t-83 86t-118 30.5t-118 -30.5t-83 -86t-30 -125.5t30 -125.5
t83 -86.5t118 -31t118 31zM656 762h20l-2 -180h-18v180z" />
    <glyph glyph-name="dcroat" unicode="&#x111;" horiz-adv-x="671" 
d="M556 742v-742h-20v158q-26 -74 -88 -117.5t-143 -43.5q-70 0 -127.5 33.5t-90.5 93.5t-33 135t33 134.5t90.5 93t127.5 33.5q80 0 142.5 -43.5t88.5 -116.5v382h20zM423 47q53 31 83 86.5t30 125.5t-30 125.5t-83 86t-118 30.5t-118 -30.5t-83 -86t-30 -125.5t30 -125.5
t83 -86.5t118 -31t118 31zM293 640h378v-19h-378v19z" />
    <glyph glyph-name="uni1E0D" unicode="&#x1e0d;" horiz-adv-x="671" 
d="M556 742v-742h-20v158q-26 -74 -88 -117.5t-143 -43.5q-70 0 -127.5 33.5t-90.5 93.5t-33 135t33 134.5t90.5 93t127.5 33.5q80 0 142.5 -43.5t88.5 -116.5v382h20zM423 47q53 31 83 86.5t30 125.5t-30 125.5t-83 86t-118 30.5t-118 -30.5t-83 -86t-30 -125.5t30 -125.5
t83 -86.5t118 -31t118 31zM309.5 -168.5q-7.5 7.5 -7.5 18.5q0 10 7.5 18t18.5 8q10 0 18 -8t8 -18q0 -11 -8 -18.5t-18 -7.5q-11 0 -18.5 7.5z" />
    <glyph glyph-name="uni1E0F" unicode="&#x1e0f;" horiz-adv-x="671" 
d="M556 742v-742h-20v158q-26 -74 -88 -117.5t-143 -43.5q-70 0 -127.5 33.5t-90.5 93.5t-33 135t33 134.5t90.5 93t127.5 33.5q80 0 142.5 -43.5t88.5 -116.5v382h20zM423 47q53 31 83 86.5t30 125.5t-30 125.5t-83 86t-118 30.5t-118 -30.5t-83 -86t-30 -125.5t30 -125.5
t83 -86.5t118 -31t118 31zM192 -140h272v-20h-272v20z" />
    <glyph glyph-name="uni01C6" unicode="&#x1c6;" horiz-adv-x="1183" 
d="M556 742v-742h-20v158q-26 -74 -88 -117.5t-143 -43.5q-70 0 -127.5 33.5t-90.5 93.5t-33 135t33 134.5t90.5 93t127.5 33.5q80 0 142.5 -43.5t88.5 -116.5v382h20zM423 47q53 31 83 86.5t30 125.5t-30 125.5t-83 86t-118 30.5t-118 -30.5t-83 -86t-30 -125.5t30 -125.5
t83 -86.5t118 -31t118 31zM1116 19v-19h-397v15l364 483h-359v19h387v-15l-364 -483h369zM1056 717l-122 -110h-32l-122 110h27l111 -93l111 93h27z" />
    <glyph glyph-name="e" unicode="e" horiz-adv-x="587" 
d="M533 259h-460q0 -70 31 -125.5t85.5 -86.5t122.5 -31q53 0 99.5 20.5t76.5 59.5l14 -14q-34 -41 -84 -63t-106 -22q-74 0 -132.5 33.5t-92 93.5t-33.5 135t31 134.5t85.5 93t122.5 33.5q67 0 122 -33t86.5 -91t31.5 -132v-5zM184 472q-49 -29 -78.5 -80t-32.5 -114h441
q-3 63 -33 114t-79 80t-109 29t-109 -29z" />
    <glyph glyph-name="eacute" unicode="&#xe9;" horiz-adv-x="587" 
d="M533 259h-460q0 -70 31 -125.5t85.5 -86.5t122.5 -31q53 0 99.5 20.5t76.5 59.5l14 -14q-34 -41 -84 -63t-106 -22q-74 0 -132.5 33.5t-92 93.5t-33.5 135t31 134.5t85.5 93t122.5 33.5q67 0 122 -33t86.5 -91t31.5 -132v-5zM184 472q-49 -29 -78.5 -80t-32.5 -114h441
q-3 63 -33 114t-79 80t-109 29t-109 -29zM389 717h40l-150 -110h-30z" />
    <glyph glyph-name="ebreve" unicode="&#x115;" horiz-adv-x="587" 
d="M533 259h-460q0 -70 31 -125.5t85.5 -86.5t122.5 -31q53 0 99.5 20.5t76.5 59.5l14 -14q-34 -41 -84 -63t-106 -22q-74 0 -132.5 33.5t-92 93.5t-33.5 135t31 134.5t85.5 93t122.5 33.5q67 0 122 -33t86.5 -91t31.5 -132v-5zM184 472q-49 -29 -78.5 -80t-32.5 -114h441
q-3 63 -33 114t-79 80t-109 29t-109 -29zM201 635q-38 31 -39 82h19q1 -43 33 -68.5t80 -25.5t80 25.5t33 68.5h19q-1 -51 -39 -82t-93 -31t-93 31z" />
    <glyph glyph-name="ecaron" unicode="&#x11b;" horiz-adv-x="587" 
d="M533 259h-460q0 -70 31 -125.5t85.5 -86.5t122.5 -31q53 0 99.5 20.5t76.5 59.5l14 -14q-34 -41 -84 -63t-106 -22q-74 0 -132.5 33.5t-92 93.5t-33.5 135t31 134.5t85.5 93t122.5 33.5q67 0 122 -33t86.5 -91t31.5 -132v-5zM184 472q-49 -29 -78.5 -80t-32.5 -114h441
q-3 63 -33 114t-79 80t-109 29t-109 -29zM432 717l-122 -110h-32l-122 110h27l111 -93l111 93h27z" />
    <glyph glyph-name="uni1E1D" unicode="&#x1e1d;" horiz-adv-x="587" 
d="M533 259h-460q0 -70 31 -125.5t85.5 -86.5t122.5 -31q53 0 99.5 20.5t76.5 59.5l14 -14q-34 -41 -84 -63t-106 -22q-74 0 -132.5 33.5t-92 93.5t-33.5 135t31 134.5t85.5 93t122.5 33.5q67 0 122 -33t86.5 -91t31.5 -132v-5zM184 472q-49 -29 -78.5 -80t-32.5 -114h441
q-3 63 -33 114t-79 80t-109 29t-109 -29zM204 -186l11 15q25 -23 62 -23q32 0 52 16t20 44q0 27 -19 43.5t-52 16.5h-16l22 79h19l-17 -61q38 -2 60.5 -23t22.5 -55q0 -36 -25.5 -57.5t-65.5 -21.5q-43 0 -74 27zM201 635q-38 31 -39 82h19q1 -43 33 -68.5t80 -25.5t80 25.5
t33 68.5h19q-1 -51 -39 -82t-93 -31t-93 31z" />
    <glyph glyph-name="ecircumflex" unicode="&#xea;" horiz-adv-x="587" 
d="M533 259h-460q0 -70 31 -125.5t85.5 -86.5t122.5 -31q53 0 99.5 20.5t76.5 59.5l14 -14q-34 -41 -84 -63t-106 -22q-74 0 -132.5 33.5t-92 93.5t-33.5 135t31 134.5t85.5 93t122.5 33.5q67 0 122 -33t86.5 -91t31.5 -132v-5zM184 472q-49 -29 -78.5 -80t-32.5 -114h441
q-3 63 -33 114t-79 80t-109 29t-109 -29zM405 607l-111 93l-111 -93h-27l122 110h32l122 -110h-27z" />
    <glyph glyph-name="uni1EBF" unicode="&#x1ebf;" horiz-adv-x="587" 
d="M533 259h-460q0 -70 31 -125.5t85.5 -86.5t122.5 -31q53 0 99.5 20.5t76.5 59.5l14 -14q-34 -41 -84 -63t-106 -22q-74 0 -132.5 33.5t-92 93.5t-33.5 135t31 134.5t85.5 93t122.5 33.5q67 0 122 -33t86.5 -91t31.5 -132v-5zM184 472q-49 -29 -78.5 -80t-32.5 -114h441
q-3 63 -33 114t-79 80t-109 29t-109 -29zM402 607l-108 64l-108 -64h-30l123 80h30l123 -80h-30zM496 782h40l-137 -100h-30z" />
    <glyph glyph-name="uni1EC7" unicode="&#x1ec7;" horiz-adv-x="587" 
d="M533 259h-460q0 -70 31 -125.5t85.5 -86.5t122.5 -31q53 0 99.5 20.5t76.5 59.5l14 -14q-34 -41 -84 -63t-106 -22q-74 0 -132.5 33.5t-92 93.5t-33.5 135t31 134.5t85.5 93t122.5 33.5q67 0 122 -33t86.5 -91t31.5 -132v-5zM184 472q-49 -29 -78.5 -80t-32.5 -114h441
q-3 63 -33 114t-79 80t-109 29t-109 -29zM275.5 -168.5q-7.5 7.5 -7.5 18.5q0 10 7.5 18t18.5 8q10 0 18 -8t8 -18q0 -11 -8 -18.5t-18 -7.5q-11 0 -18.5 7.5zM405 607l-111 93l-111 -93h-27l122 110h32l122 -110h-27z" />
    <glyph glyph-name="uni1EC1" unicode="&#x1ec1;" horiz-adv-x="587" 
d="M533 259h-460q0 -70 31 -125.5t85.5 -86.5t122.5 -31q53 0 99.5 20.5t76.5 59.5l14 -14q-34 -41 -84 -63t-106 -22q-74 0 -132.5 33.5t-92 93.5t-33.5 135t31 134.5t85.5 93t122.5 33.5q67 0 122 -33t86.5 -91t31.5 -132v-5zM184 472q-49 -29 -78.5 -80t-32.5 -114h441
q-3 63 -33 114t-79 80t-109 29t-109 -29zM402 607l-108 64l-108 -64h-30l123 80h30l123 -80h-30zM292 782h40l127 -100h-30z" />
    <glyph glyph-name="uni1EC3" unicode="&#x1ec3;" horiz-adv-x="587" 
d="M533 259h-460q0 -70 31 -125.5t85.5 -86.5t122.5 -31q53 0 99.5 20.5t76.5 59.5l14 -14q-34 -41 -84 -63t-106 -22q-74 0 -132.5 33.5t-92 93.5t-33.5 135t31 134.5t85.5 93t122.5 33.5q67 0 122 -33t86.5 -91t31.5 -132v-5zM184 472q-49 -29 -78.5 -80t-32.5 -114h441
q-3 63 -33 114t-79 80t-109 29t-109 -29zM402 607l-108 64l-108 -64h-30l123 80h30l123 -80h-30zM387 683q21 10 33 24.5t12 31.5q0 16 -11.5 26t-30.5 10q-24 0 -43 -13l-8 16q22 16 52 16q28 0 44 -15t16 -40q0 -47 -54 -71z" />
    <glyph glyph-name="uni1EC5" unicode="&#x1ec5;" horiz-adv-x="587" 
d="M533 259h-460q0 -70 31 -125.5t85.5 -86.5t122.5 -31q53 0 99.5 20.5t76.5 59.5l14 -14q-34 -41 -84 -63t-106 -22q-74 0 -132.5 33.5t-92 93.5t-33.5 135t31 134.5t85.5 93t122.5 33.5q67 0 122 -33t86.5 -91t31.5 -132v-5zM184 472q-49 -29 -78.5 -80t-32.5 -114h441
q-3 63 -33 114t-79 80t-109 29t-109 -29zM402 607l-108 64l-108 -64h-30l123 80h30l123 -80h-30zM322 727q-14 7 -35 22q-16 12 -28.5 18.5t-25.5 6.5q-24 0 -38.5 -13.5t-15.5 -38.5h-19q1 32 21 51.5t52 19.5q18 0 32.5 -7t35.5 -22q16 -12 28.5 -18.5t25.5 -6.5
q24 0 38.5 13t15.5 37h19q-1 -31 -21 -50t-52 -19q-19 0 -33 7z" />
    <glyph glyph-name="uni0205" unicode="&#x205;" horiz-adv-x="587" 
d="M533 259h-460q0 -70 31 -125.5t85.5 -86.5t122.5 -31q53 0 99.5 20.5t76.5 59.5l14 -14q-34 -41 -84 -63t-106 -22q-74 0 -132.5 33.5t-92 93.5t-33.5 135t31 134.5t85.5 93t122.5 33.5q67 0 122 -33t86.5 -91t31.5 -132v-5zM184 472q-49 -29 -78.5 -80t-32.5 -114h441
q-3 63 -33 114t-79 80t-109 29t-109 -29zM93 717h34l111 -110h-27zM232 717h34l111 -110h-27z" />
    <glyph glyph-name="edieresis" unicode="&#xeb;" horiz-adv-x="587" 
d="M533 259h-460q0 -70 31 -125.5t85.5 -86.5t122.5 -31q53 0 99.5 20.5t76.5 59.5l14 -14q-34 -41 -84 -63t-106 -22q-74 0 -132.5 33.5t-92 93.5t-33.5 135t31 134.5t85.5 93t122.5 33.5q67 0 122 -33t86.5 -91t31.5 -132v-5zM184 472q-49 -29 -78.5 -80t-32.5 -114h441
q-3 63 -33 114t-79 80t-109 29t-109 -29zM193.5 649q-7.5 8 -7.5 18q0 11 7.5 18.5t18.5 7.5q10 0 18 -7.5t8 -18.5q0 -10 -8 -18t-18 -8q-11 0 -18.5 8zM357.5 649q-7.5 8 -7.5 18q0 11 7.5 18.5t18.5 7.5q10 0 18 -7.5t8 -18.5q0 -10 -8 -18t-18 -8q-11 0 -18.5 8z" />
    <glyph glyph-name="edotaccent" unicode="&#x117;" horiz-adv-x="587" 
d="M533 259h-460q0 -70 31 -125.5t85.5 -86.5t122.5 -31q53 0 99.5 20.5t76.5 59.5l14 -14q-34 -41 -84 -63t-106 -22q-74 0 -132.5 33.5t-92 93.5t-33.5 135t31 134.5t85.5 93t122.5 33.5q67 0 122 -33t86.5 -91t31.5 -132v-5zM184 472q-49 -29 -78.5 -80t-32.5 -114h441
q-3 63 -33 114t-79 80t-109 29t-109 -29zM275.5 649q-7.5 8 -7.5 18q0 11 7.5 18.5t18.5 7.5q10 0 18 -7.5t8 -18.5q0 -10 -8 -18t-18 -8q-11 0 -18.5 8z" />
    <glyph glyph-name="uni1EB9" unicode="&#x1eb9;" horiz-adv-x="587" 
d="M533 259h-460q0 -70 31 -125.5t85.5 -86.5t122.5 -31q53 0 99.5 20.5t76.5 59.5l14 -14q-34 -41 -84 -63t-106 -22q-74 0 -132.5 33.5t-92 93.5t-33.5 135t31 134.5t85.5 93t122.5 33.5q67 0 122 -33t86.5 -91t31.5 -132v-5zM184 472q-49 -29 -78.5 -80t-32.5 -114h441
q-3 63 -33 114t-79 80t-109 29t-109 -29zM275.5 -168.5q-7.5 7.5 -7.5 18.5q0 10 7.5 18t18.5 8q10 0 18 -8t8 -18q0 -11 -8 -18.5t-18 -7.5q-11 0 -18.5 7.5z" />
    <glyph glyph-name="egrave" unicode="&#xe8;" horiz-adv-x="587" 
d="M533 259h-460q0 -70 31 -125.5t85.5 -86.5t122.5 -31q53 0 99.5 20.5t76.5 59.5l14 -14q-34 -41 -84 -63t-106 -22q-74 0 -132.5 33.5t-92 93.5t-33.5 135t31 134.5t85.5 93t122.5 33.5q67 0 122 -33t86.5 -91t31.5 -132v-5zM184 472q-49 -29 -78.5 -80t-32.5 -114h441
q-3 63 -33 114t-79 80t-109 29t-109 -29zM159 717h40l140 -110h-30z" />
    <glyph glyph-name="uni1EBB" unicode="&#x1ebb;" horiz-adv-x="587" 
d="M533 259h-460q0 -70 31 -125.5t85.5 -86.5t122.5 -31q53 0 99.5 20.5t76.5 59.5l14 -14q-34 -41 -84 -63t-106 -22q-74 0 -132.5 33.5t-92 93.5t-33.5 135t31 134.5t85.5 93t122.5 33.5q67 0 122 -33t86.5 -91t31.5 -132v-5zM184 472q-49 -29 -78.5 -80t-32.5 -114h441
q-3 63 -33 114t-79 80t-109 29t-109 -29zM286 619q63 28 63 77q0 23 -16.5 38.5t-41.5 15.5q-33 0 -62 -19l-8 17q13 10 32 15.5t37 5.5q36 0 57.5 -19.5t21.5 -52.5q0 -30 -18 -53t-55 -41z" />
    <glyph glyph-name="uni0207" unicode="&#x207;" horiz-adv-x="587" 
d="M533 259h-460q0 -70 31 -125.5t85.5 -86.5t122.5 -31q53 0 99.5 20.5t76.5 59.5l14 -14q-34 -41 -84 -63t-106 -22q-74 0 -132.5 33.5t-92 93.5t-33.5 135t31 134.5t85.5 93t122.5 33.5q67 0 122 -33t86.5 -91t31.5 -132v-5zM184 472q-49 -29 -78.5 -80t-32.5 -114h441
q-3 63 -33 114t-79 80t-109 29t-109 -29zM201 689q38 31 93 31t93 -31t39 -82h-19q-1 43 -33 68.5t-80 25.5t-80 -25.5t-33 -68.5h-19q1 51 39 82z" />
    <glyph glyph-name="emacron" unicode="&#x113;" horiz-adv-x="587" 
d="M533 259h-460q0 -70 31 -125.5t85.5 -86.5t122.5 -31q53 0 99.5 20.5t76.5 59.5l14 -14q-34 -41 -84 -63t-106 -22q-74 0 -132.5 33.5t-92 93.5t-33.5 135t31 134.5t85.5 93t122.5 33.5q67 0 122 -33t86.5 -91t31.5 -132v-5zM184 472q-49 -29 -78.5 -80t-32.5 -114h441
q-3 63 -33 114t-79 80t-109 29t-109 -29zM158 672h272v-20h-272v20z" />
    <glyph glyph-name="uni1E17" unicode="&#x1e17;" horiz-adv-x="587" 
d="M533 259h-460q0 -70 31 -125.5t85.5 -86.5t122.5 -31q53 0 99.5 20.5t76.5 59.5l14 -14q-34 -41 -84 -63t-106 -22q-74 0 -132.5 33.5t-92 93.5t-33.5 135t31 134.5t85.5 93t122.5 33.5q67 0 122 -33t86.5 -91t31.5 -132v-5zM184 472q-49 -29 -78.5 -80t-32.5 -114h441
q-3 63 -33 114t-79 80t-109 29t-109 -29zM158 657h272v-20h-272v20zM376 820h40l-137 -100h-30z" />
    <glyph glyph-name="uni1E15" unicode="&#x1e15;" horiz-adv-x="587" 
d="M533 259h-460q0 -70 31 -125.5t85.5 -86.5t122.5 -31q53 0 99.5 20.5t76.5 59.5l14 -14q-34 -41 -84 -63t-106 -22q-74 0 -132.5 33.5t-92 93.5t-33.5 135t31 134.5t85.5 93t122.5 33.5q67 0 122 -33t86.5 -91t31.5 -132v-5zM184 472q-49 -29 -78.5 -80t-32.5 -114h441
q-3 63 -33 114t-79 80t-109 29t-109 -29zM158 657h272v-20h-272v20zM172 820h40l127 -100h-30z" />
    <glyph glyph-name="eogonek" unicode="&#x119;" horiz-adv-x="587" 
d="M533 259h-460q0 -70 31 -125.5t85.5 -86.5t122.5 -31q53 0 99.5 20.5t76.5 59.5l14 -14q-6 -7 -36 -35q-72 -68 -95 -104.5t-23 -71.5q0 -32 20 -48.5t52 -16.5q37 0 62 23l11 -15q-31 -27 -74 -27q-40 0 -65.5 22.5t-25.5 61.5q0 32 17.5 67t64.5 78q-45 -19 -98 -19
q-74 0 -132.5 33.5t-92 93.5t-33.5 135t31 134.5t85.5 93t122.5 33.5q67 0 122 -33t86.5 -91t31.5 -132v-5zM184 472q-49 -29 -78.5 -80t-32.5 -114h441q-3 63 -33 114t-79 80t-109 29t-109 -29z" />
    <glyph glyph-name="uni1EBD" unicode="&#x1ebd;" horiz-adv-x="587" 
d="M533 259h-460q0 -70 31 -125.5t85.5 -86.5t122.5 -31q53 0 99.5 20.5t76.5 59.5l14 -14q-34 -41 -84 -63t-106 -22q-74 0 -132.5 33.5t-92 93.5t-33.5 135t31 134.5t85.5 93t122.5 33.5q67 0 122 -33t86.5 -91t31.5 -132v-5zM184 472q-49 -29 -78.5 -80t-32.5 -114h441
q-3 63 -33 114t-79 80t-109 29t-109 -29zM321.5 628.5q-15.5 9.5 -35.5 28.5q-16 15 -28.5 23t-26.5 8q-24 0 -38 -18t-16 -49h-19q2 39 21.5 62.5t51.5 23.5q20 0 35.5 -9.5t35.5 -28.5q16 -15 28.5 -23t26.5 -8q24 0 38 17.5t16 47.5h19q-2 -38 -21.5 -61t-51.5 -23
q-20 0 -35.5 9.5z" />
    <glyph glyph-name="uni0259" unicode="&#x259;" horiz-adv-x="587" 
d="M54 258h460q0 70 -31 125.5t-85.5 86.5t-122.5 31q-53 0 -99.5 -20.5t-76.5 -59.5l-14 14q34 41 84 63t106 22q74 0 132.5 -33.5t92 -93.5t33.5 -135t-31 -134.5t-85.5 -93t-122.5 -33.5q-67 0 -122 33t-86.5 91t-31.5 132v5zM403 45q49 29 78.5 80t32.5 114h-441
q3 -63 33 -114t79 -80t109 -29t109 29z" />
    <glyph glyph-name="uni0292" unicode="&#x292;" horiz-adv-x="487" 
d="M382.5 144.5q62.5 -53.5 62.5 -144.5q0 -90 -60.5 -144t-170.5 -54q-78 0 -143 28t-97 73l13 13q31 -41 91.5 -68t135.5 -27q102 0 156.5 48t54.5 131q0 84 -56 131.5t-168 47.5h-36v15l227 304h-396v19h423v-15l-227 -304h8q120 0 182.5 -53.5z" />
    <glyph glyph-name="uni01EF" unicode="&#x1ef;" horiz-adv-x="487" 
d="M382.5 144.5q62.5 -53.5 62.5 -144.5q0 -90 -60.5 -144t-170.5 -54q-78 0 -143 28t-97 73l13 13q31 -41 91.5 -68t135.5 -27q102 0 156.5 48t54.5 131q0 84 -56 131.5t-168 47.5h-36v15l227 304h-396v19h423v-15l-227 -304h8q120 0 182.5 -53.5zM351 717l-122 -110h-32
l-122 110h27l111 -93l111 93h27z" />
    <glyph glyph-name="f" unicode="f" horiz-adv-x="311" 
d="M170 697q-27 -29 -27 -84v-96h175v-19h-175v-498h-20v498h-100v19h100v101q0 58 33 92.5t92 34.5q29 0 56.5 -9.5t44.5 -27.5l-14 -14q-34 32 -86 32t-79 -29z" />
    <glyph glyph-name="g" unicode="g" horiz-adv-x="677" 
d="M562 517v-471q0 -124 -59 -183.5t-180 -59.5q-71 0 -131.5 23t-97.5 63l14 14q40 -39 95 -60t120 -21q112 0 165.5 53.5t53.5 167.5v130q-27 -71 -89.5 -113.5t-144.5 -42.5q-72 0 -130 32.5t-91 90t-33 129.5t33 129.5t91 89.5t130 32q82 0 144.5 -42t89.5 -112v151h20z
M428.5 65.5q53.5 29.5 83.5 83t30 120.5t-30 120t-83.5 82.5t-120.5 29.5t-120.5 -29.5t-83.5 -82.5t-30 -120t30 -120.5t83.5 -83t120.5 -29.5t120.5 29.5z" />
    <glyph glyph-name="gbreve" unicode="&#x11f;" horiz-adv-x="677" 
d="M562 517v-471q0 -124 -59 -183.5t-180 -59.5q-71 0 -131.5 23t-97.5 63l14 14q40 -39 95 -60t120 -21q112 0 165.5 53.5t53.5 167.5v130q-27 -71 -89.5 -113.5t-144.5 -42.5q-72 0 -130 32.5t-91 90t-33 129.5t33 129.5t91 89.5t130 32q82 0 144.5 -42t89.5 -112v151h20z
M428.5 65.5q53.5 29.5 83.5 83t30 120.5t-30 120t-83.5 82.5t-120.5 29.5t-120.5 -29.5t-83.5 -82.5t-30 -120t30 -120.5t83.5 -83t120.5 -29.5t120.5 29.5zM222 635q-38 31 -39 82h19q1 -43 33 -68.5t80 -25.5t80 25.5t33 68.5h19q-1 -51 -39 -82t-93 -31t-93 31z" />
    <glyph glyph-name="gcaron" unicode="&#x1e7;" horiz-adv-x="677" 
d="M562 517v-471q0 -124 -59 -183.5t-180 -59.5q-71 0 -131.5 23t-97.5 63l14 14q40 -39 95 -60t120 -21q112 0 165.5 53.5t53.5 167.5v130q-27 -71 -89.5 -113.5t-144.5 -42.5q-72 0 -130 32.5t-91 90t-33 129.5t33 129.5t91 89.5t130 32q82 0 144.5 -42t89.5 -112v151h20z
M428.5 65.5q53.5 29.5 83.5 83t30 120.5t-30 120t-83.5 82.5t-120.5 29.5t-120.5 -29.5t-83.5 -82.5t-30 -120t30 -120.5t83.5 -83t120.5 -29.5t120.5 29.5zM453 717l-122 -110h-32l-122 110h27l111 -93l111 93h27z" />
    <glyph glyph-name="gcircumflex" unicode="&#x11d;" horiz-adv-x="677" 
d="M562 517v-471q0 -124 -59 -183.5t-180 -59.5q-71 0 -131.5 23t-97.5 63l14 14q40 -39 95 -60t120 -21q112 0 165.5 53.5t53.5 167.5v130q-27 -71 -89.5 -113.5t-144.5 -42.5q-72 0 -130 32.5t-91 90t-33 129.5t33 129.5t91 89.5t130 32q82 0 144.5 -42t89.5 -112v151h20z
M428.5 65.5q53.5 29.5 83.5 83t30 120.5t-30 120t-83.5 82.5t-120.5 29.5t-120.5 -29.5t-83.5 -82.5t-30 -120t30 -120.5t83.5 -83t120.5 -29.5t120.5 29.5zM426 607l-111 93l-111 -93h-27l122 110h32l122 -110h-27z" />
    <glyph glyph-name="gcommaaccent" unicode="&#x123;" horiz-adv-x="677" 
d="M562 517v-471q0 -124 -59 -183.5t-180 -59.5q-71 0 -131.5 23t-97.5 63l14 14q40 -39 95 -60t120 -21q112 0 165.5 53.5t53.5 167.5v130q-27 -71 -89.5 -113.5t-144.5 -42.5q-72 0 -130 32.5t-91 90t-33 129.5t33 129.5t91 89.5t130 32q82 0 144.5 -42t89.5 -112v151h20z
M428.5 65.5q53.5 29.5 83.5 83t30 120.5t-30 120t-83.5 82.5t-120.5 29.5t-120.5 -29.5t-83.5 -82.5t-30 -120t30 -120.5t83.5 -83t120.5 -29.5t120.5 29.5zM334.5 647q6.5 -7 6.5 -17q0 -11 -7.5 -18.5t-18.5 -7.5t-18.5 8t-7.5 18q0 7 2 15.5t3 13.5l28 100h18l-22 -103
q10 -2 16.5 -9z" />
    <glyph glyph-name="gdotaccent" unicode="&#x121;" horiz-adv-x="677" 
d="M562 517v-471q0 -124 -59 -183.5t-180 -59.5q-71 0 -131.5 23t-97.5 63l14 14q40 -39 95 -60t120 -21q112 0 165.5 53.5t53.5 167.5v130q-27 -71 -89.5 -113.5t-144.5 -42.5q-72 0 -130 32.5t-91 90t-33 129.5t33 129.5t91 89.5t130 32q82 0 144.5 -42t89.5 -112v151h20z
M428.5 65.5q53.5 29.5 83.5 83t30 120.5t-30 120t-83.5 82.5t-120.5 29.5t-120.5 -29.5t-83.5 -82.5t-30 -120t30 -120.5t83.5 -83t120.5 -29.5t120.5 29.5zM296.5 649q-7.5 8 -7.5 18q0 11 7.5 18.5t18.5 7.5q10 0 18 -7.5t8 -18.5q0 -10 -8 -18t-18 -8q-11 0 -18.5 8z" />
    <glyph glyph-name="uni1E21" unicode="&#x1e21;" horiz-adv-x="677" 
d="M562 517v-471q0 -124 -59 -183.5t-180 -59.5q-71 0 -131.5 23t-97.5 63l14 14q40 -39 95 -60t120 -21q112 0 165.5 53.5t53.5 167.5v130q-27 -71 -89.5 -113.5t-144.5 -42.5q-72 0 -130 32.5t-91 90t-33 129.5t33 129.5t91 89.5t130 32q82 0 144.5 -42t89.5 -112v151h20z
M428.5 65.5q53.5 29.5 83.5 83t30 120.5t-30 120t-83.5 82.5t-120.5 29.5t-120.5 -29.5t-83.5 -82.5t-30 -120t30 -120.5t83.5 -83t120.5 -29.5t120.5 29.5zM179 672h272v-20h-272v20z" />
    <glyph glyph-name="uni01E5" unicode="&#x1e5;" horiz-adv-x="679" 
d="M626 -69h-81q-46 -128 -222 -128q-71 0 -131.5 23t-97.5 63l14 14q40 -39 95 -60t120 -21q80 0 129.5 26.5t71.5 82.5h-226v19h233q11 42 11 93v130q-27 -71 -89.5 -113.5t-144.5 -42.5q-72 0 -130 32.5t-91 90t-33 129.5t33 129.5t91 89.5t130 32q82 0 144.5 -42
t89.5 -112v151h20v-471q0 -52 -11 -96h75v-19zM428.5 65.5q53.5 29.5 83.5 83t30 120.5t-30 120t-83.5 82.5t-120.5 29.5t-120.5 -29.5t-83.5 -82.5t-30 -120t30 -120.5t83.5 -83t120.5 -29.5t120.5 29.5z" />
    <glyph glyph-name="h" unicode="h" horiz-adv-x="668" 
d="M504 464.5q55 -55.5 55 -159.5v-305h-20v305q0 95 -48.5 145.5t-137.5 50.5q-101 0 -159.5 -60.5t-58.5 -159.5v-281h-20v742h20v-363q24 66 80 103.5t137 37.5q97 0 152 -55.5z" />
    <glyph glyph-name="hbar" unicode="&#x127;" horiz-adv-x="668" 
d="M504 464.5q55 -55.5 55 -159.5v-305h-20v305q0 95 -48.5 145.5t-137.5 50.5q-101 0 -159.5 -60.5t-58.5 -159.5v-281h-20v742h20v-363q24 66 80 103.5t137 37.5q97 0 152 -55.5zM0 640h378v-19h-378v19z" />
    <glyph glyph-name="uni1E2B" unicode="&#x1e2b;" horiz-adv-x="668" 
d="M504 464.5q55 -55.5 55 -159.5v-305h-20v305q0 95 -48.5 145.5t-137.5 50.5q-101 0 -159.5 -60.5t-58.5 -159.5v-281h-20v742h20v-363q24 66 80 103.5t137 37.5q97 0 152 -55.5zM242 -168.5q-38 29.5 -39 78.5h19q1 -40 33 -64.5t80 -24.5t80 24.5t33 64.5h19
q-1 -49 -39 -78.5t-93 -29.5t-93 29.5z" />
    <glyph glyph-name="uni021F" unicode="&#x21f;" horiz-adv-x="668" 
d="M504 464.5q55 -55.5 55 -159.5v-305h-20v305q0 95 -48.5 145.5t-137.5 50.5q-101 0 -159.5 -60.5t-58.5 -159.5v-281h-20v742h20v-363q24 66 80 103.5t137 37.5q97 0 152 -55.5zM263 942l-122 -110h-32l-122 110h27l111 -93l111 93h27z" />
    <glyph glyph-name="hcircumflex" unicode="&#x125;" horiz-adv-x="668" 
d="M504 464.5q55 -55.5 55 -159.5v-305h-20v305q0 95 -48.5 145.5t-137.5 50.5q-101 0 -159.5 -60.5t-58.5 -159.5v-281h-20v742h20v-363q24 66 80 103.5t137 37.5q97 0 152 -55.5zM236 799l-111 93l-111 -93h-27l122 110h32l122 -110h-27z" />
    <glyph glyph-name="uni1E25" unicode="&#x1e25;" horiz-adv-x="668" 
d="M504 464.5q55 -55.5 55 -159.5v-305h-20v305q0 95 -48.5 145.5t-137.5 50.5q-101 0 -159.5 -60.5t-58.5 -159.5v-281h-20v742h20v-363q24 66 80 103.5t137 37.5q97 0 152 -55.5zM316.5 -168.5q-7.5 7.5 -7.5 18.5q0 10 7.5 18t18.5 8q10 0 18 -8t8 -18q0 -11 -8 -18.5
t-18 -7.5q-11 0 -18.5 7.5z" />
    <glyph glyph-name="i" unicode="i" horiz-adv-x="250" 
d="M115 517h20v-517h-20v517zM106.5 668q-7.5 8 -7.5 18q0 11 7.5 18.5t18.5 7.5q10 0 18 -7.5t8 -18.5q0 -10 -8 -18t-18 -8q-11 0 -18.5 8z" />
    <glyph glyph-name="dotlessi" unicode="&#x131;" horiz-adv-x="250" 
d="M115 517h20v-517h-20v517z" />
    <glyph glyph-name="iacute" unicode="&#xed;" horiz-adv-x="250" 
d="M115 517h20v-517h-20v517zM220 717h40l-150 -110h-30z" />
    <glyph glyph-name="ibreve" unicode="&#x12d;" horiz-adv-x="250" 
d="M115 517h20v-517h-20v517zM48 634.5q-30 30.5 -30 82.5h19q0 -43 24.5 -68.5t63.5 -25.5t63.5 25.5t24.5 68.5h19q0 -52 -30 -82.5t-77 -30.5t-77 30.5z" />
    <glyph glyph-name="icircumflex" unicode="&#xee;" horiz-adv-x="250" 
d="M115 517h20v-517h-20v517zM211 607l-86 94l-86 -94h-27l98 110h30l98 -110h-27z" />
    <glyph glyph-name="uni0209" unicode="&#x209;" horiz-adv-x="250" 
d="M115 517h20v-517h-20v517zM-76 717h34l111 -110h-27zM63 717h34l111 -110h-27z" />
    <glyph glyph-name="idieresis" unicode="&#xef;" horiz-adv-x="250" 
d="M115 517h20v-517h-20v517zM51.5 648.5q-7.5 7.5 -7.5 18.5t7.5 18.5t17.5 7.5t17.5 -7.5t7.5 -18.5t-7.5 -18.5t-17.5 -7.5t-17.5 7.5zM163.5 648.5q-7.5 7.5 -7.5 18.5t7.5 18.5t17.5 7.5t17.5 -7.5t7.5 -18.5t-7.5 -18.5t-17.5 -7.5t-17.5 7.5z" />
    <glyph glyph-name="uni1E2F" unicode="&#x1e2f;" horiz-adv-x="250" 
d="M115 517h20v-517h-20v517zM24.5 649q-7.5 8 -7.5 18q0 11 7.5 18.5t18.5 7.5q10 0 18 -7.5t8 -18.5q0 -10 -8 -18t-18 -8q-11 0 -18.5 8zM188.5 649q-7.5 8 -7.5 18q0 11 7.5 18.5t18.5 7.5q10 0 18 -7.5t8 -18.5q0 -10 -8 -18t-18 -8q-11 0 -18.5 8zM207 820h40
l-137 -100h-30z" />
    <glyph glyph-name="i.loclTRK" horiz-adv-x="250" 
d="M115 517h20v-517h-20v517zM106.5 649q-7.5 8 -7.5 18q0 11 7.5 18.5t18.5 7.5q10 0 18 -7.5t8 -18.5q0 -10 -8 -18t-18 -8q-11 0 -18.5 8z" />
    <glyph glyph-name="uni1ECB" unicode="&#x1ecb;" horiz-adv-x="250" 
d="M115 517h20v-517h-20v517zM106.5 668q-7.5 8 -7.5 18q0 11 7.5 18.5t18.5 7.5q10 0 18 -7.5t8 -18.5q0 -10 -8 -18t-18 -8q-11 0 -18.5 8zM106.5 -168.5q-7.5 7.5 -7.5 18.5q0 10 7.5 18t18.5 8q10 0 18 -8t8 -18q0 -11 -8 -18.5t-18 -7.5q-11 0 -18.5 7.5z" />
    <glyph glyph-name="igrave" unicode="&#xec;" horiz-adv-x="250" 
d="M115 517h20v-517h-20v517zM-10 717h40l140 -110h-30z" />
    <glyph glyph-name="uni1EC9" unicode="&#x1ec9;" horiz-adv-x="250" 
d="M115 517h20v-517h-20v517zM117 619q63 28 63 77q0 23 -16.5 38.5t-41.5 15.5q-33 0 -62 -19l-8 17q13 10 32 15.5t37 5.5q36 0 57.5 -19.5t21.5 -52.5q0 -30 -18 -53t-55 -41z" />
    <glyph glyph-name="uni020B" unicode="&#x20b;" horiz-adv-x="250" 
d="M115 517h20v-517h-20v517zM48 689.5q30 30.5 77 30.5t77 -30.5t30 -82.5h-19q0 43 -24.5 68.5t-63.5 25.5t-63.5 -25.5t-24.5 -68.5h-19q0 52 30 82.5z" />
    <glyph glyph-name="ij" unicode="&#x133;" horiz-adv-x="505" 
d="M115 517h20v-517h-20v517zM106.5 668q-7.5 8 -7.5 18q0 11 7.5 18.5t18.5 7.5q10 0 18 -7.5t8 -18.5q0 -10 -8 -18t-18 -8q-11 0 -18.5 8zM209 -187.5q-28 9.5 -45 27.5l14 14q34 -32 89 -32q50 0 76.5 29t26.5 84v582h20v-587q0 -58 -32 -92.5t-90 -34.5q-31 0 -59 9.5z
M361.5 668q-7.5 8 -7.5 18q0 11 7.5 18.5t18.5 7.5q10 0 18 -7.5t8 -18.5q0 -10 -8 -18t-18 -8q-11 0 -18.5 8z" />
    <glyph glyph-name="imacron" unicode="&#x12b;" horiz-adv-x="250" 
d="M115 517h20v-517h-20v517zM14 672h222v-20h-222v20z" />
    <glyph glyph-name="iogonek" unicode="&#x12f;" horiz-adv-x="250" 
d="M115 517h20v-517h-20v517zM106.5 668q-7.5 8 -7.5 18q0 11 7.5 18.5t18.5 7.5q10 0 18 -7.5t8 -18.5q0 -10 -8 -18t-18 -8q-11 0 -18.5 8zM78.5 -191.5q-18.5 21.5 -18.5 56.5q0 83 67 152l8 -17q-35 -39 -45 -70t-10 -64q0 -29 13.5 -45t33.5 -16q23 0 40 20l11 -14
q-19 -24 -51 -24q-30 0 -48.5 21.5z" />
    <glyph glyph-name="itilde" unicode="&#x129;" horiz-adv-x="250" 
d="M115 517h20v-517h-20v517zM144.5 629q-13.5 10 -29.5 29q-12 15 -21.5 22.5t-20.5 7.5q-18 0 -29 -18t-11 -49h-19q0 40 15.5 63t43.5 23q19 0 32.5 -10t29.5 -29q12 -15 21.5 -22.5t20.5 -7.5q18 0 29 18t11 47h19q0 -38 -15.5 -61t-43.5 -23q-19 0 -32.5 10z" />
    <glyph glyph-name="j" unicode="j" horiz-adv-x="255" 
d="M-41 -187.5q-28 9.5 -45 27.5l14 14q34 -32 89 -32q50 0 76.5 29t26.5 84v582h20v-587q0 -58 -32 -92.5t-90 -34.5q-31 0 -59 9.5zM111.5 668q-7.5 8 -7.5 18q0 11 7.5 18.5t18.5 7.5q10 0 18 -7.5t8 -18.5q0 -10 -8 -18t-18 -8q-11 0 -18.5 8z" />
    <glyph glyph-name="uni0237" unicode="&#x237;" horiz-adv-x="255" 
d="M-41 -187.5q-28 9.5 -45 27.5l14 14q34 -32 89 -32q50 0 76.5 29t26.5 84v582h20v-587q0 -58 -32 -92.5t-90 -34.5q-31 0 -59 9.5z" />
    <glyph glyph-name="jcircumflex" unicode="&#x135;" horiz-adv-x="255" 
d="M-41 -187.5q-28 9.5 -45 27.5l14 14q34 -32 89 -32q50 0 76.5 29t26.5 84v582h20v-587q0 -58 -32 -92.5t-90 -34.5q-31 0 -59 9.5zM216 607l-86 94l-86 -94h-27l98 110h30l98 -110h-27z" />
    <glyph glyph-name="k" unicode="k" horiz-adv-x="570" 
d="M288 299l-153 -139v-160h-20v742h20v-558l365 333h29l-225 -206l248 -311h-26z" />
    <glyph glyph-name="uni01E9" unicode="&#x1e9;" horiz-adv-x="570" 
d="M288 299l-153 -139v-160h-20v742h20v-558l365 333h29l-225 -206l248 -311h-26zM263 942l-122 -110h-32l-122 110h27l111 -93l111 93h27z" />
    <glyph glyph-name="kcommaaccent" unicode="&#x137;" horiz-adv-x="570" 
d="M288 299l-153 -139v-160h-20v742h20v-558l365 333h29l-225 -206l248 -311h-26zM325.5 -132q7.5 -8 7.5 -18t-6 -32l-23 -77h-18l18 83q-10 2 -16.5 9t-6.5 17q0 11 7.5 18.5t18.5 7.5t18.5 -8z" />
    <glyph glyph-name="kgreenlandic" unicode="&#x138;" horiz-adv-x="557" 
d="M288 299l-153 -139v-160h-20v517h20v-333l365 333h29l-225 -206l248 -311h-26z" />
    <glyph glyph-name="l" unicode="l" horiz-adv-x="250" 
d="M115 742h20v-742h-20v742z" />
    <glyph glyph-name="lacute" unicode="&#x13a;" horiz-adv-x="250" 
d="M115 742h20v-742h-20v742zM220 942h40l-150 -110h-30z" />
    <glyph glyph-name="lcaron" unicode="&#x13e;" horiz-adv-x="250" 
d="M115 742h20v-742h-20v742zM235 762h20l-2 -180h-18v180z" />
    <glyph glyph-name="lcommaaccent" unicode="&#x13c;" horiz-adv-x="250" 
d="M115 742h20v-742h-20v742zM143.5 -132q7.5 -8 7.5 -18t-6 -32l-23 -77h-18l18 83q-10 2 -16.5 9t-6.5 17q0 11 7.5 18.5t18.5 7.5t18.5 -8z" />
    <glyph glyph-name="ldot" unicode="&#x140;" horiz-adv-x="250" 
d="M115 742h20v-742h-20v742zM232 331q-8 8 -8 18q0 11 8 18.5t18 7.5q11 0 18.5 -7.5t7.5 -18.5q0 -10 -7.5 -18t-18.5 -8q-10 0 -18 8z" />
    <glyph glyph-name="uni1E37" unicode="&#x1e37;" horiz-adv-x="250" 
d="M115 742h20v-742h-20v742zM106.5 -168.5q-7.5 7.5 -7.5 18.5q0 10 7.5 18t18.5 8q10 0 18 -8t8 -18q0 -11 -8 -18.5t-18 -7.5q-11 0 -18.5 7.5z" />
    <glyph glyph-name="uni01C9" unicode="&#x1c9;" horiz-adv-x="505" 
d="M115 742h20v-742h-20v742zM209 -187.5q-28 9.5 -45 27.5l14 14q34 -32 89 -32q50 0 76.5 29t26.5 84v582h20v-587q0 -58 -32 -92.5t-90 -34.5q-31 0 -59 9.5zM361.5 668q-7.5 8 -7.5 18q0 11 7.5 18.5t18.5 7.5q10 0 18 -7.5t8 -18.5q0 -10 -8 -18t-18 -8q-11 0 -18.5 8z
" />
    <glyph glyph-name="uni1E3B" unicode="&#x1e3b;" horiz-adv-x="250" 
d="M115 742h20v-742h-20v742zM-11 -140h272v-20h-272v20z" />
    <glyph glyph-name="lslash" unicode="&#x142;" horiz-adv-x="250" 
d="M115 742h20v-742h-20v742zM23 286l193 142l11 -14l-193 -142z" />
    <glyph glyph-name="m" unicode="m" horiz-adv-x="1068" 
d="M905.5 464.5q53.5 -55.5 53.5 -159.5v-305h-20v305q0 95 -47 145.5t-133 50.5q-98 0 -155 -60.5t-57 -159.5v-281h-20v305q0 95 -47 145.5t-133 50.5q-98 0 -155 -60.5t-57 -159.5v-281h-20v517h20v-137q23 66 78 103t133 37q79 0 130 -39.5t66 -114.5q20 71 76.5 112.5
t139.5 41.5q94 0 147.5 -55.5z" />
    <glyph glyph-name="uni1E43" unicode="&#x1e43;" horiz-adv-x="1068" 
d="M905.5 464.5q53.5 -55.5 53.5 -159.5v-305h-20v305q0 95 -47 145.5t-133 50.5q-98 0 -155 -60.5t-57 -159.5v-281h-20v305q0 95 -47 145.5t-133 50.5q-98 0 -155 -60.5t-57 -159.5v-281h-20v517h20v-137q23 66 78 103t133 37q79 0 130 -39.5t66 -114.5q20 71 76.5 112.5
t139.5 41.5q94 0 147.5 -55.5zM518.5 -168.5q-7.5 7.5 -7.5 18.5q0 10 7.5 18t18.5 8q10 0 18 -8t8 -18q0 -11 -8 -18.5t-18 -7.5q-11 0 -18.5 7.5z" />
    <glyph glyph-name="n" unicode="n" horiz-adv-x="668" 
d="M504 464.5q55 -55.5 55 -159.5v-305h-20v305q0 95 -48.5 145.5t-137.5 50.5q-101 0 -159.5 -60.5t-58.5 -159.5v-281h-20v517h20v-138q24 66 80 103.5t137 37.5q97 0 152 -55.5z" />
    <glyph glyph-name="nacute" unicode="&#x144;" horiz-adv-x="668" 
d="M504 464.5q55 -55.5 55 -159.5v-305h-20v305q0 95 -48.5 145.5t-137.5 50.5q-101 0 -159.5 -60.5t-58.5 -159.5v-281h-20v517h20v-138q24 66 80 103.5t137 37.5q97 0 152 -55.5zM430 717h40l-150 -110h-30z" />
    <glyph glyph-name="napostrophe" unicode="&#x149;" horiz-adv-x="707" 
d="M72 700h20l-7 -259h-18zM543 464.5q55 -55.5 55 -159.5v-305h-20v305q0 95 -48.5 145.5t-137.5 50.5q-101 0 -159.5 -60.5t-58.5 -159.5v-281h-20v517h20v-138q24 66 80 103.5t137 37.5q97 0 152 -55.5z" />
    <glyph glyph-name="ncaron" unicode="&#x148;" horiz-adv-x="668" 
d="M504 464.5q55 -55.5 55 -159.5v-305h-20v305q0 95 -48.5 145.5t-137.5 50.5q-101 0 -159.5 -60.5t-58.5 -159.5v-281h-20v517h20v-138q24 66 80 103.5t137 37.5q97 0 152 -55.5zM473 717l-122 -110h-32l-122 110h27l111 -93l111 93h27z" />
    <glyph glyph-name="ncommaaccent" unicode="&#x146;" horiz-adv-x="668" 
d="M504 464.5q55 -55.5 55 -159.5v-305h-20v305q0 95 -48.5 145.5t-137.5 50.5q-101 0 -159.5 -60.5t-58.5 -159.5v-281h-20v517h20v-138q24 66 80 103.5t137 37.5q97 0 152 -55.5zM353.5 -132q7.5 -8 7.5 -18t-6 -32l-23 -77h-18l18 83q-10 2 -16.5 9t-6.5 17
q0 11 7.5 18.5t18.5 7.5t18.5 -8z" />
    <glyph glyph-name="uni1E45" unicode="&#x1e45;" horiz-adv-x="668" 
d="M504 464.5q55 -55.5 55 -159.5v-305h-20v305q0 95 -48.5 145.5t-137.5 50.5q-101 0 -159.5 -60.5t-58.5 -159.5v-281h-20v517h20v-138q24 66 80 103.5t137 37.5q97 0 152 -55.5zM316.5 649q-7.5 8 -7.5 18q0 11 7.5 18.5t18.5 7.5q10 0 18 -7.5t8 -18.5q0 -10 -8 -18
t-18 -8q-11 0 -18.5 8z" />
    <glyph glyph-name="uni1E47" unicode="&#x1e47;" horiz-adv-x="668" 
d="M504 464.5q55 -55.5 55 -159.5v-305h-20v305q0 95 -48.5 145.5t-137.5 50.5q-101 0 -159.5 -60.5t-58.5 -159.5v-281h-20v517h20v-138q24 66 80 103.5t137 37.5q97 0 152 -55.5zM316.5 -168.5q-7.5 7.5 -7.5 18.5q0 10 7.5 18t18.5 8q10 0 18 -8t8 -18q0 -11 -8 -18.5
t-18 -7.5q-11 0 -18.5 7.5z" />
    <glyph glyph-name="eng" unicode="&#x14b;" horiz-adv-x="668" 
d="M504 464.5q55 -55.5 55 -159.5v-375q0 -58 -32 -92.5t-90 -34.5q-31 0 -59 9.5t-45 27.5l14 14q34 -32 89 -32q50 0 76.5 29t26.5 84v370q0 95 -48.5 145.5t-137.5 50.5q-101 0 -159.5 -60.5t-58.5 -159.5v-281h-20v517h20v-138q24 66 80 103.5t137 37.5q97 0 152 -55.5z
" />
    <glyph glyph-name="uni01CC" unicode="&#x1cc;" horiz-adv-x="923" 
d="M504 464.5q55 -55.5 55 -159.5v-305h-20v305q0 95 -48.5 145.5t-137.5 50.5q-101 0 -159.5 -60.5t-58.5 -159.5v-281h-20v517h20v-138q24 66 80 103.5t137 37.5q97 0 152 -55.5zM627 -187.5q-28 9.5 -45 27.5l14 14q34 -32 89 -32q50 0 76.5 29t26.5 84v582h20v-587
q0 -58 -32 -92.5t-90 -34.5q-31 0 -59 9.5zM779.5 668q-7.5 8 -7.5 18q0 11 7.5 18.5t18.5 7.5q10 0 18 -7.5t8 -18.5q0 -10 -8 -18t-18 -8q-11 0 -18.5 8z" />
    <glyph glyph-name="uni1E49" unicode="&#x1e49;" horiz-adv-x="668" 
d="M504 464.5q55 -55.5 55 -159.5v-305h-20v305q0 95 -48.5 145.5t-137.5 50.5q-101 0 -159.5 -60.5t-58.5 -159.5v-281h-20v517h20v-138q24 66 80 103.5t137 37.5q97 0 152 -55.5zM199 -140h272v-20h-272v20z" />
    <glyph glyph-name="ntilde" unicode="&#xf1;" horiz-adv-x="668" 
d="M504 464.5q55 -55.5 55 -159.5v-305h-20v305q0 95 -48.5 145.5t-137.5 50.5q-101 0 -159.5 -60.5t-58.5 -159.5v-281h-20v517h20v-138q24 66 80 103.5t137 37.5q97 0 152 -55.5zM362.5 628.5q-15.5 9.5 -35.5 28.5q-16 15 -28.5 23t-26.5 8q-24 0 -38 -18t-16 -49h-19
q2 39 21.5 62.5t51.5 23.5q20 0 35.5 -9.5t35.5 -28.5q16 -15 28.5 -23t26.5 -8q24 0 38 17.5t16 47.5h19q-2 -38 -21.5 -61t-51.5 -23q-20 0 -35.5 9.5z" />
    <glyph glyph-name="o" unicode="o" horiz-adv-x="610" 
d="M176.5 30.5q-57.5 33.5 -90 93.5t-32.5 135t32.5 134.5t90 93t128.5 33.5t128.5 -33.5t90 -93t32.5 -134.5t-32.5 -135t-90 -93.5t-128.5 -33.5t-128.5 33.5zM423 47q53 31 83 86.5t30 125.5t-30 125.5t-83 86t-118 30.5t-118 -30.5t-83 -86t-30 -125.5t30 -125.5
t83 -86.5t118 -31t118 31z" />
    <glyph glyph-name="oacute" unicode="&#xf3;" horiz-adv-x="610" 
d="M176.5 30.5q-57.5 33.5 -90 93.5t-32.5 135t32.5 134.5t90 93t128.5 33.5t128.5 -33.5t90 -93t32.5 -134.5t-32.5 -135t-90 -93.5t-128.5 -33.5t-128.5 33.5zM423 47q53 31 83 86.5t30 125.5t-30 125.5t-83 86t-118 30.5t-118 -30.5t-83 -86t-30 -125.5t30 -125.5
t83 -86.5t118 -31t118 31zM400 717h40l-150 -110h-30z" />
    <glyph glyph-name="obreve" unicode="&#x14f;" horiz-adv-x="610" 
d="M176.5 30.5q-57.5 33.5 -90 93.5t-32.5 135t32.5 134.5t90 93t128.5 33.5t128.5 -33.5t90 -93t32.5 -134.5t-32.5 -135t-90 -93.5t-128.5 -33.5t-128.5 33.5zM423 47q53 31 83 86.5t30 125.5t-30 125.5t-83 86t-118 30.5t-118 -30.5t-83 -86t-30 -125.5t30 -125.5
t83 -86.5t118 -31t118 31zM212 635q-38 31 -39 82h19q1 -43 33 -68.5t80 -25.5t80 25.5t33 68.5h19q-1 -51 -39 -82t-93 -31t-93 31z" />
    <glyph glyph-name="ocircumflex" unicode="&#xf4;" horiz-adv-x="610" 
d="M176.5 30.5q-57.5 33.5 -90 93.5t-32.5 135t32.5 134.5t90 93t128.5 33.5t128.5 -33.5t90 -93t32.5 -134.5t-32.5 -135t-90 -93.5t-128.5 -33.5t-128.5 33.5zM423 47q53 31 83 86.5t30 125.5t-30 125.5t-83 86t-118 30.5t-118 -30.5t-83 -86t-30 -125.5t30 -125.5
t83 -86.5t118 -31t118 31zM416 607l-111 93l-111 -93h-27l122 110h32l122 -110h-27z" />
    <glyph glyph-name="uni1ED1" unicode="&#x1ed1;" horiz-adv-x="610" 
d="M176.5 30.5q-57.5 33.5 -90 93.5t-32.5 135t32.5 134.5t90 93t128.5 33.5t128.5 -33.5t90 -93t32.5 -134.5t-32.5 -135t-90 -93.5t-128.5 -33.5t-128.5 33.5zM423 47q53 31 83 86.5t30 125.5t-30 125.5t-83 86t-118 30.5t-118 -30.5t-83 -86t-30 -125.5t30 -125.5
t83 -86.5t118 -31t118 31zM413 607l-108 64l-108 -64h-30l123 80h30l123 -80h-30zM507 782h40l-137 -100h-30z" />
    <glyph glyph-name="uni1ED9" unicode="&#x1ed9;" horiz-adv-x="610" 
d="M176.5 30.5q-57.5 33.5 -90 93.5t-32.5 135t32.5 134.5t90 93t128.5 33.5t128.5 -33.5t90 -93t32.5 -134.5t-32.5 -135t-90 -93.5t-128.5 -33.5t-128.5 33.5zM423 47q53 31 83 86.5t30 125.5t-30 125.5t-83 86t-118 30.5t-118 -30.5t-83 -86t-30 -125.5t30 -125.5
t83 -86.5t118 -31t118 31zM286.5 -168.5q-7.5 7.5 -7.5 18.5q0 10 7.5 18t18.5 8q10 0 18 -8t8 -18q0 -11 -8 -18.5t-18 -7.5q-11 0 -18.5 7.5zM416 607l-111 93l-111 -93h-27l122 110h32l122 -110h-27z" />
    <glyph glyph-name="uni1ED3" unicode="&#x1ed3;" horiz-adv-x="610" 
d="M176.5 30.5q-57.5 33.5 -90 93.5t-32.5 135t32.5 134.5t90 93t128.5 33.5t128.5 -33.5t90 -93t32.5 -134.5t-32.5 -135t-90 -93.5t-128.5 -33.5t-128.5 33.5zM423 47q53 31 83 86.5t30 125.5t-30 125.5t-83 86t-118 30.5t-118 -30.5t-83 -86t-30 -125.5t30 -125.5
t83 -86.5t118 -31t118 31zM413 607l-108 64l-108 -64h-30l123 80h30l123 -80h-30zM303 782h40l127 -100h-30z" />
    <glyph glyph-name="uni1ED5" unicode="&#x1ed5;" horiz-adv-x="610" 
d="M176.5 30.5q-57.5 33.5 -90 93.5t-32.5 135t32.5 134.5t90 93t128.5 33.5t128.5 -33.5t90 -93t32.5 -134.5t-32.5 -135t-90 -93.5t-128.5 -33.5t-128.5 33.5zM423 47q53 31 83 86.5t30 125.5t-30 125.5t-83 86t-118 30.5t-118 -30.5t-83 -86t-30 -125.5t30 -125.5
t83 -86.5t118 -31t118 31zM413 607l-108 64l-108 -64h-30l123 80h30l123 -80h-30zM398 683q21 10 33 24.5t12 31.5q0 16 -11.5 26t-30.5 10q-24 0 -43 -13l-8 16q22 16 52 16q28 0 44 -15t16 -40q0 -47 -54 -71z" />
    <glyph glyph-name="uni1ED7" unicode="&#x1ed7;" horiz-adv-x="610" 
d="M176.5 30.5q-57.5 33.5 -90 93.5t-32.5 135t32.5 134.5t90 93t128.5 33.5t128.5 -33.5t90 -93t32.5 -134.5t-32.5 -135t-90 -93.5t-128.5 -33.5t-128.5 33.5zM423 47q53 31 83 86.5t30 125.5t-30 125.5t-83 86t-118 30.5t-118 -30.5t-83 -86t-30 -125.5t30 -125.5
t83 -86.5t118 -31t118 31zM413 607l-108 64l-108 -64h-30l123 80h30l123 -80h-30zM333 727q-14 7 -35 22q-16 12 -28.5 18.5t-25.5 6.5q-24 0 -38.5 -13.5t-15.5 -38.5h-19q1 32 21 51.5t52 19.5q18 0 32.5 -7t35.5 -22q16 -12 28.5 -18.5t25.5 -6.5q24 0 38.5 13t15.5 37
h19q-1 -31 -21 -50t-52 -19q-19 0 -33 7z" />
    <glyph glyph-name="uni020D" unicode="&#x20d;" horiz-adv-x="610" 
d="M176.5 30.5q-57.5 33.5 -90 93.5t-32.5 135t32.5 134.5t90 93t128.5 33.5t128.5 -33.5t90 -93t32.5 -134.5t-32.5 -135t-90 -93.5t-128.5 -33.5t-128.5 33.5zM423 47q53 31 83 86.5t30 125.5t-30 125.5t-83 86t-118 30.5t-118 -30.5t-83 -86t-30 -125.5t30 -125.5
t83 -86.5t118 -31t118 31zM104 717h34l111 -110h-27zM243 717h34l111 -110h-27z" />
    <glyph glyph-name="odieresis" unicode="&#xf6;" horiz-adv-x="610" 
d="M176.5 30.5q-57.5 33.5 -90 93.5t-32.5 135t32.5 134.5t90 93t128.5 33.5t128.5 -33.5t90 -93t32.5 -134.5t-32.5 -135t-90 -93.5t-128.5 -33.5t-128.5 33.5zM423 47q53 31 83 86.5t30 125.5t-30 125.5t-83 86t-118 30.5t-118 -30.5t-83 -86t-30 -125.5t30 -125.5
t83 -86.5t118 -31t118 31zM204.5 649q-7.5 8 -7.5 18q0 11 7.5 18.5t18.5 7.5q10 0 18 -7.5t8 -18.5q0 -10 -8 -18t-18 -8q-11 0 -18.5 8zM368.5 649q-7.5 8 -7.5 18q0 11 7.5 18.5t18.5 7.5q10 0 18 -7.5t8 -18.5q0 -10 -8 -18t-18 -8q-11 0 -18.5 8z" />
    <glyph glyph-name="uni022B" unicode="&#x22b;" horiz-adv-x="610" 
d="M176.5 30.5q-57.5 33.5 -90 93.5t-32.5 135t32.5 134.5t90 93t128.5 33.5t128.5 -33.5t90 -93t32.5 -134.5t-32.5 -135t-90 -93.5t-128.5 -33.5t-128.5 33.5zM423 47q53 31 83 86.5t30 125.5t-30 125.5t-83 86t-118 30.5t-118 -30.5t-83 -86t-30 -125.5t30 -125.5
t83 -86.5t118 -31t118 31zM204.5 649q-7.5 8 -7.5 18q0 11 7.5 18.5t18.5 7.5q10 0 18 -7.5t8 -18.5q0 -10 -8 -18t-18 -8q-11 0 -18.5 8zM368.5 649q-7.5 8 -7.5 18q0 11 7.5 18.5t18.5 7.5q10 0 18 -7.5t8 -18.5q0 -10 -8 -18t-18 -8q-11 0 -18.5 8zM169 770h272v-20h-272
v20z" />
    <glyph glyph-name="uni0231" unicode="&#x231;" horiz-adv-x="610" 
d="M176.5 30.5q-57.5 33.5 -90 93.5t-32.5 135t32.5 134.5t90 93t128.5 33.5t128.5 -33.5t90 -93t32.5 -134.5t-32.5 -135t-90 -93.5t-128.5 -33.5t-128.5 33.5zM423 47q53 31 83 86.5t30 125.5t-30 125.5t-83 86t-118 30.5t-118 -30.5t-83 -86t-30 -125.5t30 -125.5
t83 -86.5t118 -31t118 31zM286.5 649q-7.5 8 -7.5 18q0 11 7.5 18.5t18.5 7.5q10 0 18 -7.5t8 -18.5q0 -10 -8 -18t-18 -8q-11 0 -18.5 8zM169 770h272v-20h-272v20z" />
    <glyph glyph-name="uni1ECD" unicode="&#x1ecd;" horiz-adv-x="610" 
d="M176.5 30.5q-57.5 33.5 -90 93.5t-32.5 135t32.5 134.5t90 93t128.5 33.5t128.5 -33.5t90 -93t32.5 -134.5t-32.5 -135t-90 -93.5t-128.5 -33.5t-128.5 33.5zM423 47q53 31 83 86.5t30 125.5t-30 125.5t-83 86t-118 30.5t-118 -30.5t-83 -86t-30 -125.5t30 -125.5
t83 -86.5t118 -31t118 31zM286.5 -168.5q-7.5 7.5 -7.5 18.5q0 10 7.5 18t18.5 8q10 0 18 -8t8 -18q0 -11 -8 -18.5t-18 -7.5q-11 0 -18.5 7.5z" />
    <glyph glyph-name="ograve" unicode="&#xf2;" horiz-adv-x="610" 
d="M176.5 30.5q-57.5 33.5 -90 93.5t-32.5 135t32.5 134.5t90 93t128.5 33.5t128.5 -33.5t90 -93t32.5 -134.5t-32.5 -135t-90 -93.5t-128.5 -33.5t-128.5 33.5zM423 47q53 31 83 86.5t30 125.5t-30 125.5t-83 86t-118 30.5t-118 -30.5t-83 -86t-30 -125.5t30 -125.5
t83 -86.5t118 -31t118 31zM170 717h40l140 -110h-30z" />
    <glyph glyph-name="uni1ECF" unicode="&#x1ecf;" horiz-adv-x="610" 
d="M176.5 30.5q-57.5 33.5 -90 93.5t-32.5 135t32.5 134.5t90 93t128.5 33.5t128.5 -33.5t90 -93t32.5 -134.5t-32.5 -135t-90 -93.5t-128.5 -33.5t-128.5 33.5zM423 47q53 31 83 86.5t30 125.5t-30 125.5t-83 86t-118 30.5t-118 -30.5t-83 -86t-30 -125.5t30 -125.5
t83 -86.5t118 -31t118 31zM297 619q63 28 63 77q0 23 -16.5 38.5t-41.5 15.5q-33 0 -62 -19l-8 17q13 10 32 15.5t37 5.5q36 0 57.5 -19.5t21.5 -52.5q0 -30 -18 -53t-55 -41z" />
    <glyph glyph-name="ohorn" unicode="&#x1a1;" horiz-adv-x="610" 
d="M518 404q38 -63 38 -145q0 -75 -32.5 -135t-90 -93.5t-128.5 -33.5t-128.5 33.5t-90 93.5t-32.5 135t32.5 134.5t90 93t128.5 33.5q27 0 65 -2q28 -3 65 -3q44 0 67.5 21.5t23.5 51.5q0 32 -20 67l18 8q10 -15 16 -35t6 -39q0 -39 -28.5 -66t-81.5 -27q-13 0 -22 1
q66 -30 104 -93zM423 47q53 31 83 86.5t30 125.5t-30 125.5t-83 86t-118 30.5t-118 -30.5t-83 -86t-30 -125.5t30 -125.5t83 -86.5t118 -31t118 31z" />
    <glyph glyph-name="uni1EDB" unicode="&#x1edb;" horiz-adv-x="610" 
d="M518 404q38 -63 38 -145q0 -75 -32.5 -135t-90 -93.5t-128.5 -33.5t-128.5 33.5t-90 93.5t-32.5 135t32.5 134.5t90 93t128.5 33.5q27 0 65 -2q28 -3 65 -3q44 0 67.5 21.5t23.5 51.5q0 32 -20 67l18 8q10 -15 16 -35t6 -39q0 -39 -28.5 -66t-81.5 -27q-13 0 -22 1
q66 -30 104 -93zM423 47q53 31 83 86.5t30 125.5t-30 125.5t-83 86t-118 30.5t-118 -30.5t-83 -86t-30 -125.5t30 -125.5t83 -86.5t118 -31t118 31zM400 717h40l-150 -110h-30z" />
    <glyph glyph-name="uni1EE3" unicode="&#x1ee3;" horiz-adv-x="610" 
d="M518 404q38 -63 38 -145q0 -75 -32.5 -135t-90 -93.5t-128.5 -33.5t-128.5 33.5t-90 93.5t-32.5 135t32.5 134.5t90 93t128.5 33.5q27 0 65 -2q28 -3 65 -3q44 0 67.5 21.5t23.5 51.5q0 32 -20 67l18 8q10 -15 16 -35t6 -39q0 -39 -28.5 -66t-81.5 -27q-13 0 -22 1
q66 -30 104 -93zM423 47q53 31 83 86.5t30 125.5t-30 125.5t-83 86t-118 30.5t-118 -30.5t-83 -86t-30 -125.5t30 -125.5t83 -86.5t118 -31t118 31zM286.5 -168.5q-7.5 7.5 -7.5 18.5q0 10 7.5 18t18.5 8q10 0 18 -8t8 -18q0 -11 -8 -18.5t-18 -7.5q-11 0 -18.5 7.5z" />
    <glyph glyph-name="uni1EDD" unicode="&#x1edd;" horiz-adv-x="610" 
d="M518 404q38 -63 38 -145q0 -75 -32.5 -135t-90 -93.5t-128.5 -33.5t-128.5 33.5t-90 93.5t-32.5 135t32.5 134.5t90 93t128.5 33.5q27 0 65 -2q28 -3 65 -3q44 0 67.5 21.5t23.5 51.5q0 32 -20 67l18 8q10 -15 16 -35t6 -39q0 -39 -28.5 -66t-81.5 -27q-13 0 -22 1
q66 -30 104 -93zM423 47q53 31 83 86.5t30 125.5t-30 125.5t-83 86t-118 30.5t-118 -30.5t-83 -86t-30 -125.5t30 -125.5t83 -86.5t118 -31t118 31zM170 717h40l140 -110h-30z" />
    <glyph glyph-name="uni1EDF" unicode="&#x1edf;" horiz-adv-x="610" 
d="M518 404q38 -63 38 -145q0 -75 -32.5 -135t-90 -93.5t-128.5 -33.5t-128.5 33.5t-90 93.5t-32.5 135t32.5 134.5t90 93t128.5 33.5q27 0 65 -2q28 -3 65 -3q44 0 67.5 21.5t23.5 51.5q0 32 -20 67l18 8q10 -15 16 -35t6 -39q0 -39 -28.5 -66t-81.5 -27q-13 0 -22 1
q66 -30 104 -93zM423 47q53 31 83 86.5t30 125.5t-30 125.5t-83 86t-118 30.5t-118 -30.5t-83 -86t-30 -125.5t30 -125.5t83 -86.5t118 -31t118 31zM297 619q63 28 63 77q0 23 -16.5 38.5t-41.5 15.5q-33 0 -62 -19l-8 17q13 10 32 15.5t37 5.5q36 0 57.5 -19.5t21.5 -52.5
q0 -30 -18 -53t-55 -41z" />
    <glyph glyph-name="uni1EE1" unicode="&#x1ee1;" horiz-adv-x="614" 
d="M518 404q38 -63 38 -145q0 -75 -32.5 -135t-90 -93.5t-128.5 -33.5t-128.5 33.5t-90 93.5t-32.5 135t32.5 134.5t90 93t128.5 33.5q27 0 65 -2q28 -3 65 -3q44 0 67.5 21.5t23.5 51.5q0 32 -20 67l18 8q10 -15 16 -35t6 -39q0 -39 -28.5 -66t-81.5 -27q-13 0 -22 1
q66 -30 104 -93zM423 47q53 31 83 86.5t30 125.5t-30 125.5t-83 86t-118 30.5t-118 -30.5t-83 -86t-30 -125.5t30 -125.5t83 -86.5t118 -31t118 31zM336.5 628.5q-15.5 9.5 -35.5 28.5q-16 15 -28.5 23t-26.5 8q-24 0 -38 -18t-16 -49h-19q2 39 21.5 62.5t51.5 23.5
q20 0 35.5 -9.5t35.5 -28.5q16 -15 28.5 -23t26.5 -8q24 0 38 17.5t16 47.5h19q-2 -38 -21.5 -61t-51.5 -23q-20 0 -35.5 9.5z" />
    <glyph glyph-name="ohungarumlaut" unicode="&#x151;" horiz-adv-x="610" 
d="M176.5 30.5q-57.5 33.5 -90 93.5t-32.5 135t32.5 134.5t90 93t128.5 33.5t128.5 -33.5t90 -93t32.5 -134.5t-32.5 -135t-90 -93.5t-128.5 -33.5t-128.5 33.5zM423 47q53 31 83 86.5t30 125.5t-30 125.5t-83 86t-118 30.5t-118 -30.5t-83 -86t-30 -125.5t30 -125.5
t83 -86.5t118 -31t118 31zM333 717h34l-118 -110h-27zM472 717h34l-118 -110h-27z" />
    <glyph glyph-name="uni020F" unicode="&#x20f;" horiz-adv-x="610" 
d="M176.5 30.5q-57.5 33.5 -90 93.5t-32.5 135t32.5 134.5t90 93t128.5 33.5t128.5 -33.5t90 -93t32.5 -134.5t-32.5 -135t-90 -93.5t-128.5 -33.5t-128.5 33.5zM423 47q53 31 83 86.5t30 125.5t-30 125.5t-83 86t-118 30.5t-118 -30.5t-83 -86t-30 -125.5t30 -125.5
t83 -86.5t118 -31t118 31zM212 689q38 31 93 31t93 -31t39 -82h-19q-1 43 -33 68.5t-80 25.5t-80 -25.5t-33 -68.5h-19q1 51 39 82z" />
    <glyph glyph-name="omacron" unicode="&#x14d;" horiz-adv-x="610" 
d="M176.5 30.5q-57.5 33.5 -90 93.5t-32.5 135t32.5 134.5t90 93t128.5 33.5t128.5 -33.5t90 -93t32.5 -134.5t-32.5 -135t-90 -93.5t-128.5 -33.5t-128.5 33.5zM423 47q53 31 83 86.5t30 125.5t-30 125.5t-83 86t-118 30.5t-118 -30.5t-83 -86t-30 -125.5t30 -125.5
t83 -86.5t118 -31t118 31zM169 672h272v-20h-272v20z" />
    <glyph glyph-name="uni1E53" unicode="&#x1e53;" horiz-adv-x="610" 
d="M176.5 30.5q-57.5 33.5 -90 93.5t-32.5 135t32.5 134.5t90 93t128.5 33.5t128.5 -33.5t90 -93t32.5 -134.5t-32.5 -135t-90 -93.5t-128.5 -33.5t-128.5 33.5zM423 47q53 31 83 86.5t30 125.5t-30 125.5t-83 86t-118 30.5t-118 -30.5t-83 -86t-30 -125.5t30 -125.5
t83 -86.5t118 -31t118 31zM169 657h272v-20h-272v20zM387 820h40l-137 -100h-30z" />
    <glyph glyph-name="uni1E51" unicode="&#x1e51;" horiz-adv-x="610" 
d="M176.5 30.5q-57.5 33.5 -90 93.5t-32.5 135t32.5 134.5t90 93t128.5 33.5t128.5 -33.5t90 -93t32.5 -134.5t-32.5 -135t-90 -93.5t-128.5 -33.5t-128.5 33.5zM423 47q53 31 83 86.5t30 125.5t-30 125.5t-83 86t-118 30.5t-118 -30.5t-83 -86t-30 -125.5t30 -125.5
t83 -86.5t118 -31t118 31zM169 657h272v-20h-272v20zM183 820h40l127 -100h-30z" />
    <glyph glyph-name="uni01EB" unicode="&#x1eb;" horiz-adv-x="610" 
d="M433.5 486.5q57.5 -33.5 90 -93t32.5 -134.5q0 -83 -38 -145.5t-106 -94.5q-90 -43 -119.5 -78t-29.5 -71q0 -31 20 -47.5t52 -16.5q37 0 62 23l11 -15q-31 -27 -74 -27q-40 0 -65.5 22.5t-25.5 60.5q0 74 97 129q-13 -2 -35 -2q-71 0 -128.5 33.5t-90 93.5t-32.5 135
t32.5 134.5t90 93t128.5 33.5t128.5 -33.5zM423 47q53 31 83 86.5t30 125.5t-30 125.5t-83 86t-118 30.5t-118 -30.5t-83 -86t-30 -125.5t30 -125.5t83 -86.5t118 -31t118 31z" />
    <glyph glyph-name="oslash" unicode="&#xf8;" horiz-adv-x="610" 
d="M176.5 30.5q-57.5 33.5 -90 93.5t-32.5 135t32.5 134.5t90 93t128.5 33.5t128.5 -33.5t90 -93t32.5 -134.5t-32.5 -135t-90 -93.5t-128.5 -33.5t-128.5 33.5zM423 47q53 31 83 86.5t30 125.5t-30 125.5t-83 86t-118 30.5t-118 -30.5t-83 -86t-30 -125.5t30 -125.5
t83 -86.5t118 -31t118 31zM516 587h23l-446 -657h-23z" />
    <glyph glyph-name="oslashacute" unicode="&#x1ff;" horiz-adv-x="610" 
d="M176.5 30.5q-57.5 33.5 -90 93.5t-32.5 135t32.5 134.5t90 93t128.5 33.5t128.5 -33.5t90 -93t32.5 -134.5t-32.5 -135t-90 -93.5t-128.5 -33.5t-128.5 33.5zM423 47q53 31 83 86.5t30 125.5t-30 125.5t-83 86t-118 30.5t-118 -30.5t-83 -86t-30 -125.5t30 -125.5
t83 -86.5t118 -31t118 31zM516 587h23l-446 -657h-23zM400 717h40l-150 -110h-30z" />
    <glyph glyph-name="otilde" unicode="&#xf5;" horiz-adv-x="610" 
d="M176.5 30.5q-57.5 33.5 -90 93.5t-32.5 135t32.5 134.5t90 93t128.5 33.5t128.5 -33.5t90 -93t32.5 -134.5t-32.5 -135t-90 -93.5t-128.5 -33.5t-128.5 33.5zM423 47q53 31 83 86.5t30 125.5t-30 125.5t-83 86t-118 30.5t-118 -30.5t-83 -86t-30 -125.5t30 -125.5
t83 -86.5t118 -31t118 31zM332.5 628.5q-15.5 9.5 -35.5 28.5q-16 15 -28.5 23t-26.5 8q-24 0 -38 -18t-16 -49h-19q2 39 21.5 62.5t51.5 23.5q20 0 35.5 -9.5t35.5 -28.5q16 -15 28.5 -23t26.5 -8q24 0 38 17.5t16 47.5h19q-2 -38 -21.5 -61t-51.5 -23q-20 0 -35.5 9.5z
" />
    <glyph glyph-name="uni1E4D" unicode="&#x1e4d;" horiz-adv-x="610" 
d="M176.5 30.5q-57.5 33.5 -90 93.5t-32.5 135t32.5 134.5t90 93t128.5 33.5t128.5 -33.5t90 -93t32.5 -134.5t-32.5 -135t-90 -93.5t-128.5 -33.5t-128.5 33.5zM423 47q53 31 83 86.5t30 125.5t-30 125.5t-83 86t-118 30.5t-118 -30.5t-83 -86t-30 -125.5t30 -125.5
t83 -86.5t118 -31t118 31zM333 629q-14 7 -35 22q-16 12 -28.5 18.5t-25.5 6.5q-24 0 -38.5 -13.5t-15.5 -38.5h-19q1 32 21 51.5t52 19.5q18 0 32.5 -7t35.5 -22q16 -12 28.5 -18.5t25.5 -6.5q24 0 38.5 13t15.5 37h19q-1 -31 -21 -50t-52 -19q-19 0 -33 7zM387 820h40
l-137 -100h-30z" />
    <glyph glyph-name="uni1E4F" unicode="&#x1e4f;" horiz-adv-x="610" 
d="M176.5 30.5q-57.5 33.5 -90 93.5t-32.5 135t32.5 134.5t90 93t128.5 33.5t128.5 -33.5t90 -93t32.5 -134.5t-32.5 -135t-90 -93.5t-128.5 -33.5t-128.5 33.5zM423 47q53 31 83 86.5t30 125.5t-30 125.5t-83 86t-118 30.5t-118 -30.5t-83 -86t-30 -125.5t30 -125.5
t83 -86.5t118 -31t118 31zM333 629q-14 7 -35 22q-16 12 -28.5 18.5t-25.5 6.5q-24 0 -38.5 -13.5t-15.5 -38.5h-19q1 32 21 51.5t52 19.5q18 0 32.5 -7t35.5 -22q16 -12 28.5 -18.5t25.5 -6.5q24 0 38.5 13t15.5 37h19q-1 -31 -21 -50t-52 -19q-19 0 -33 7zM204.5 762
q-7.5 8 -7.5 18q0 11 7.5 18.5t18.5 7.5q10 0 18 -7.5t8 -18.5q0 -10 -8 -18t-18 -8q-11 0 -18.5 8zM368.5 762q-7.5 8 -7.5 18q0 11 7.5 18.5t18.5 7.5q10 0 18 -7.5t8 -18.5q0 -10 -8 -18t-18 -8q-11 0 -18.5 8z" />
    <glyph glyph-name="uni022D" unicode="&#x22d;" horiz-adv-x="610" 
d="M176.5 30.5q-57.5 33.5 -90 93.5t-32.5 135t32.5 134.5t90 93t128.5 33.5t128.5 -33.5t90 -93t32.5 -134.5t-32.5 -135t-90 -93.5t-128.5 -33.5t-128.5 33.5zM423 47q53 31 83 86.5t30 125.5t-30 125.5t-83 86t-118 30.5t-118 -30.5t-83 -86t-30 -125.5t30 -125.5
t83 -86.5t118 -31t118 31zM333 629q-14 7 -35 22q-16 12 -28.5 18.5t-25.5 6.5q-24 0 -38.5 -13.5t-15.5 -38.5h-19q1 32 21 51.5t52 19.5q18 0 32.5 -7t35.5 -22q16 -12 28.5 -18.5t25.5 -6.5q24 0 38.5 13t15.5 37h19q-1 -31 -21 -50t-52 -19q-19 0 -33 7zM169 770h272
v-20h-272v20z" />
    <glyph glyph-name="oe" unicode="&#x153;" horiz-adv-x="1070" 
d="M1016 259h-460q0 -70 31 -125.5t85.5 -86.5t122.5 -31q53 0 99.5 20.5t76.5 59.5l14 -14q-34 -41 -84 -63t-106 -22q-93 0 -160.5 52.5t-88.5 139.5q-20 -87 -85.5 -139.5t-155.5 -52.5q-71 0 -128.5 33.5t-90 93.5t-32.5 135t32.5 134.5t90 93t128.5 33.5
q89 0 154.5 -52t86.5 -138q20 86 82 138t148 52q67 0 122 -33t86.5 -91t31.5 -132v-5zM423 47q53 31 83 86.5t30 125.5t-30 125.5t-83 86t-118 30.5t-118 -30.5t-83 -86t-30 -125.5t30 -125.5t83 -86.5t118 -31t118 31zM667 472q-49 -29 -78.5 -80t-32.5 -114h441
q-3 63 -33 114t-79 80t-109 29t-109 -29z" />
    <glyph glyph-name="p" unicode="p" horiz-adv-x="671" 
d="M493.5 486.5q57.5 -33.5 90.5 -93.5t33 -135t-33 -134.5t-90.5 -93t-127.5 -33.5q-80 0 -142.5 43.5t-88.5 116.5v-351h-20v711h20v-158q26 74 88 117.5t143 43.5q70 0 127.5 -33.5zM484 46.5q53 30.5 83 86t30 125.5t-30 125.5t-83 86.5t-118 31t-118 -31t-83 -86.5
t-30 -125.5t30 -125.5t83 -86t118 -30.5t118 30.5z" />
    </font>
</defs>
</svg>
