<?xml version="1.0" standalone="no"?>
<!DOCTYPE svg PUBLIC "-//W3C//DTD SVG 1.1//EN" "http://www.w3.org/Graphics/SVG/1.1/DTD/svg11.dtd" >
<svg xmlns="http://www.w3.org/2000/svg" xmlns:xlink="http://www.w3.org/1999/xlink" version="1.1">
<metadata>
Created by FontForge 20170924 at Tue Oct 31 14:58:17 2017
 By www-data
Copyright 2011 The Montserrat Project Authors (https://github.com/JulietaUla/Montserrat)
</metadata>
<defs>
<font id="Montserrat-ExtraBold" horiz-adv-x="0" >
  <font-face 
    font-family="Montserrat ExtraBold"
    font-weight="800"
    font-stretch="normal"
    units-per-em="1000"
    panose-1="0 0 9 0 0 0 0 0 0 0"
    ascent="800"
    descent="-200"
    x-height="542"
    cap-height="700"
    bbox="-906 -268 1715 1088"
    underline-thickness="50"
    underline-position="-100"
    unicode-range="U+000D-FB02"
  />
<missing-glyph horiz-adv-x="587" 
d="M40 700h507v-700h-507v700zM467 70v560h-347v-560h347z" />
    <glyph glyph-name="fi" unicode="fi" horiz-adv-x="799" 
d="M268 522h129v-142h-124v-380h-190v380h-79v142h79v14q0 99 59.5 157t166.5 58q36 0 70 -7t56 -21l-47 -134q-28 16 -57 16q-30 0 -46.5 -18t-16.5 -53v-12zM547 542h190v-542h-190v542zM558 631q-32 29 -32 72t32 72t84 29t84 -27.5t32 -70.5q0 -45 -32 -74.5t-84 -29.5
t-84 29z" />
    <glyph glyph-name="fl" unicode="fl" horiz-adv-x="719" 
d="M268 522h129v-142h-124v-380h-190v380h-79v142h79v14q0 99 59.5 157t166.5 58q36 0 70 -7t56 -21l-47 -134q-28 16 -57 16q-30 0 -46.5 -18t-16.5 -53v-12zM467 742h190v-742h-190v742z" />
    <glyph glyph-name=".notdef" horiz-adv-x="587" 
d="M40 700h507v-700h-507v700zM467 70v560h-347v-560h347z" />
    <glyph glyph-name="NULL" 
 />
    <glyph glyph-name="NULL" 
 />
    <glyph glyph-name="nonmarkingreturn" unicode="&#xd;" horiz-adv-x="291" 
 />
    <glyph glyph-name="space" unicode=" " horiz-adv-x="291" 
 />
    <glyph glyph-name="A" unicode="A" horiz-adv-x="786" 
d="M539 136h-296l-55 -136h-202l309 700h195l310 -700h-206zM481 282l-90 224l-90 -224h180z" />
    <glyph glyph-name="Aacute" unicode="&#xc1;" horiz-adv-x="786" 
d="M539 136h-296l-55 -136h-202l309 700h195l310 -700h-206zM481 282l-90 224l-90 -224h180zM429 909h190l-188 -152h-136z" />
    <glyph glyph-name="Abreve" unicode="&#x102;" horiz-adv-x="786" 
d="M539 136h-296l-55 -136h-202l309 700h195l310 -700h-206zM481 282l-90 224l-90 -224h180zM254 791.5q-54 43.5 -57 117.5h116q1 -30 24 -48t56 -18t56 18t24 48h116q-3 -74 -57 -117.5t-139 -43.5t-139 43.5z" />
    <glyph glyph-name="uni1EAE" unicode="&#x1eae;" horiz-adv-x="786" 
d="M539 136h-296l-55 -136h-202l309 700h195l310 -700h-206zM481 282l-90 224l-90 -224h180zM255 783.5q-54 35.5 -58 95.5h110q3 -20 26.5 -32.5t59.5 -12.5t59.5 12.5t26.5 32.5h110q-4 -60 -58 -95.5t-138 -35.5t-138 35.5zM404 1038h186l-161 -125h-131z" />
    <glyph glyph-name="uni1EB6" unicode="&#x1eb6;" horiz-adv-x="786" 
d="M539 136h-296l-55 -136h-202l309 700h195l310 -700h-206zM481 282l-90 224l-90 -224h180zM336.5 -197q-22.5 21 -22.5 56t22.5 57t56.5 22t56.5 -22t22.5 -57t-22.5 -56t-56.5 -21t-56.5 21zM254 791.5q-54 43.5 -57 117.5h116q1 -30 24 -48t56 -18t56 18t24 48h116
q-3 -74 -57 -117.5t-139 -43.5t-139 43.5z" />
    <glyph glyph-name="uni1EB0" unicode="&#x1eb0;" horiz-adv-x="786" 
d="M539 136h-296l-55 -136h-202l309 700h195l310 -700h-206zM481 282l-90 224l-90 -224h180zM255 783.5q-54 35.5 -58 95.5h110q3 -20 26.5 -32.5t59.5 -12.5t59.5 12.5t26.5 32.5h110q-4 -60 -58 -95.5t-138 -35.5t-138 35.5zM196 1038h186l106 -125h-130z" />
    <glyph glyph-name="uni1EB2" unicode="&#x1eb2;" horiz-adv-x="786" 
d="M539 136h-296l-55 -136h-202l309 700h195l310 -700h-206zM481 282l-90 224l-90 -224h180zM255 783.5q-54 35.5 -58 95.5h110q3 -20 26.5 -32.5t59.5 -12.5t59.5 12.5t26.5 32.5h110q-4 -60 -58 -95.5t-138 -35.5t-138 35.5zM378 924q36 19 36 40q0 12 -9 19.5t-23 7.5
q-21 0 -45 -12l-30 54q38 24 91 24q45 0 72 -22.5t27 -60.5q0 -31 -21 -54.5t-53 -36.5z" />
    <glyph glyph-name="uni1EB4" unicode="&#x1eb4;" horiz-adv-x="786" 
d="M539 136h-296l-55 -136h-202l309 700h195l310 -700h-206zM481 282l-90 224l-90 -224h180zM255 783.5q-54 35.5 -58 95.5h110q3 -20 26.5 -32.5t59.5 -12.5t59.5 12.5t26.5 32.5h110q-4 -60 -58 -95.5t-138 -35.5t-138 35.5zM417.5 916q-21.5 9 -46.5 24q-11 7 -22 12.5
t-19 5.5q-19 0 -30 -11.5t-13 -31.5h-95q1 65 34.5 100.5t92.5 35.5q27 0 48.5 -9t46.5 -24q16 -9 25.5 -13.5t18.5 -4.5q19 0 30.5 12t13.5 31h92q-1 -64 -34 -100t-92 -36q-29 0 -50.5 9z" />
    <glyph glyph-name="uni01CD" unicode="&#x1cd;" horiz-adv-x="786" 
d="M539 136h-296l-55 -136h-202l309 700h195l310 -700h-206zM481 282l-90 224l-90 -224h180zM605 909l-130 -152h-164l-130 152h126l86 -76l86 76h126z" />
    <glyph glyph-name="Acircumflex" unicode="&#xc2;" horiz-adv-x="786" 
d="M539 136h-296l-55 -136h-202l309 700h195l310 -700h-206zM481 282l-90 224l-90 -224h180zM479 757l-86 76l-86 -76h-126l130 152h164l130 -152h-126z" />
    <glyph glyph-name="uni1EA4" unicode="&#x1ea4;" horiz-adv-x="786" 
d="M539 136h-296l-55 -136h-202l309 700h195l310 -700h-206zM481 282l-90 224l-90 -224h180zM478 757l-85 59l-85 -59h-127l131 122h162l131 -122h-127zM631 982h186l-161 -125h-131z" />
    <glyph glyph-name="uni1EAC" unicode="&#x1eac;" horiz-adv-x="786" 
d="M539 136h-296l-55 -136h-202l309 700h195l310 -700h-206zM481 282l-90 224l-90 -224h180zM336.5 -197q-22.5 21 -22.5 56t22.5 57t56.5 22t56.5 -22t22.5 -57t-22.5 -56t-56.5 -21t-56.5 21zM479 757l-86 76l-86 -76h-126l130 152h164l130 -152h-126z" />
    <glyph glyph-name="uni1EA6" unicode="&#x1ea6;" horiz-adv-x="786" 
d="M539 136h-296l-55 -136h-202l309 700h195l310 -700h-206zM481 282l-90 224l-90 -224h180zM478 757l-85 59l-85 -59h-127l131 122h162l131 -122h-127zM423 982h186l106 -125h-130z" />
    <glyph glyph-name="uni1EA8" unicode="&#x1ea8;" horiz-adv-x="786" 
d="M539 136h-296l-55 -136h-202l309 700h195l310 -700h-206zM481 282l-90 224l-90 -224h180zM478 757l-85 59l-85 -59h-127l131 122h162l131 -122h-127zM544 878q36 19 36 40q0 12 -9 19.5t-23 7.5q-21 0 -45 -12l-30 54q38 24 91 24q45 0 72 -22.5t27 -60.5
q0 -31 -21 -54.5t-53 -36.5z" />
    <glyph glyph-name="uni1EAA" unicode="&#x1eaa;" horiz-adv-x="786" 
d="M539 136h-296l-55 -136h-202l309 700h195l310 -700h-206zM481 282l-90 224l-90 -224h180zM478 757l-85 59l-85 -59h-127l131 122h162l131 -122h-127zM417.5 923q-21.5 9 -46.5 24q-11 7 -22 12.5t-19 5.5q-19 0 -30 -11.5t-13 -31.5h-95q1 65 34.5 100.5t92.5 35.5
q27 0 48.5 -9t46.5 -24q16 -9 25.5 -13.5t18.5 -4.5q19 0 30.5 12t13.5 31h92q-1 -64 -34 -100t-92 -36q-29 0 -50.5 9z" />
    <glyph glyph-name="uni0200" unicode="&#x200;" horiz-adv-x="786" 
d="M539 136h-296l-55 -136h-202l309 700h195l310 -700h-206zM481 282l-90 224l-90 -224h180zM118 909h170l62 -152h-132zM335 909h170l63 -152h-132z" />
    <glyph glyph-name="Adieresis" unicode="&#xc4;" horiz-adv-x="786" 
d="M539 136h-296l-55 -136h-202l309 700h195l310 -700h-206zM481 282l-90 224l-90 -224h180zM230.5 777.5q-22.5 21.5 -22.5 56.5t22.5 57t56.5 22t56.5 -22t22.5 -57t-22.5 -56.5t-56.5 -21.5t-56.5 21.5zM442.5 777.5q-22.5 21.5 -22.5 56.5t22.5 57t56.5 22t56.5 -22
t22.5 -57t-22.5 -56.5t-56.5 -21.5t-56.5 21.5z" />
    <glyph glyph-name="uni1EA0" unicode="&#x1ea0;" horiz-adv-x="786" 
d="M539 136h-296l-55 -136h-202l309 700h195l310 -700h-206zM481 282l-90 224l-90 -224h180zM336.5 -197q-22.5 21 -22.5 56t22.5 57t56.5 22t56.5 -22t22.5 -57t-22.5 -56t-56.5 -21t-56.5 21z" />
    <glyph glyph-name="Agrave" unicode="&#xc0;" horiz-adv-x="786" 
d="M539 136h-296l-55 -136h-202l309 700h195l310 -700h-206zM481 282l-90 224l-90 -224h180zM167 909h190l134 -152h-136z" />
    <glyph glyph-name="uni1EA2" unicode="&#x1ea2;" horiz-adv-x="786" 
d="M539 136h-296l-55 -136h-202l309 700h195l310 -700h-206zM481 282l-90 224l-90 -224h180zM371 805q27 13 38 27t11 31q0 19 -12.5 29.5t-32.5 10.5q-29 0 -58 -20l-39 74q23 18 54 27.5t64 9.5q58 0 94.5 -32t36.5 -83q0 -88 -98 -132z" />
    <glyph glyph-name="uni0202" unicode="&#x202;" horiz-adv-x="786" 
d="M539 136h-296l-55 -136h-202l309 700h195l310 -700h-206zM481 282l-90 224l-90 -224h180zM254 874.5q54 43.5 139 43.5t139 -43.5t57 -117.5h-116q-1 30 -24 48t-56 18t-56 -18t-24 -48h-116q3 74 57 117.5z" />
    <glyph glyph-name="Amacron" unicode="&#x100;" horiz-adv-x="786" 
d="M539 136h-296l-55 -136h-202l309 700h195l310 -700h-206zM481 282l-90 224l-90 -224h180zM196 884h394v-102h-394v102z" />
    <glyph glyph-name="Aogonek" unicode="&#x104;" horiz-adv-x="786" 
d="M539 136h-296l-55 -136h-202l309 700h195l310 -700h-206zM481 282l-90 224l-90 -224h180zM609 -204q-39 32 -39 85q0 52 40.5 94.5t119.5 69.5l70 -45q-63 -28 -89 -52t-26 -50q0 -20 14.5 -32t40.5 -12q32 0 60 15l25 -82q-19 -10 -48.5 -16.5t-58.5 -6.5q-70 0 -109 32
z" />
    <glyph glyph-name="Aring" unicode="&#xc5;" horiz-adv-x="786" 
d="M539 136h-296l-55 -136h-202l309 700h195l310 -700h-206zM481 282l-90 224l-90 -224h180zM299 786q-38 37 -38 90q0 54 38 91t94 37q36 0 66.5 -17t48 -46.5t17.5 -64.5q0 -53 -38.5 -90t-93.5 -37q-56 0 -94 37zM433.5 835q16.5 16 16.5 41t-16.5 41.5t-40.5 16.5
t-40.5 -16.5t-16.5 -41.5t16.5 -41t40.5 -16t40.5 16z" />
    <glyph glyph-name="Aringacute" unicode="&#x1fa;" horiz-adv-x="786" 
d="M539 136h-296l-55 -136h-202l309 700h195l310 -700h-206zM481 282l-90 224l-90 -224h180zM508 939q17 -29 17 -63q0 -53 -38.5 -90t-93.5 -37q-56 0 -94 37t-38 90q0 54 38 91t94 37q27 0 49 -9l89 93l93 -70zM433.5 835q16.5 16 16.5 41t-16.5 41.5t-40.5 16.5
t-40.5 -16.5t-16.5 -41.5t16.5 -41t40.5 -16t40.5 16z" />
    <glyph glyph-name="Atilde" unicode="&#xc3;" horiz-adv-x="786" 
d="M539 136h-296l-55 -136h-202l309 700h195l310 -700h-206zM481 282l-90 224l-90 -224h180zM422.5 760.5q-21.5 10.5 -47.5 28.5q-19 13 -28.5 18t-19.5 5q-20 0 -32 -14t-14 -39h-93q2 73 36 116t91 43q27 0 48 -10t48 -28q19 -13 28.5 -18t19.5 -5q20 0 32 13.5t14 36.5
h93q-2 -71 -36 -114t-91 -43q-27 0 -48.5 10.5z" />
    <glyph glyph-name="AE" unicode="&#xc6;" horiz-adv-x="1099" 
d="M1059 153v-153h-562v136h-238l-71 -136h-202l382 700h678v-153h-353v-118h311v-148h-311v-128h366zM497 282v265h-23l-138 -265h161z" />
    <glyph glyph-name="AEacute" unicode="&#x1fc;" horiz-adv-x="1099" 
d="M1059 153v-153h-562v136h-238l-71 -136h-202l382 700h678v-153h-353v-118h311v-148h-311v-128h366zM497 282v265h-23l-138 -265h161zM631 909h190l-188 -152h-136z" />
    <glyph glyph-name="B" unicode="B" horiz-adv-x="769" 
d="M702 299.5q34 -44.5 34 -107.5q0 -92 -74 -142t-214 -50h-378v700h358q134 0 204 -49.5t70 -133.5q0 -50 -24.5 -89.5t-69.5 -62.5q60 -21 94 -65.5zM266 557v-135h136q100 0 100 68q0 67 -100 67h-136zM536 214q0 71 -104 71h-166v-142h166q104 0 104 71z" />
    <glyph glyph-name="C" unicode="C" horiz-adv-x="738" 
d="M221.5 32.5q-87.5 46.5 -137.5 129.5t-50 188t50 188t137.5 129.5t197.5 46.5q96 0 173 -34t128 -98l-126 -114q-68 82 -165 82q-57 0 -101.5 -25t-69 -70.5t-24.5 -104.5t24.5 -104.5t69 -70.5t101.5 -25q97 0 165 82l126 -114q-51 -64 -128 -98t-173 -34
q-110 0 -197.5 46.5z" />
    <glyph glyph-name="Cacute" unicode="&#x106;" horiz-adv-x="738" 
d="M221.5 32.5q-87.5 46.5 -137.5 129.5t-50 188t50 188t137.5 129.5t197.5 46.5q96 0 173 -34t128 -98l-126 -114q-68 82 -165 82q-57 0 -101.5 -25t-69 -70.5t-24.5 -104.5t24.5 -104.5t69 -70.5t101.5 -25q97 0 165 82l126 -114q-51 -64 -128 -98t-173 -34
q-110 0 -197.5 46.5zM452 910h190l-188 -152h-136z" />
    <glyph glyph-name="Ccaron" unicode="&#x10c;" horiz-adv-x="738" 
d="M221.5 32.5q-87.5 46.5 -137.5 129.5t-50 188t50 188t137.5 129.5t197.5 46.5q96 0 173 -34t128 -98l-126 -114q-68 82 -165 82q-57 0 -101.5 -25t-69 -70.5t-24.5 -104.5t24.5 -104.5t69 -70.5t101.5 -25q97 0 165 82l126 -114q-51 -64 -128 -98t-173 -34
q-110 0 -197.5 46.5zM628 910l-130 -152h-164l-130 152h126l86 -76l86 76h126z" />
    <glyph glyph-name="Ccedilla" unicode="&#xc7;" horiz-adv-x="738" 
d="M221.5 32.5q-87.5 46.5 -137.5 129.5t-50 188t50 188t137.5 129.5t197.5 46.5q96 0 173 -34t128 -98l-126 -114q-68 82 -165 82q-57 0 -101.5 -25t-69 -70.5t-24.5 -104.5t24.5 -104.5t69 -70.5t101.5 -25q97 0 165 82l126 -114q-51 -64 -128 -98t-173 -34
q-110 0 -197.5 46.5zM306.5 -230q-26.5 6 -43.5 15l26 75q30 -14 62 -14q50 0 50 28q0 25 -45 25h-37l26 110h99l-14 -60q44 -5 65 -27.5t21 -53.5q0 -48 -43 -76t-115 -28q-25 0 -51.5 6z" />
    <glyph glyph-name="uni1E08" unicode="&#x1e08;" horiz-adv-x="738" 
d="M221.5 32.5q-87.5 46.5 -137.5 129.5t-50 188t50 188t137.5 129.5t197.5 46.5q96 0 173 -34t128 -98l-126 -114q-68 82 -165 82q-57 0 -101.5 -25t-69 -70.5t-24.5 -104.5t24.5 -104.5t69 -70.5t101.5 -25q97 0 165 82l126 -114q-51 -64 -128 -98t-173 -34
q-110 0 -197.5 46.5zM306.5 -230q-26.5 6 -43.5 15l26 75q30 -14 62 -14q50 0 50 28q0 25 -45 25h-37l26 110h99l-14 -60q44 -5 65 -27.5t21 -53.5q0 -48 -43 -76t-115 -28q-25 0 -51.5 6zM452 910h190l-188 -152h-136z" />
    <glyph glyph-name="Ccircumflex" unicode="&#x108;" horiz-adv-x="738" 
d="M221.5 32.5q-87.5 46.5 -137.5 129.5t-50 188t50 188t137.5 129.5t197.5 46.5q96 0 173 -34t128 -98l-126 -114q-68 82 -165 82q-57 0 -101.5 -25t-69 -70.5t-24.5 -104.5t24.5 -104.5t69 -70.5t101.5 -25q97 0 165 82l126 -114q-51 -64 -128 -98t-173 -34
q-110 0 -197.5 46.5zM502 758l-86 76l-86 -76h-126l130 152h164l130 -152h-126z" />
    <glyph glyph-name="Cdotaccent" unicode="&#x10a;" horiz-adv-x="738" 
d="M221.5 32.5q-87.5 46.5 -137.5 129.5t-50 188t50 188t137.5 129.5t197.5 46.5q96 0 173 -34t128 -98l-126 -114q-68 82 -165 82q-57 0 -101.5 -25t-69 -70.5t-24.5 -104.5t24.5 -104.5t69 -70.5t101.5 -25q97 0 165 82l126 -114q-51 -64 -128 -98t-173 -34
q-110 0 -197.5 46.5zM344.5 784q-27.5 28 -27.5 71t28 70.5t71 27.5t71 -27.5t28 -70.5t-28 -71t-71 -28q-44 0 -71.5 28z" />
    <glyph glyph-name="D" unicode="D" horiz-adv-x="826" 
d="M70 700h331q115 0 204 -43t138 -122t49 -185t-49 -185t-138 -122t-204 -43h-331v700zM393 158q90 0 144.5 51t54.5 141t-54.5 141t-144.5 51h-125v-384h125z" />
    <glyph glyph-name="uni01C4" unicode="&#x1c4;" horiz-adv-x="1445" 
d="M70 700h331q115 0 204 -43t138 -122t49 -185t-49 -185t-138 -122t-204 -43h-331v700zM393 158q90 0 144.5 51t54.5 141t-54.5 141t-144.5 51h-125v-384h125zM1430 157v-157h-627v124l353 419h-344v157h603v-124l-353 -419h368zM1329 909l-130 -152h-164l-130 152h126
l86 -76l86 76h126z" />
    <glyph glyph-name="Eth" unicode="&#xd0;" horiz-adv-x="843" 
d="M87 700h331q115 0 204 -43t138 -122t49 -185t-49 -185t-138 -122t-204 -43h-331v700zM410 158q90 0 144.5 51t54.5 141t-54.5 141t-144.5 51h-125v-384h125zM-3 416h450v-122h-450v122z" />
    <glyph glyph-name="Dcaron" unicode="&#x10e;" horiz-adv-x="826" 
d="M70 700h331q115 0 204 -43t138 -122t49 -185t-49 -185t-138 -122t-204 -43h-331v700zM393 158q90 0 144.5 51t54.5 141t-54.5 141t-144.5 51h-125v-384h125zM577 909l-130 -152h-164l-130 152h126l86 -76l86 76h126z" />
    <glyph glyph-name="Dcroat" unicode="&#x110;" horiz-adv-x="843" 
d="M87 700h331q115 0 204 -43t138 -122t49 -185t-49 -185t-138 -122t-204 -43h-331v700zM410 158q90 0 144.5 51t54.5 141t-54.5 141t-144.5 51h-125v-384h125zM-3 416h450v-122h-450v122z" />
    <glyph glyph-name="uni1E0C" unicode="&#x1e0c;" horiz-adv-x="826" 
d="M70 700h331q115 0 204 -43t138 -122t49 -185t-49 -185t-138 -122t-204 -43h-331v700zM393 158q90 0 144.5 51t54.5 141t-54.5 141t-144.5 51h-125v-384h125zM310.5 -197q-22.5 21 -22.5 56t22.5 57t56.5 22t56.5 -22t22.5 -57t-22.5 -56t-56.5 -21t-56.5 21z" />
    <glyph glyph-name="uni1E0E" unicode="&#x1e0e;" horiz-adv-x="826" 
d="M70 700h331q115 0 204 -43t138 -122t49 -185t-49 -185t-138 -122t-204 -43h-331v700zM393 158q90 0 144.5 51t54.5 141t-54.5 141t-144.5 51h-125v-384h125zM170 -85h394v-102h-394v102z" />
    <glyph glyph-name="uni01C5" unicode="&#x1c5;" horiz-adv-x="1382" 
d="M70 700h331q115 0 204 -43t138 -122t49 -185t-49 -185t-138 -122t-204 -43h-331v700zM393 158q90 0 144.5 51t54.5 141t-54.5 141t-144.5 51h-125v-384h125zM1359 142v-142h-500v112l251 289h-244v141h483v-111l-251 -289h261zM1320 759l-130 -152h-164l-130 152h126
l86 -76l86 76h126z" />
    <glyph glyph-name="E" unicode="E" horiz-adv-x="672" 
d="M632 153v-153h-562v700h549v-153h-353v-118h311v-148h-311v-128h366z" />
    <glyph glyph-name="Eacute" unicode="&#xc9;" horiz-adv-x="672" 
d="M632 153v-153h-562v700h549v-153h-353v-118h311v-148h-311v-128h366zM381 909h190l-188 -152h-136z" />
    <glyph glyph-name="Ebreve" unicode="&#x114;" horiz-adv-x="672" 
d="M632 153v-153h-562v700h549v-153h-353v-118h311v-148h-311v-128h366zM206 791.5q-54 43.5 -57 117.5h116q1 -30 24 -48t56 -18t56 18t24 48h116q-3 -74 -57 -117.5t-139 -43.5t-139 43.5z" />
    <glyph glyph-name="Ecaron" unicode="&#x11a;" horiz-adv-x="672" 
d="M632 153v-153h-562v700h549v-153h-353v-118h311v-148h-311v-128h366zM557 909l-130 -152h-164l-130 152h126l86 -76l86 76h126z" />
    <glyph glyph-name="uni1E1C" unicode="&#x1e1c;" horiz-adv-x="672" 
d="M632 153v-153h-562v700h549v-153h-353v-118h311v-148h-311v-128h366zM259.5 -230q-26.5 6 -43.5 15l26 75q30 -14 62 -14q50 0 50 28q0 25 -45 25h-37l26 110h99l-14 -60q44 -5 65 -27.5t21 -53.5q0 -48 -43 -76t-115 -28q-25 0 -51.5 6zM206 791.5q-54 43.5 -57 117.5
h116q1 -30 24 -48t56 -18t56 18t24 48h116q-3 -74 -57 -117.5t-139 -43.5t-139 43.5z" />
    <glyph glyph-name="Ecircumflex" unicode="&#xca;" horiz-adv-x="672" 
d="M632 153v-153h-562v700h549v-153h-353v-118h311v-148h-311v-128h366zM431 757l-86 76l-86 -76h-126l130 152h164l130 -152h-126z" />
    <glyph glyph-name="uni1EBE" unicode="&#x1ebe;" horiz-adv-x="672" 
d="M632 153v-153h-562v700h549v-153h-353v-118h311v-148h-311v-128h366zM430 757l-85 59l-85 -59h-127l131 122h162l131 -122h-127zM583 982h186l-161 -125h-131z" />
    <glyph glyph-name="uni1EC6" unicode="&#x1ec6;" horiz-adv-x="672" 
d="M632 153v-153h-562v700h549v-153h-353v-118h311v-148h-311v-128h366zM291.5 -197q-22.5 21 -22.5 56t22.5 57t56.5 22t56.5 -22t22.5 -57t-22.5 -56t-56.5 -21t-56.5 21zM431 757l-86 76l-86 -76h-126l130 152h164l130 -152h-126z" />
    <glyph glyph-name="uni1EC0" unicode="&#x1ec0;" horiz-adv-x="672" 
d="M632 153v-153h-562v700h549v-153h-353v-118h311v-148h-311v-128h366zM430 757l-85 59l-85 -59h-127l131 122h162l131 -122h-127zM375 982h186l106 -125h-130z" />
    <glyph glyph-name="uni1EC2" unicode="&#x1ec2;" horiz-adv-x="672" 
d="M632 153v-153h-562v700h549v-153h-353v-118h311v-148h-311v-128h366zM430 757l-85 59l-85 -59h-127l131 122h162l131 -122h-127zM496 878q36 19 36 40q0 12 -9 19.5t-23 7.5q-21 0 -45 -12l-30 54q38 24 91 24q45 0 72 -22.5t27 -60.5q0 -31 -21 -54.5t-53 -36.5z" />
    <glyph glyph-name="uni1EC4" unicode="&#x1ec4;" horiz-adv-x="672" 
d="M632 153v-153h-562v700h549v-153h-353v-118h311v-148h-311v-128h366zM430 757l-85 59l-85 -59h-127l131 122h162l131 -122h-127zM369.5 923q-21.5 9 -46.5 24q-11 7 -22 12.5t-19 5.5q-19 0 -30 -11.5t-13 -31.5h-95q1 65 34.5 100.5t92.5 35.5q27 0 48.5 -9t46.5 -24
q16 -9 25.5 -13.5t18.5 -4.5q19 0 30.5 12t13.5 31h92q-1 -64 -34 -100t-92 -36q-29 0 -50.5 9z" />
    <glyph glyph-name="uni0204" unicode="&#x204;" horiz-adv-x="672" 
d="M632 153v-153h-562v700h549v-153h-353v-118h311v-148h-311v-128h366zM70 909h170l62 -152h-132zM287 909h170l63 -152h-132z" />
    <glyph glyph-name="Edieresis" unicode="&#xcb;" horiz-adv-x="672" 
d="M632 153v-153h-562v700h549v-153h-353v-118h311v-148h-311v-128h366zM182.5 777.5q-22.5 21.5 -22.5 56.5t22.5 57t56.5 22t56.5 -22t22.5 -57t-22.5 -56.5t-56.5 -21.5t-56.5 21.5zM394.5 777.5q-22.5 21.5 -22.5 56.5t22.5 57t56.5 22t56.5 -22t22.5 -57t-22.5 -56.5
t-56.5 -21.5t-56.5 21.5z" />
    <glyph glyph-name="Edotaccent" unicode="&#x116;" horiz-adv-x="672" 
d="M632 153v-153h-562v700h549v-153h-353v-118h311v-148h-311v-128h366zM273.5 783q-27.5 28 -27.5 71t28 70.5t71 27.5t71 -27.5t28 -70.5t-28 -71t-71 -28q-44 0 -71.5 28z" />
    <glyph glyph-name="uni1EB8" unicode="&#x1eb8;" horiz-adv-x="672" 
d="M632 153v-153h-562v700h549v-153h-353v-118h311v-148h-311v-128h366zM291.5 -197q-22.5 21 -22.5 56t22.5 57t56.5 22t56.5 -22t22.5 -57t-22.5 -56t-56.5 -21t-56.5 21z" />
    <glyph glyph-name="Egrave" unicode="&#xc8;" horiz-adv-x="672" 
d="M632 153v-153h-562v700h549v-153h-353v-118h311v-148h-311v-128h366zM119 909h190l134 -152h-136z" />
    <glyph glyph-name="uni1EBA" unicode="&#x1eba;" horiz-adv-x="672" 
d="M632 153v-153h-562v700h549v-153h-353v-118h311v-148h-311v-128h366zM323 805q27 13 38 27t11 31q0 19 -12.5 29.5t-32.5 10.5q-29 0 -58 -20l-39 74q23 18 54 27.5t64 9.5q58 0 94.5 -32t36.5 -83q0 -88 -98 -132z" />
    <glyph glyph-name="uni0206" unicode="&#x206;" horiz-adv-x="672" 
d="M632 153v-153h-562v700h549v-153h-353v-118h311v-148h-311v-128h366zM206 874.5q54 43.5 139 43.5t139 -43.5t57 -117.5h-116q-1 30 -24 48t-56 18t-56 -18t-24 -48h-116q3 74 57 117.5z" />
    <glyph glyph-name="Emacron" unicode="&#x112;" horiz-adv-x="672" 
d="M632 153v-153h-562v700h549v-153h-353v-118h311v-148h-311v-128h366zM148 884h394v-102h-394v102z" />
    <glyph glyph-name="uni1E16" unicode="&#x1e16;" horiz-adv-x="672" 
d="M632 153v-153h-562v700h549v-153h-353v-118h311v-148h-311v-128h366zM148 867h394v-98h-394v98zM356 1054h186l-161 -125h-131z" />
    <glyph glyph-name="uni1E14" unicode="&#x1e14;" horiz-adv-x="672" 
d="M632 153v-153h-562v700h549v-153h-353v-118h311v-148h-311v-128h366zM148 867h394v-98h-394v98zM148 1054h186l106 -125h-130z" />
    <glyph glyph-name="Eogonek" unicode="&#x118;" horiz-adv-x="672" 
d="M632 153v-153h-562v700h549v-153h-353v-118h311v-148h-311v-128h366zM441 -204q-39 32 -39 85q0 52 40.5 94.5t119.5 69.5l70 -45q-63 -28 -89 -52t-26 -50q0 -20 14.5 -32t40.5 -12q32 0 60 15l25 -82q-19 -10 -48.5 -16.5t-58.5 -6.5q-70 0 -109 32z" />
    <glyph glyph-name="uni1EBC" unicode="&#x1ebc;" horiz-adv-x="672" 
d="M632 153v-153h-562v700h549v-153h-353v-118h311v-148h-311v-128h366zM374.5 760.5q-21.5 10.5 -47.5 28.5q-19 13 -28.5 18t-19.5 5q-20 0 -32 -14t-14 -39h-93q2 73 36 116t91 43q27 0 48 -10t48 -28q19 -13 28.5 -18t19.5 -5q20 0 32 13.5t14 36.5h93q-2 -71 -36 -114
t-91 -43q-27 0 -48.5 10.5z" />
    <glyph glyph-name="uni01B7" unicode="&#x1b7;" horiz-adv-x="646" 
d="M566.5 350q49.5 -53 49.5 -130q0 -63 -34.5 -116.5t-105.5 -85.5t-176 -32q-78 0 -153 18t-126 51l65 148q44 -27 99 -42.5t108 -15.5q57 0 90 19.5t33 54.5q0 33 -29 50.5t-89 17.5h-84v125l133 135h-295v153h526v-124l-154 -156q93 -17 142.5 -70z" />
    <glyph glyph-name="uni01EE" unicode="&#x1ee;" horiz-adv-x="646" 
d="M566.5 350q49.5 -53 49.5 -130q0 -63 -34.5 -116.5t-105.5 -85.5t-176 -32q-78 0 -153 18t-126 51l65 148q44 -27 99 -42.5t108 -15.5q57 0 90 19.5t33 54.5q0 33 -29 50.5t-89 17.5h-84v125l133 135h-295v153h526v-124l-154 -156q93 -17 142.5 -70zM525 909l-130 -152
h-164l-130 152h126l86 -76l86 76h126z" />
    <glyph glyph-name="F" unicode="F" horiz-adv-x="642" 
d="M268 547v-154h309v-153h-309v-240h-198v700h549v-153h-351z" />
    <glyph glyph-name="G" unicode="G" horiz-adv-x="770" 
d="M539 365h175v-290q-60 -43 -138 -66t-156 -23q-110 0 -198 46.5t-138 129.5t-50 188t50 188t139 129.5t201 46.5q98 0 176 -33t130 -95l-126 -114q-71 78 -170 78q-90 0 -145 -54.5t-55 -145.5q0 -58 25 -103.5t70 -71t103 -25.5q57 0 107 23v192z" />
    <glyph glyph-name="Gbreve" unicode="&#x11e;" horiz-adv-x="770" 
d="M539 365h175v-290q-60 -43 -138 -66t-156 -23q-110 0 -198 46.5t-138 129.5t-50 188t50 188t139 129.5t201 46.5q98 0 176 -33t130 -95l-126 -114q-71 78 -170 78q-90 0 -145 -54.5t-55 -145.5q0 -58 25 -103.5t70 -71t103 -25.5q57 0 107 23v192zM281 792.5
q-54 43.5 -57 117.5h116q1 -30 24 -48t56 -18t56 18t24 48h116q-3 -74 -57 -117.5t-139 -43.5t-139 43.5z" />
    <glyph glyph-name="Gcaron" unicode="&#x1e6;" horiz-adv-x="770" 
d="M539 365h175v-290q-60 -43 -138 -66t-156 -23q-110 0 -198 46.5t-138 129.5t-50 188t50 188t139 129.5t201 46.5q98 0 176 -33t130 -95l-126 -114q-71 78 -170 78q-90 0 -145 -54.5t-55 -145.5q0 -58 25 -103.5t70 -71t103 -25.5q57 0 107 23v192zM632 910l-130 -152
h-164l-130 152h126l86 -76l86 76h126z" />
    <glyph glyph-name="Gcircumflex" unicode="&#x11c;" horiz-adv-x="770" 
d="M539 365h175v-290q-60 -43 -138 -66t-156 -23q-110 0 -198 46.5t-138 129.5t-50 188t50 188t139 129.5t201 46.5q98 0 176 -33t130 -95l-126 -114q-71 78 -170 78q-90 0 -145 -54.5t-55 -145.5q0 -58 25 -103.5t70 -71t103 -25.5q57 0 107 23v192zM506 758l-86 76
l-86 -76h-126l130 152h164l130 -152h-126z" />
    <glyph glyph-name="Gcommaaccent" unicode="&#x122;" horiz-adv-x="770" 
d="M539 365h175v-290q-60 -43 -138 -66t-156 -23q-110 0 -198 46.5t-138 129.5t-50 188t50 188t139 129.5t201 46.5q98 0 176 -33t130 -95l-126 -114q-71 78 -170 78q-90 0 -145 -54.5t-55 -145.5q0 -58 25 -103.5t70 -71t103 -25.5q57 0 107 23v192zM465.5 -80.5
q21.5 -18.5 21.5 -48.5q0 -35 -21 -72l-37 -67h-86l26 79q-40 15 -40 60q0 30 21.5 48.5t57.5 18.5t57.5 -18.5z" />
    <glyph glyph-name="Gdotaccent" unicode="&#x120;" horiz-adv-x="770" 
d="M539 365h175v-290q-60 -43 -138 -66t-156 -23q-110 0 -198 46.5t-138 129.5t-50 188t50 188t139 129.5t201 46.5q98 0 176 -33t130 -95l-126 -114q-71 78 -170 78q-90 0 -145 -54.5t-55 -145.5q0 -58 25 -103.5t70 -71t103 -25.5q57 0 107 23v192zM348.5 784
q-27.5 28 -27.5 71t28 70.5t71 27.5t71 -27.5t28 -70.5t-28 -71t-71 -28q-44 0 -71.5 28z" />
    <glyph glyph-name="uni1E20" unicode="&#x1e20;" horiz-adv-x="770" 
d="M539 365h175v-290q-60 -43 -138 -66t-156 -23q-110 0 -198 46.5t-138 129.5t-50 188t50 188t139 129.5t201 46.5q98 0 176 -33t130 -95l-126 -114q-71 78 -170 78q-90 0 -145 -54.5t-55 -145.5q0 -58 25 -103.5t70 -71t103 -25.5q57 0 107 23v192zM223 885h394v-102h-394
v102z" />
    <glyph glyph-name="uni01E4" unicode="&#x1e4;" horiz-adv-x="814" 
d="M539 365h175v-290q-60 -43 -138 -66t-156 -23q-110 0 -198 46.5t-138 129.5t-50 188t50 188t139 129.5t201 46.5q98 0 176 -33t130 -95l-126 -114q-71 78 -170 78q-90 0 -145 -54.5t-55 -145.5q0 -58 25 -103.5t70 -71t103 -25.5q57 0 107 23v192zM390.622 321.248
h405.753v-120.317h-405.753v120.317z" />
    <glyph glyph-name="H" unicode="H" horiz-adv-x="806" 
d="M736 700v-700h-198v273h-270v-273h-198v700h198v-263h270v263h198z" />
    <glyph glyph-name="Hbar" unicode="&#x126;" horiz-adv-x="840" 
d="M753 700v-700h-198v273h-270v-273h-198v700h198v-263h270v263h198zM-4 630h847v-121h-847v121z" />
    <glyph glyph-name="uni1E2A" unicode="&#x1e2a;" horiz-adv-x="806" 
d="M736 700v-700h-198v273h-270v-273h-198v700h198v-263h270v263h198zM265 -179.5q-54 41.5 -58 108.5h109q2 -28 26 -45t61 -17t61 17t26 45h109q-4 -67 -58 -108.5t-138 -41.5t-138 41.5z" />
    <glyph glyph-name="uni021E" unicode="&#x21e;" horiz-adv-x="806" 
d="M736 700v-700h-198v273h-270v-273h-198v700h198v-263h270v263h198zM615 909l-130 -152h-164l-130 152h126l86 -76l86 76h126z" />
    <glyph glyph-name="Hcircumflex" unicode="&#x124;" horiz-adv-x="806" 
d="M736 700v-700h-198v273h-270v-273h-198v700h198v-263h270v263h198zM489 757l-86 76l-86 -76h-126l130 152h164l130 -152h-126z" />
    <glyph glyph-name="uni1E24" unicode="&#x1e24;" horiz-adv-x="806" 
d="M736 700v-700h-198v273h-270v-273h-198v700h198v-263h270v263h198zM346.5 -197q-22.5 21 -22.5 56t22.5 57t56.5 22t56.5 -22t22.5 -57t-22.5 -56t-56.5 -21t-56.5 21z" />
    <glyph glyph-name="I" unicode="I" horiz-adv-x="339" 
d="M70 700h198v-700h-198v700z" />
    <glyph glyph-name="IJ" unicode="&#x132;" horiz-adv-x="727" 
d="M172.5 7.5q-72.5 21.5 -125.5 59.5l72 144q47 -31 100 -47.5t102 -16.5q72 0 107.5 39.5t35.5 122.5v391h198v-380q0 -107 -41 -182t-116.5 -113.5t-176.5 -38.5q-83 0 -155.5 21.5zM64 700h198v-371h-198v371z" />
    <glyph glyph-name="Iacute" unicode="&#xcd;" horiz-adv-x="339" 
d="M70 700h198v-700h-198v700zM205 909h190l-188 -152h-136z" />
    <glyph glyph-name="Ibreve" unicode="&#x12c;" horiz-adv-x="339" 
d="M70 700h198v-700h-198v700zM30 791.5q-54 43.5 -57 117.5h116q1 -30 24 -48t56 -18t56 18t24 48h116q-3 -74 -57 -117.5t-139 -43.5t-139 43.5z" />
    <glyph glyph-name="Icircumflex" unicode="&#xce;" horiz-adv-x="339" 
d="M70 700h198v-700h-198v700zM255 757l-86 76l-86 -76h-126l130 152h164l130 -152h-126z" />
    <glyph glyph-name="uni0208" unicode="&#x208;" horiz-adv-x="339" 
d="M70 700h198v-700h-198v700zM-106 909h170l62 -152h-132zM111 909h170l63 -152h-132z" />
    <glyph glyph-name="Idieresis" unicode="&#xcf;" horiz-adv-x="339" 
d="M70 700h198v-700h-198v700zM6.5 777.5q-22.5 21.5 -22.5 56.5t22.5 57t56.5 22t56.5 -22t22.5 -57t-22.5 -56.5t-56.5 -21.5t-56.5 21.5zM218.5 777.5q-22.5 21.5 -22.5 56.5t22.5 57t56.5 22t56.5 -22t22.5 -57t-22.5 -56.5t-56.5 -21.5t-56.5 21.5z" />
    <glyph glyph-name="uni1E2E" unicode="&#x1e2e;" horiz-adv-x="339" 
d="M70 700h198v-700h-198v700zM13.5 775.5q-21.5 20.5 -21.5 53.5t21.5 54t53.5 21q33 0 54.5 -21t21.5 -54t-21.5 -53.5t-54.5 -20.5q-32 0 -53.5 20.5zM217.5 775.5q-21.5 20.5 -21.5 53.5t21.5 54t53.5 21t53.5 -21t21.5 -54t-21.5 -53.5t-53.5 -20.5t-53.5 20.5z
M180 1053h186l-161 -125h-131z" />
    <glyph glyph-name="Idotaccent" unicode="&#x130;" horiz-adv-x="339" 
d="M70 700h198v-700h-198v700zM97.5 783q-27.5 28 -27.5 71t28 70.5t71 27.5t71 -27.5t28 -70.5t-28 -71t-71 -28q-44 0 -71.5 28z" />
    <glyph glyph-name="uni1ECA" unicode="&#x1eca;" horiz-adv-x="339" 
d="M70 700h198v-700h-198v700zM112.5 -197q-22.5 21 -22.5 56t22.5 57t56.5 22t56.5 -22t22.5 -57t-22.5 -56t-56.5 -21t-56.5 21z" />
    <glyph glyph-name="Igrave" unicode="&#xcc;" horiz-adv-x="339" 
d="M70 700h198v-700h-198v700zM-57 909h190l134 -152h-136z" />
    <glyph glyph-name="uni1EC8" unicode="&#x1ec8;" horiz-adv-x="339" 
d="M70 700h198v-700h-198v700zM147 805q27 13 38 27t11 31q0 19 -12.5 29.5t-32.5 10.5q-29 0 -58 -20l-39 74q23 18 54 27.5t64 9.5q58 0 94.5 -32t36.5 -83q0 -88 -98 -132z" />
    <glyph glyph-name="uni020A" unicode="&#x20a;" horiz-adv-x="339" 
d="M70 700h198v-700h-198v700zM30 874.5q54 43.5 139 43.5t139 -43.5t57 -117.5h-116q-1 30 -24 48t-56 18t-56 -18t-24 -48h-116q3 74 57 117.5z" />
    <glyph glyph-name="Imacron" unicode="&#x12a;" horiz-adv-x="339" 
d="M70 700h198v-700h-198v700zM9 883h320v-102h-320v102z" />
    <glyph glyph-name="Iogonek" unicode="&#x12e;" horiz-adv-x="339" 
d="M70 700h198v-700h-198v700zM121.5 -203.5q-36.5 32.5 -36.5 85.5q0 51 33.5 93.5t96.5 70.5l53 -46q-37 -27 -52 -51t-15 -50q0 -20 11.5 -32.5t28.5 -12.5q16 0 32 11l23 -79q-15 -10 -35.5 -16t-43.5 -6q-59 0 -95.5 32.5z" />
    <glyph glyph-name="Itilde" unicode="&#x128;" horiz-adv-x="339" 
d="M70 700h198v-700h-198v700zM198.5 760.5q-21.5 10.5 -47.5 28.5q-19 13 -28.5 18t-19.5 5q-20 0 -32 -14t-14 -39h-93q2 73 36 116t91 43q27 0 48 -10t48 -28q19 -13 28.5 -18t19.5 -5q20 0 32 13.5t14 36.5h93q-2 -71 -36 -114t-91 -43q-27 0 -48.5 10.5z" />
    <glyph glyph-name="J" unicode="J" horiz-adv-x="557" 
d="M83 12.5q-63 26.5 -103 76.5l108 128q56 -73 121 -73q43 0 65.5 26t22.5 76v301h-242v153h438v-442q0 -136 -68.5 -204t-201.5 -68q-77 0 -140 26.5z" />
    <glyph glyph-name="Jcircumflex" unicode="&#x134;" horiz-adv-x="557" 
d="M83 12.5q-63 26.5 -103 76.5l108 128q56 -73 121 -73q43 0 65.5 26t22.5 76v301h-242v153h438v-442q0 -136 -68.5 -204t-201.5 -68q-77 0 -140 26.5zM360 757l-86 76l-86 -76h-126l130 152h164l130 -152h-126z" />
    <glyph glyph-name="K" unicode="K" horiz-adv-x="752" 
d="M340 254l-74 -79v-175h-196v700h196v-291l271 291h218l-286 -310l301 -390h-230z" />
    <glyph glyph-name="uni01E8" unicode="&#x1e8;" horiz-adv-x="752" 
d="M340 254l-74 -79v-175h-196v700h196v-291l271 291h218l-286 -310l301 -390h-230zM594 909l-130 -152h-164l-130 152h126l86 -76l86 76h126z" />
    <glyph glyph-name="Kcommaaccent" unicode="&#x136;" horiz-adv-x="752" 
d="M340 254l-74 -79v-175h-196v700h196v-291l271 291h218l-286 -310l301 -390h-230zM439.5 -80.5q21.5 -18.5 21.5 -48.5q0 -35 -21 -72l-37 -67h-86l26 79q-40 15 -40 60q0 30 21.5 48.5t57.5 18.5t57.5 -18.5z" />
    <glyph glyph-name="L" unicode="L" horiz-adv-x="610" 
d="M70 700h198v-543h334v-157h-532v700z" />
    <glyph glyph-name="uni01C7" unicode="&#x1c7;" horiz-adv-x="1167" 
d="M70 700h198v-543h334v-157h-532v700zM693 12.5q-63 26.5 -103 76.5l108 128q56 -73 121 -73q43 0 65.5 26t22.5 76v301h-242v153h438v-442q0 -136 -68.5 -204t-201.5 -68q-77 0 -140 26.5z" />
    <glyph glyph-name="Lacute" unicode="&#x139;" horiz-adv-x="610" 
d="M70 700h198v-543h334v-157h-532v700zM205 909h190l-188 -152h-136z" />
    <glyph glyph-name="Lcaron" unicode="&#x13d;" horiz-adv-x="610" 
d="M70 700h198v-543h334v-157h-532v700zM427 745h137l-25 -205h-112v205z" />
    <glyph glyph-name="Lcommaaccent" unicode="&#x13b;" horiz-adv-x="610" 
d="M70 700h198v-543h334v-157h-532v700zM405.5 -80.5q21.5 -18.5 21.5 -48.5q0 -35 -21 -72l-37 -67h-86l26 79q-40 15 -40 60q0 30 21.5 48.5t57.5 18.5t57.5 -18.5z" />
    <glyph glyph-name="Ldot" unicode="&#x13f;" horiz-adv-x="610" 
d="M70 700h198v-543h334v-157h-532v700zM403.5 356q-27.5 28 -27.5 72t28 72t71 28t71 -28t28 -72t-27.5 -72t-71.5 -28t-71.5 28z" />
    <glyph glyph-name="uni1E36" unicode="&#x1e36;" horiz-adv-x="610" 
d="M70 700h198v-543h334v-157h-532v700zM291.5 -197q-22.5 21 -22.5 56t22.5 57t56.5 22t56.5 -22t22.5 -57t-22.5 -56t-56.5 -21t-56.5 21z" />
    <glyph glyph-name="uni01C8" unicode="&#x1c8;" horiz-adv-x="930" 
d="M70 700h198v-543h334v-157h-532v700zM516 -175l48 135q26 -16 59 -16q26 0 41 18t15 53v527h190v-528q0 -100 -58.5 -158.5t-162.5 -58.5q-83 0 -132 28zM690 631q-32 29 -32 72t32 72t84 29t84 -27.5t32 -70.5q0 -45 -32 -74.5t-84 -29.5t-84 29z" />
    <glyph glyph-name="uni1E3A" unicode="&#x1e3a;" horiz-adv-x="610" 
d="M70 700h198v-543h334v-157h-532v700zM151 -85h394v-102h-394v102z" />
    <glyph glyph-name="Lslash" unicode="&#x141;" horiz-adv-x="627" 
d="M87 700h198v-543h334v-157h-532v700zM-24 303l409 306l64 -89l-409 -305z" />
    <glyph glyph-name="M" unicode="M" horiz-adv-x="954" 
d="M702 0l-2 371l-180 -302h-88l-179 292v-361h-183v700h163l246 -404l240 404h163l2 -700h-182z" />
    <glyph glyph-name="uni1E42" unicode="&#x1e42;" horiz-adv-x="954" 
d="M702 0l-2 371l-180 -302h-88l-179 292v-361h-183v700h163l246 -404l240 404h163l2 -700h-182zM419.5 -197q-22.5 21 -22.5 56t22.5 57t56.5 22t56.5 -22t22.5 -57t-22.5 -56t-56.5 -21t-56.5 21z" />
    <glyph glyph-name="N" unicode="N" horiz-adv-x="806" 
d="M736 700v-700h-163l-309 373v-373h-194v700h163l309 -373v373h194z" />
    <glyph glyph-name="uni01CA" unicode="&#x1ca;" horiz-adv-x="1363" 
d="M736 700v-700h-163l-309 373v-373h-194v700h163l309 -373v373h194zM889 12.5q-63 26.5 -103 76.5l108 128q56 -73 121 -73q43 0 65.5 26t22.5 76v301h-242v153h438v-442q0 -136 -68.5 -204t-201.5 -68q-77 0 -140 26.5z" />
    <glyph glyph-name="Nacute" unicode="&#x143;" horiz-adv-x="806" 
d="M736 700v-700h-163l-309 373v-373h-194v700h163l309 -373v373h194zM439 909h190l-188 -152h-136z" />
    <glyph glyph-name="Ncaron" unicode="&#x147;" horiz-adv-x="806" 
d="M736 700v-700h-163l-309 373v-373h-194v700h163l309 -373v373h194zM615 909l-130 -152h-164l-130 152h126l86 -76l86 76h126z" />
    <glyph glyph-name="Ncommaaccent" unicode="&#x145;" horiz-adv-x="806" 
d="M736 700v-700h-163l-309 373v-373h-194v700h163l309 -373v373h194zM460.5 -80.5q21.5 -18.5 21.5 -48.5q0 -35 -21 -72l-37 -67h-86l26 79q-40 15 -40 60q0 30 21.5 48.5t57.5 18.5t57.5 -18.5z" />
    <glyph glyph-name="uni1E44" unicode="&#x1e44;" horiz-adv-x="806" 
d="M736 700v-700h-163l-309 373v-373h-194v700h163l309 -373v373h194zM331.5 783q-27.5 28 -27.5 71t28 70.5t71 27.5t71 -27.5t28 -70.5t-28 -71t-71 -28q-44 0 -71.5 28z" />
    <glyph glyph-name="uni1E46" unicode="&#x1e46;" horiz-adv-x="806" 
d="M736 700v-700h-163l-309 373v-373h-194v700h163l309 -373v373h194zM346.5 -197q-22.5 21 -22.5 56t22.5 57t56.5 22t56.5 -22t22.5 -57t-22.5 -56t-56.5 -21t-56.5 21z" />
    <glyph glyph-name="Eng" unicode="&#x14a;" horiz-adv-x="806" 
d="M736 700v-614q0 -147 -67 -218t-200 -71q-117 0 -192 59l91 134q41 -35 87 -35q78 0 86 83l-277 335v-373h-194v700h163l309 -373v373h194z" />
    <glyph glyph-name="uni01CB" unicode="&#x1cb;" horiz-adv-x="1126" 
d="M736 700v-700h-163l-309 373v-373h-194v700h163l309 -373v373h194zM712 -175l48 135q26 -16 59 -16q26 0 41 18t15 53v527h190v-528q0 -100 -58.5 -158.5t-162.5 -58.5q-83 0 -132 28zM886 631q-32 29 -32 72t32 72t84 29t84 -27.5t32 -70.5q0 -45 -32 -74.5t-84 -29.5
t-84 29z" />
    <glyph glyph-name="uni1E48" unicode="&#x1e48;" horiz-adv-x="806" 
d="M736 700v-700h-163l-309 373v-373h-194v700h163l309 -373v373h194zM206 -85h394v-102h-394v102z" />
    <glyph glyph-name="Ntilde" unicode="&#xd1;" horiz-adv-x="806" 
d="M736 700v-700h-163l-309 373v-373h-194v700h163l309 -373v373h194zM432.5 760.5q-21.5 10.5 -47.5 28.5q-19 13 -28.5 18t-19.5 5q-20 0 -32 -14t-14 -39h-93q2 73 36 116t91 43q27 0 48 -10t48 -28q19 -13 28.5 -18t19.5 -5q20 0 32 13.5t14 36.5h93q-2 -71 -36 -114
t-91 -43q-27 0 -48.5 10.5z" />
    <glyph glyph-name="O" unicode="O" horiz-adv-x="846" 
d="M223.5 33q-88.5 47 -139 130t-50.5 187t50.5 187t139 130t199.5 47t199.5 -47t139 -130t50.5 -187t-50.5 -187t-139 -130t-199.5 -47t-199.5 47zM519 175q43 25 68 70.5t25 104.5t-25 104.5t-68 70.5t-96 25t-96 -25t-68 -70.5t-25 -104.5t25 -104.5t68 -70.5t96 -25
t96 25z" />
    <glyph glyph-name="Oacute" unicode="&#xd3;" horiz-adv-x="846" 
d="M223.5 33q-88.5 47 -139 130t-50.5 187t50.5 187t139 130t199.5 47t199.5 -47t139 -130t50.5 -187t-50.5 -187t-139 -130t-199.5 -47t-199.5 47zM519 175q43 25 68 70.5t25 104.5t-25 104.5t-68 70.5t-96 25t-96 -25t-68 -70.5t-25 -104.5t25 -104.5t68 -70.5t96 -25
t96 25zM459 909h190l-188 -152h-136z" />
    <glyph glyph-name="Obreve" unicode="&#x14e;" horiz-adv-x="846" 
d="M223.5 33q-88.5 47 -139 130t-50.5 187t50.5 187t139 130t199.5 47t199.5 -47t139 -130t50.5 -187t-50.5 -187t-139 -130t-199.5 -47t-199.5 47zM519 175q43 25 68 70.5t25 104.5t-25 104.5t-68 70.5t-96 25t-96 -25t-68 -70.5t-25 -104.5t25 -104.5t68 -70.5t96 -25
t96 25zM284 791.5q-54 43.5 -57 117.5h116q1 -30 24 -48t56 -18t56 18t24 48h116q-3 -74 -57 -117.5t-139 -43.5t-139 43.5z" />
    <glyph glyph-name="Ocircumflex" unicode="&#xd4;" horiz-adv-x="846" 
d="M223.5 33q-88.5 47 -139 130t-50.5 187t50.5 187t139 130t199.5 47t199.5 -47t139 -130t50.5 -187t-50.5 -187t-139 -130t-199.5 -47t-199.5 47zM519 175q43 25 68 70.5t25 104.5t-25 104.5t-68 70.5t-96 25t-96 -25t-68 -70.5t-25 -104.5t25 -104.5t68 -70.5t96 -25
t96 25zM509 757l-86 76l-86 -76h-126l130 152h164l130 -152h-126z" />
    <glyph glyph-name="uni1ED0" unicode="&#x1ed0;" horiz-adv-x="846" 
d="M223.5 33q-88.5 47 -139 130t-50.5 187t50.5 187t139 130t199.5 47t199.5 -47t139 -130t50.5 -187t-50.5 -187t-139 -130t-199.5 -47t-199.5 47zM519 175q43 25 68 70.5t25 104.5t-25 104.5t-68 70.5t-96 25t-96 -25t-68 -70.5t-25 -104.5t25 -104.5t68 -70.5t96 -25
t96 25zM508 757l-85 59l-85 -59h-127l131 122h162l131 -122h-127zM661 982h186l-161 -125h-131z" />
    <glyph glyph-name="uni1ED8" unicode="&#x1ed8;" horiz-adv-x="846" 
d="M223.5 33q-88.5 47 -139 130t-50.5 187t50.5 187t139 130t199.5 47t199.5 -47t139 -130t50.5 -187t-50.5 -187t-139 -130t-199.5 -47t-199.5 47zM519 175q43 25 68 70.5t25 104.5t-25 104.5t-68 70.5t-96 25t-96 -25t-68 -70.5t-25 -104.5t25 -104.5t68 -70.5t96 -25
t96 25zM366.5 -197q-22.5 21 -22.5 56t22.5 57t56.5 22t56.5 -22t22.5 -57t-22.5 -56t-56.5 -21t-56.5 21zM509 757l-86 76l-86 -76h-126l130 152h164l130 -152h-126z" />
    <glyph glyph-name="uni1ED2" unicode="&#x1ed2;" horiz-adv-x="846" 
d="M223.5 33q-88.5 47 -139 130t-50.5 187t50.5 187t139 130t199.5 47t199.5 -47t139 -130t50.5 -187t-50.5 -187t-139 -130t-199.5 -47t-199.5 47zM519 175q43 25 68 70.5t25 104.5t-25 104.5t-68 70.5t-96 25t-96 -25t-68 -70.5t-25 -104.5t25 -104.5t68 -70.5t96 -25
t96 25zM508 757l-85 59l-85 -59h-127l131 122h162l131 -122h-127zM453 982h186l106 -125h-130z" />
    <glyph glyph-name="uni1ED4" unicode="&#x1ed4;" horiz-adv-x="846" 
d="M223.5 33q-88.5 47 -139 130t-50.5 187t50.5 187t139 130t199.5 47t199.5 -47t139 -130t50.5 -187t-50.5 -187t-139 -130t-199.5 -47t-199.5 47zM519 175q43 25 68 70.5t25 104.5t-25 104.5t-68 70.5t-96 25t-96 -25t-68 -70.5t-25 -104.5t25 -104.5t68 -70.5t96 -25
t96 25zM508 757l-85 59l-85 -59h-127l131 122h162l131 -122h-127zM574 878q36 19 36 40q0 12 -9 19.5t-23 7.5q-21 0 -45 -12l-30 54q38 24 91 24q45 0 72 -22.5t27 -60.5q0 -31 -21 -54.5t-53 -36.5z" />
    <glyph glyph-name="uni1ED6" unicode="&#x1ed6;" horiz-adv-x="846" 
d="M223.5 33q-88.5 47 -139 130t-50.5 187t50.5 187t139 130t199.5 47t199.5 -47t139 -130t50.5 -187t-50.5 -187t-139 -130t-199.5 -47t-199.5 47zM519 175q43 25 68 70.5t25 104.5t-25 104.5t-68 70.5t-96 25t-96 -25t-68 -70.5t-25 -104.5t25 -104.5t68 -70.5t96 -25
t96 25zM508 757l-85 59l-85 -59h-127l131 122h162l131 -122h-127zM447.5 923q-21.5 9 -46.5 24q-11 7 -22 12.5t-19 5.5q-19 0 -30 -11.5t-13 -31.5h-95q1 65 34.5 100.5t92.5 35.5q27 0 48.5 -9t46.5 -24q16 -9 25.5 -13.5t18.5 -4.5q19 0 30.5 12t13.5 31h92
q-1 -64 -34 -100t-92 -36q-29 0 -50.5 9z" />
    <glyph glyph-name="uni020C" unicode="&#x20c;" horiz-adv-x="846" 
d="M223.5 33q-88.5 47 -139 130t-50.5 187t50.5 187t139 130t199.5 47t199.5 -47t139 -130t50.5 -187t-50.5 -187t-139 -130t-199.5 -47t-199.5 47zM519 175q43 25 68 70.5t25 104.5t-25 104.5t-68 70.5t-96 25t-96 -25t-68 -70.5t-25 -104.5t25 -104.5t68 -70.5t96 -25
t96 25zM148 909h170l62 -152h-132zM365 909h170l63 -152h-132z" />
    <glyph glyph-name="Odieresis" unicode="&#xd6;" horiz-adv-x="846" 
d="M223.5 33q-88.5 47 -139 130t-50.5 187t50.5 187t139 130t199.5 47t199.5 -47t139 -130t50.5 -187t-50.5 -187t-139 -130t-199.5 -47t-199.5 47zM519 175q43 25 68 70.5t25 104.5t-25 104.5t-68 70.5t-96 25t-96 -25t-68 -70.5t-25 -104.5t25 -104.5t68 -70.5t96 -25
t96 25zM260.5 777.5q-22.5 21.5 -22.5 56.5t22.5 57t56.5 22t56.5 -22t22.5 -57t-22.5 -56.5t-56.5 -21.5t-56.5 21.5zM472.5 777.5q-22.5 21.5 -22.5 56.5t22.5 57t56.5 22t56.5 -22t22.5 -57t-22.5 -56.5t-56.5 -21.5t-56.5 21.5z" />
    <glyph glyph-name="uni022A" unicode="&#x22a;" horiz-adv-x="846" 
d="M223.5 33q-88.5 47 -139 130t-50.5 187t50.5 187t139 130t199.5 47t199.5 -47t139 -130t50.5 -187t-50.5 -187t-139 -130t-199.5 -47t-199.5 47zM519 175q43 25 68 70.5t25 104.5t-25 104.5t-68 70.5t-96 25t-96 -25t-68 -70.5t-25 -104.5t25 -104.5t68 -70.5t96 -25
t96 25zM267.5 776.5q-21.5 20.5 -21.5 53.5t21.5 54t53.5 21q33 0 54.5 -21t21.5 -54t-21.5 -53.5t-54.5 -20.5q-32 0 -53.5 20.5zM471.5 776.5q-21.5 20.5 -21.5 53.5t21.5 54t53.5 21t53.5 -21t21.5 -54t-21.5 -53.5t-53.5 -20.5t-53.5 20.5zM226 1039h394v-98h-394v98z
" />
    <glyph glyph-name="uni0230" unicode="&#x230;" horiz-adv-x="846" 
d="M223.5 33q-88.5 47 -139 130t-50.5 187t50.5 187t139 130t199.5 47t199.5 -47t139 -130t50.5 -187t-50.5 -187t-139 -130t-199.5 -47t-199.5 47zM519 175q43 25 68 70.5t25 104.5t-25 104.5t-68 70.5t-96 25t-96 -25t-68 -70.5t-25 -104.5t25 -104.5t68 -70.5t96 -25
t96 25zM366.5 775.5q-22.5 21.5 -22.5 56.5q0 34 22.5 56t56.5 22t56.5 -22t22.5 -56q0 -35 -22.5 -56.5t-56.5 -21.5t-56.5 21.5zM226 1047h394v-98h-394v98z" />
    <glyph glyph-name="uni1ECC" unicode="&#x1ecc;" horiz-adv-x="846" 
d="M223.5 33q-88.5 47 -139 130t-50.5 187t50.5 187t139 130t199.5 47t199.5 -47t139 -130t50.5 -187t-50.5 -187t-139 -130t-199.5 -47t-199.5 47zM519 175q43 25 68 70.5t25 104.5t-25 104.5t-68 70.5t-96 25t-96 -25t-68 -70.5t-25 -104.5t25 -104.5t68 -70.5t96 -25
t96 25zM366.5 -197q-22.5 21 -22.5 56t22.5 57t56.5 22t56.5 -22t22.5 -57t-22.5 -56t-56.5 -21t-56.5 21z" />
    <glyph glyph-name="Ograve" unicode="&#xd2;" horiz-adv-x="846" 
d="M223.5 33q-88.5 47 -139 130t-50.5 187t50.5 187t139 130t199.5 47t199.5 -47t139 -130t50.5 -187t-50.5 -187t-139 -130t-199.5 -47t-199.5 47zM519 175q43 25 68 70.5t25 104.5t-25 104.5t-68 70.5t-96 25t-96 -25t-68 -70.5t-25 -104.5t25 -104.5t68 -70.5t96 -25
t96 25zM197 909h190l134 -152h-136z" />
    <glyph glyph-name="uni1ECE" unicode="&#x1ece;" horiz-adv-x="846" 
d="M223.5 33q-88.5 47 -139 130t-50.5 187t50.5 187t139 130t199.5 47t199.5 -47t139 -130t50.5 -187t-50.5 -187t-139 -130t-199.5 -47t-199.5 47zM519 175q43 25 68 70.5t25 104.5t-25 104.5t-68 70.5t-96 25t-96 -25t-68 -70.5t-25 -104.5t25 -104.5t68 -70.5t96 -25
t96 25zM401 805q27 13 38 27t11 31q0 19 -12.5 29.5t-32.5 10.5q-29 0 -58 -20l-39 74q23 18 54 27.5t64 9.5q58 0 94.5 -32t36.5 -83q0 -88 -98 -132z" />
    <glyph glyph-name="Ohorn" unicode="&#x1a0;" horiz-adv-x="846" 
d="M783 492.5q29 -65.5 29 -142.5q0 -104 -50.5 -187t-139 -130t-199.5 -47t-199.5 47t-139 130t-50.5 187t51 187t141.5 130t204.5 47q47 0 111 -8q43 -5 68 -5q35 0 55 16t20 46q0 31 -20 58l109 39q35 -47 35 -105q0 -56 -28 -94t-78 -56q51 -47 80 -112.5zM519 175
q43 25 68 70.5t25 104.5t-25 104.5t-68 70.5t-96 25t-96 -25t-68 -70.5t-25 -104.5t25 -104.5t68 -70.5t96 -25t96 25z" />
    <glyph glyph-name="uni1EDA" unicode="&#x1eda;" horiz-adv-x="846" 
d="M783 492.5q29 -65.5 29 -142.5q0 -104 -50.5 -187t-139 -130t-199.5 -47t-199.5 47t-139 130t-50.5 187t51 187t141.5 130t204.5 47q47 0 111 -8q43 -5 68 -5q35 0 55 16t20 46q0 31 -20 58l109 39q35 -47 35 -105q0 -56 -28 -94t-78 -56q51 -47 80 -112.5zM519 175
q43 25 68 70.5t25 104.5t-25 104.5t-68 70.5t-96 25t-96 -25t-68 -70.5t-25 -104.5t25 -104.5t68 -70.5t96 -25t96 25zM459 909h190l-188 -152h-136z" />
    <glyph glyph-name="uni1EE2" unicode="&#x1ee2;" horiz-adv-x="846" 
d="M783 492.5q29 -65.5 29 -142.5q0 -104 -50.5 -187t-139 -130t-199.5 -47t-199.5 47t-139 130t-50.5 187t51 187t141.5 130t204.5 47q47 0 111 -8q43 -5 68 -5q35 0 55 16t20 46q0 31 -20 58l109 39q35 -47 35 -105q0 -56 -28 -94t-78 -56q51 -47 80 -112.5zM519 175
q43 25 68 70.5t25 104.5t-25 104.5t-68 70.5t-96 25t-96 -25t-68 -70.5t-25 -104.5t25 -104.5t68 -70.5t96 -25t96 25zM366.5 -197q-22.5 21 -22.5 56t22.5 57t56.5 22t56.5 -22t22.5 -57t-22.5 -56t-56.5 -21t-56.5 21z" />
    <glyph glyph-name="uni1EDC" unicode="&#x1edc;" horiz-adv-x="846" 
d="M783 492.5q29 -65.5 29 -142.5q0 -104 -50.5 -187t-139 -130t-199.5 -47t-199.5 47t-139 130t-50.5 187t51 187t141.5 130t204.5 47q47 0 111 -8q43 -5 68 -5q35 0 55 16t20 46q0 31 -20 58l109 39q35 -47 35 -105q0 -56 -28 -94t-78 -56q51 -47 80 -112.5zM519 175
q43 25 68 70.5t25 104.5t-25 104.5t-68 70.5t-96 25t-96 -25t-68 -70.5t-25 -104.5t25 -104.5t68 -70.5t96 -25t96 25zM197 909h190l134 -152h-136z" />
    <glyph glyph-name="uni1EDE" unicode="&#x1ede;" horiz-adv-x="846" 
d="M783 492.5q29 -65.5 29 -142.5q0 -104 -50.5 -187t-139 -130t-199.5 -47t-199.5 47t-139 130t-50.5 187t51 187t141.5 130t204.5 47q47 0 111 -8q43 -5 68 -5q35 0 55 16t20 46q0 31 -20 58l109 39q35 -47 35 -105q0 -56 -28 -94t-78 -56q51 -47 80 -112.5zM519 175
q43 25 68 70.5t25 104.5t-25 104.5t-68 70.5t-96 25t-96 -25t-68 -70.5t-25 -104.5t25 -104.5t68 -70.5t96 -25t96 25zM401 805q27 13 38 27t11 31q0 19 -12.5 29.5t-32.5 10.5q-29 0 -58 -20l-39 74q23 18 54 27.5t64 9.5q58 0 94.5 -32t36.5 -83q0 -88 -98 -132z" />
    <glyph glyph-name="uni1EE0" unicode="&#x1ee0;" horiz-adv-x="846" 
d="M783 492.5q29 -65.5 29 -142.5q0 -104 -50.5 -187t-139 -130t-199.5 -47t-199.5 47t-139 130t-50.5 187t51 187t141.5 130t204.5 47q47 0 111 -8q43 -5 68 -5q35 0 55 16t20 46q0 31 -20 58l109 39q35 -47 35 -105q0 -56 -28 -94t-78 -56q51 -47 80 -112.5zM519 175
q43 25 68 70.5t25 104.5t-25 104.5t-68 70.5t-96 25t-96 -25t-68 -70.5t-25 -104.5t25 -104.5t68 -70.5t96 -25t96 25zM452.5 760.5q-21.5 10.5 -47.5 28.5q-19 13 -28.5 18t-19.5 5q-20 0 -32 -14t-14 -39h-93q2 73 36 116t91 43q27 0 48 -10t48 -28q19 -13 28.5 -18
t19.5 -5q20 0 32 13.5t14 36.5h93q-2 -71 -36 -114t-91 -43q-27 0 -48.5 10.5z" />
    <glyph glyph-name="Ohungarumlaut" unicode="&#x150;" horiz-adv-x="846" 
d="M223.5 33q-88.5 47 -139 130t-50.5 187t50.5 187t139 130t199.5 47t199.5 -47t139 -130t50.5 -187t-50.5 -187t-139 -130t-199.5 -47t-199.5 47zM519 175q43 25 68 70.5t25 104.5t-25 104.5t-68 70.5t-96 25t-96 -25t-68 -70.5t-25 -104.5t25 -104.5t68 -70.5t96 -25
t96 25zM311 909h170l-101 -152h-132zM528 909h170l-100 -152h-132z" />
    <glyph glyph-name="uni020E" unicode="&#x20e;" horiz-adv-x="846" 
d="M223.5 33q-88.5 47 -139 130t-50.5 187t50.5 187t139 130t199.5 47t199.5 -47t139 -130t50.5 -187t-50.5 -187t-139 -130t-199.5 -47t-199.5 47zM519 175q43 25 68 70.5t25 104.5t-25 104.5t-68 70.5t-96 25t-96 -25t-68 -70.5t-25 -104.5t25 -104.5t68 -70.5t96 -25
t96 25zM284 874.5q54 43.5 139 43.5t139 -43.5t57 -117.5h-116q-1 30 -24 48t-56 18t-56 -18t-24 -48h-116q3 74 57 117.5z" />
    <glyph glyph-name="Omacron" unicode="&#x14c;" horiz-adv-x="846" 
d="M223.5 33q-88.5 47 -139 130t-50.5 187t50.5 187t139 130t199.5 47t199.5 -47t139 -130t50.5 -187t-50.5 -187t-139 -130t-199.5 -47t-199.5 47zM519 175q43 25 68 70.5t25 104.5t-25 104.5t-68 70.5t-96 25t-96 -25t-68 -70.5t-25 -104.5t25 -104.5t68 -70.5t96 -25
t96 25zM226 884h394v-102h-394v102z" />
    <glyph glyph-name="uni1E52" unicode="&#x1e52;" horiz-adv-x="846" 
d="M223.5 33q-88.5 47 -139 130t-50.5 187t50.5 187t139 130t199.5 47t199.5 -47t139 -130t50.5 -187t-50.5 -187t-139 -130t-199.5 -47t-199.5 47zM519 175q43 25 68 70.5t25 104.5t-25 104.5t-68 70.5t-96 25t-96 -25t-68 -70.5t-25 -104.5t25 -104.5t68 -70.5t96 -25
t96 25zM226 867h394v-98h-394v98zM434 1054h186l-161 -125h-131z" />
    <glyph glyph-name="uni1E50" unicode="&#x1e50;" horiz-adv-x="846" 
d="M223.5 33q-88.5 47 -139 130t-50.5 187t50.5 187t139 130t199.5 47t199.5 -47t139 -130t50.5 -187t-50.5 -187t-139 -130t-199.5 -47t-199.5 47zM519 175q43 25 68 70.5t25 104.5t-25 104.5t-68 70.5t-96 25t-96 -25t-68 -70.5t-25 -104.5t25 -104.5t68 -70.5t96 -25
t96 25zM226 867h394v-98h-394v98zM226 1054h186l106 -125h-130z" />
    <glyph glyph-name="uni01EA" unicode="&#x1ea;" horiz-adv-x="846" 
d="M418 -102q0 -20 14.5 -32t40.5 -12q30 0 60 15l24 -82q-18 -10 -47.5 -16.5t-58.5 -6.5q-70 0 -109 32t-39 85q0 62 56 109q-95 13 -168.5 63t-115 127t-41.5 170q0 104 50.5 187t139 130t199.5 47t199.5 -47t139 -130t50.5 -187q0 -85 -33.5 -155t-92 -118.5
t-133.5 -71.5q-135 -43 -135 -107zM259 245.5q25 -45.5 68 -70.5t96 -25t96 25t68 70.5t25 104.5t-25 104.5t-68 70.5t-96 25t-96 -25t-68 -70.5t-25 -104.5t25 -104.5z" />
    <glyph glyph-name="Oslash" unicode="&#xd8;" horiz-adv-x="846" 
d="M223.5 33q-88.5 47 -139 130t-50.5 187t50.5 187t139 130t199.5 47t199.5 -47t139 -130t50.5 -187t-50.5 -187t-139 -130t-199.5 -47t-199.5 47zM519 175q43 25 68 70.5t25 104.5t-25 104.5t-68 70.5t-96 25t-96 -25t-68 -70.5t-25 -104.5t25 -104.5t68 -70.5t96 -25
t96 25zM663 770h117l-597 -840h-117z" />
    <glyph glyph-name="Oslashacute" unicode="&#x1fe;" horiz-adv-x="846" 
d="M223.5 33q-88.5 47 -139 130t-50.5 187t50.5 187t139 130t199.5 47t199.5 -47t139 -130t50.5 -187t-50.5 -187t-139 -130t-199.5 -47t-199.5 47zM519 175q43 25 68 70.5t25 104.5t-25 104.5t-68 70.5t-96 25t-96 -25t-68 -70.5t-25 -104.5t25 -104.5t68 -70.5t96 -25
t96 25zM663 770h117l-597 -840h-117zM459 909h190l-188 -152h-136z" />
    <glyph glyph-name="Otilde" unicode="&#xd5;" horiz-adv-x="846" 
d="M223.5 33q-88.5 47 -139 130t-50.5 187t50.5 187t139 130t199.5 47t199.5 -47t139 -130t50.5 -187t-50.5 -187t-139 -130t-199.5 -47t-199.5 47zM519 175q43 25 68 70.5t25 104.5t-25 104.5t-68 70.5t-96 25t-96 -25t-68 -70.5t-25 -104.5t25 -104.5t68 -70.5t96 -25
t96 25zM452.5 760.5q-21.5 10.5 -47.5 28.5q-19 13 -28.5 18t-19.5 5q-20 0 -32 -14t-14 -39h-93q2 73 36 116t91 43q27 0 48 -10t48 -28q19 -13 28.5 -18t19.5 -5q20 0 32 13.5t14 36.5h93q-2 -71 -36 -114t-91 -43q-27 0 -48.5 10.5z" />
    <glyph glyph-name="uni1E4C" unicode="&#x1e4c;" horiz-adv-x="846" 
d="M223.5 33q-88.5 47 -139 130t-50.5 187t50.5 187t139 130t199.5 47t199.5 -47t139 -130t50.5 -187t-50.5 -187t-139 -130t-199.5 -47t-199.5 47zM519 175q43 25 68 70.5t25 104.5t-25 104.5t-68 70.5t-96 25t-96 -25t-68 -70.5t-25 -104.5t25 -104.5t68 -70.5t96 -25
t96 25zM447.5 760q-21.5 9 -46.5 24q-11 7 -22 12.5t-19 5.5q-19 0 -30 -11.5t-13 -31.5h-95q1 65 34.5 100.5t92.5 35.5q27 0 48.5 -9t46.5 -24q16 -9 25.5 -13.5t18.5 -4.5q19 0 30.5 12t13.5 31h92q-1 -64 -34 -100t-92 -36q-29 0 -50.5 9zM434 1054h186l-161 -125h-131z
" />
    <glyph glyph-name="uni1E4E" unicode="&#x1e4e;" horiz-adv-x="846" 
d="M223.5 33q-88.5 47 -139 130t-50.5 187t50.5 187t139 130t199.5 47t199.5 -47t139 -130t50.5 -187t-50.5 -187t-139 -130t-199.5 -47t-199.5 47zM519 175q43 25 68 70.5t25 104.5t-25 104.5t-68 70.5t-96 25t-96 -25t-68 -70.5t-25 -104.5t25 -104.5t68 -70.5t96 -25
t96 25zM447.5 760q-21.5 9 -46.5 24q-11 7 -22 12.5t-19 5.5q-19 0 -30 -11.5t-13 -31.5h-95q1 65 34.5 100.5t92.5 35.5q27 0 48.5 -9t46.5 -24q16 -9 25.5 -13.5t18.5 -4.5q19 0 30.5 12t13.5 31h92q-1 -64 -34 -100t-92 -36q-29 0 -50.5 9zM267.5 948.5
q-21.5 20.5 -21.5 53.5t21.5 54t53.5 21q33 0 54.5 -21t21.5 -54t-21.5 -53.5t-54.5 -20.5q-32 0 -53.5 20.5zM471.5 948.5q-21.5 20.5 -21.5 53.5t21.5 54t53.5 21t53.5 -21t21.5 -54t-21.5 -53.5t-53.5 -20.5t-53.5 20.5z" />
    <glyph glyph-name="uni022C" unicode="&#x22c;" horiz-adv-x="846" 
d="M223.5 33q-88.5 47 -139 130t-50.5 187t50.5 187t139 130t199.5 47t199.5 -47t139 -130t50.5 -187t-50.5 -187t-139 -130t-199.5 -47t-199.5 47zM519 175q43 25 68 70.5t25 104.5t-25 104.5t-68 70.5t-96 25t-96 -25t-68 -70.5t-25 -104.5t25 -104.5t68 -70.5t96 -25
t96 25zM447.5 760q-21.5 9 -46.5 24q-11 7 -22 12.5t-19 5.5q-19 0 -30 -11.5t-13 -31.5h-95q1 65 34.5 100.5t92.5 35.5q27 0 48.5 -9t46.5 -24q16 -9 25.5 -13.5t18.5 -4.5q19 0 30.5 12t13.5 31h92q-1 -64 -34 -100t-92 -36q-29 0 -50.5 9zM226 1039h394v-98h-394v98z
" />
    <glyph glyph-name="OE" unicode="&#x152;" horiz-adv-x="1142" 
d="M1102 153v-153h-677q-115 0 -204 43t-138 122t-49 185t49 185t138 122t204 43h664v-153h-353v-118h311v-148h-311v-128h366zM541 158v384h-108q-90 0 -144.5 -51t-54.5 -141t54.5 -141t144.5 -51h108z" />
    <glyph glyph-name="P" unicode="P" horiz-adv-x="737" 
d="M555 668.5q70 -31.5 108 -90t38 -137.5t-38 -137t-108 -89.5t-165 -31.5h-122v-183h-198v700h320q95 0 165 -31.5zM470 365.5q31 26.5 31 75.5t-31 76t-92 27h-110v-205h110q61 0 92 26.5z" />
    <glyph glyph-name="Thorn" unicode="&#xde;" horiz-adv-x="737" 
d="M555 596.5q70 -31.5 108 -90t38 -137.5t-38 -137.5t-108 -90t-165 -31.5h-122v-110h-198v701h198v-73h122q95 0 165 -31.5zM470 293.5q31 26.5 31 75.5t-31 75.5t-92 26.5h-110v-204h110q61 0 92 26.5z" />
    <glyph glyph-name="Q" unicode="Q" horiz-adv-x="846" 
d="M848 -81q-35 -43 -85.5 -65.5t-110.5 -22.5q-58 0 -105 15t-94.5 49.5t-106.5 96.5q-91 15 -162 65t-110.5 126t-39.5 167q0 104 50.5 187t139 130t199.5 47t199.5 -47t139 -130t50.5 -187q0 -118 -64.5 -208.5t-173.5 -129.5q20 -22 39.5 -31t42.5 -9q59 0 106 49z
M259 245.5q25 -45.5 68 -70.5t96 -25t96 25t68 70.5t25 104.5t-25 104.5t-68 70.5t-96 25t-96 -25t-68 -70.5t-25 -104.5t25 -104.5z" />
    <glyph glyph-name="R" unicode="R" horiz-adv-x="740" 
d="M376 186h-108v-186h-198v700h320q95 0 165 -31.5t108 -90t38 -137.5q0 -76 -35.5 -132.5t-101.5 -88.5l151 -220h-212zM470 517q-31 27 -92 27h-110v-205h110q61 0 92 26.5t31 75.5t-31 76z" />
    <glyph glyph-name="Racute" unicode="&#x154;" horiz-adv-x="740" 
d="M376 186h-108v-186h-198v700h320q95 0 165 -31.5t108 -90t38 -137.5q0 -76 -35.5 -132.5t-101.5 -88.5l151 -220h-212zM470 517q-31 27 -92 27h-110v-205h110q61 0 92 26.5t31 75.5t-31 76zM413 909h190l-188 -152h-136z" />
    <glyph glyph-name="Rcaron" unicode="&#x158;" horiz-adv-x="740" 
d="M376 186h-108v-186h-198v700h320q95 0 165 -31.5t108 -90t38 -137.5q0 -76 -35.5 -132.5t-101.5 -88.5l151 -220h-212zM470 517q-31 27 -92 27h-110v-205h110q61 0 92 26.5t31 75.5t-31 76zM589 909l-130 -152h-164l-130 152h126l86 -76l86 76h126z" />
    <glyph glyph-name="Rcommaaccent" unicode="&#x156;" horiz-adv-x="740" 
d="M376 186h-108v-186h-198v700h320q95 0 165 -31.5t108 -90t38 -137.5q0 -76 -35.5 -132.5t-101.5 -88.5l151 -220h-212zM470 517q-31 27 -92 27h-110v-205h110q61 0 92 26.5t31 75.5t-31 76zM434.5 -80.5q21.5 -18.5 21.5 -48.5q0 -35 -21 -72l-37 -67h-86l26 79
q-40 15 -40 60q0 30 21.5 48.5t57.5 18.5t57.5 -18.5z" />
    <glyph glyph-name="uni0210" unicode="&#x210;" horiz-adv-x="740" 
d="M376 186h-108v-186h-198v700h320q95 0 165 -31.5t108 -90t38 -137.5q0 -76 -35.5 -132.5t-101.5 -88.5l151 -220h-212zM470 517q-31 27 -92 27h-110v-205h110q61 0 92 26.5t31 75.5t-31 76zM102 909h170l62 -152h-132zM319 909h170l63 -152h-132z" />
    <glyph glyph-name="uni1E5A" unicode="&#x1e5a;" horiz-adv-x="740" 
d="M376 186h-108v-186h-198v700h320q95 0 165 -31.5t108 -90t38 -137.5q0 -76 -35.5 -132.5t-101.5 -88.5l151 -220h-212zM470 517q-31 27 -92 27h-110v-205h110q61 0 92 26.5t31 75.5t-31 76zM320.5 -197q-22.5 21 -22.5 56t22.5 57t56.5 22t56.5 -22t22.5 -57t-22.5 -56
t-56.5 -21t-56.5 21z" />
    <glyph glyph-name="uni0212" unicode="&#x212;" horiz-adv-x="740" 
d="M376 186h-108v-186h-198v700h320q95 0 165 -31.5t108 -90t38 -137.5q0 -76 -35.5 -132.5t-101.5 -88.5l151 -220h-212zM470 517q-31 27 -92 27h-110v-205h110q61 0 92 26.5t31 75.5t-31 76zM238 874.5q54 43.5 139 43.5t139 -43.5t57 -117.5h-116q-1 30 -24 48t-56 18
t-56 -18t-24 -48h-116q3 74 57 117.5z" />
    <glyph glyph-name="uni1E5E" unicode="&#x1e5e;" horiz-adv-x="740" 
d="M376 186h-108v-186h-198v700h320q95 0 165 -31.5t108 -90t38 -137.5q0 -76 -35.5 -132.5t-101.5 -88.5l151 -220h-212zM470 517q-31 27 -92 27h-110v-205h110q61 0 92 26.5t31 75.5t-31 76zM180 -85h394v-102h-394v102z" />
    <glyph glyph-name="S" unicode="S" horiz-adv-x="647" 
d="M151 7q-80 21 -130 56l65 146q47 -31 109 -50t122 -19q114 0 114 57q0 30 -32.5 44.5t-104.5 30.5q-79 17 -132 36.5t-91 62.5t-38 116q0 64 35 115.5t104.5 81.5t170.5 30q69 0 136 -15.5t118 -45.5l-61 -147q-100 54 -194 54q-59 0 -86 -17.5t-27 -45.5t32 -42t103 -29
q80 -17 132.5 -36.5t91 -62t38.5 -115.5q0 -63 -35 -114t-105 -81.5t-170 -30.5q-85 0 -165 21z" />
    <glyph glyph-name="Sacute" unicode="&#x15a;" horiz-adv-x="647" 
d="M151 7q-80 21 -130 56l65 146q47 -31 109 -50t122 -19q114 0 114 57q0 30 -32.5 44.5t-104.5 30.5q-79 17 -132 36.5t-91 62.5t-38 116q0 64 35 115.5t104.5 81.5t170.5 30q69 0 136 -15.5t118 -45.5l-61 -147q-100 54 -194 54q-59 0 -86 -17.5t-27 -45.5t32 -42t103 -29
q80 -17 132.5 -36.5t91 -62t38.5 -115.5q0 -63 -35 -114t-105 -81.5t-170 -30.5q-85 0 -165 21zM363 909h190l-188 -152h-136z" />
    <glyph glyph-name="uni1E64" unicode="&#x1e64;" horiz-adv-x="647" 
d="M151 7q-80 21 -130 56l65 146q47 -31 109 -50t122 -19q114 0 114 57q0 30 -32.5 44.5t-104.5 30.5q-79 17 -132 36.5t-91 62.5t-38 116q0 64 35 115.5t104.5 81.5t170.5 30q69 0 136 -15.5t118 -45.5l-61 -147q-100 54 -194 54q-59 0 -86 -17.5t-27 -45.5t32 -42t103 -29
q80 -17 132.5 -36.5t91 -62t38.5 -115.5q0 -63 -35 -114t-105 -81.5t-170 -30.5q-85 0 -165 21zM338 882h186l-161 -125h-131zM270.5 947.5q-22.5 21.5 -22.5 56.5q0 34 22.5 56t56.5 22t56.5 -22t22.5 -56q0 -35 -22.5 -56.5t-56.5 -21.5t-56.5 21.5z" />
    <glyph glyph-name="uniA78B" unicode="&#xa78b;" horiz-adv-x="319" 
d="M62 701h195l-25 -405h-170v405z" />
    <glyph glyph-name="Scaron" unicode="&#x160;" horiz-adv-x="647" 
d="M151 7q-80 21 -130 56l65 146q47 -31 109 -50t122 -19q114 0 114 57q0 30 -32.5 44.5t-104.5 30.5q-79 17 -132 36.5t-91 62.5t-38 116q0 64 35 115.5t104.5 81.5t170.5 30q69 0 136 -15.5t118 -45.5l-61 -147q-100 54 -194 54q-59 0 -86 -17.5t-27 -45.5t32 -42t103 -29
q80 -17 132.5 -36.5t91 -62t38.5 -115.5q0 -63 -35 -114t-105 -81.5t-170 -30.5q-85 0 -165 21zM539 909l-130 -152h-164l-130 152h126l86 -76l86 76h126z" />
    <glyph glyph-name="uni1E66" unicode="&#x1e66;" horiz-adv-x="647" 
d="M151 7q-80 21 -130 56l65 146q47 -31 109 -50t122 -19q114 0 114 57q0 30 -32.5 44.5t-104.5 30.5q-79 17 -132 36.5t-91 62.5t-38 116q0 64 35 115.5t104.5 81.5t170.5 30q69 0 136 -15.5t118 -45.5l-61 -147q-100 54 -194 54q-59 0 -86 -17.5t-27 -45.5t32 -42t103 -29
q80 -17 132.5 -36.5t91 -62t38.5 -115.5q0 -63 -35 -114t-105 -81.5t-170 -30.5q-85 0 -165 21zM539 879l-131 -122h-162l-131 122h127l85 -59l85 59h127zM270.5 924.5q-22.5 21.5 -22.5 56.5q0 34 22.5 56t56.5 22t56.5 -22t22.5 -56q0 -35 -22.5 -56.5t-56.5 -21.5
t-56.5 21.5z" />
    <glyph glyph-name="Scedilla" unicode="&#x15e;" horiz-adv-x="647" 
d="M151 7q-80 21 -130 56l65 146q47 -31 109 -50t122 -19q114 0 114 57q0 30 -32.5 44.5t-104.5 30.5q-79 17 -132 36.5t-91 62.5t-38 116q0 64 35 115.5t104.5 81.5t170.5 30q69 0 136 -15.5t118 -45.5l-61 -147q-100 54 -194 54q-59 0 -86 -17.5t-27 -45.5t32 -42t103 -29
q80 -17 132.5 -36.5t91 -62t38.5 -115.5q0 -63 -35 -114t-105 -81.5t-170 -30.5q-85 0 -165 21zM238.5 -230q-26.5 6 -43.5 15l26 75q30 -14 62 -14q50 0 50 28q0 25 -45 25h-37l26 110h99l-14 -60q44 -5 65 -27.5t21 -53.5q0 -48 -43 -76t-115 -28q-25 0 -51.5 6z" />
    <glyph glyph-name="Scircumflex" unicode="&#x15c;" horiz-adv-x="647" 
d="M151 7q-80 21 -130 56l65 146q47 -31 109 -50t122 -19q114 0 114 57q0 30 -32.5 44.5t-104.5 30.5q-79 17 -132 36.5t-91 62.5t-38 116q0 64 35 115.5t104.5 81.5t170.5 30q69 0 136 -15.5t118 -45.5l-61 -147q-100 54 -194 54q-59 0 -86 -17.5t-27 -45.5t32 -42t103 -29
q80 -17 132.5 -36.5t91 -62t38.5 -115.5q0 -63 -35 -114t-105 -81.5t-170 -30.5q-85 0 -165 21zM413 757l-86 76l-86 -76h-126l130 152h164l130 -152h-126z" />
    <glyph glyph-name="Scommaaccent" unicode="&#x218;" horiz-adv-x="647" 
d="M151 7q-80 21 -130 56l65 146q47 -31 109 -50t122 -19q114 0 114 57q0 30 -32.5 44.5t-104.5 30.5q-79 17 -132 36.5t-91 62.5t-38 116q0 64 35 115.5t104.5 81.5t170.5 30q69 0 136 -15.5t118 -45.5l-61 -147q-100 54 -194 54q-59 0 -86 -17.5t-27 -45.5t32 -42t103 -29
q80 -17 132.5 -36.5t91 -62t38.5 -115.5q0 -63 -35 -114t-105 -81.5t-170 -30.5q-85 0 -165 21zM384.5 -80.5q21.5 -18.5 21.5 -48.5q0 -35 -21 -72l-37 -67h-86l26 79q-40 15 -40 60q0 30 21.5 48.5t57.5 18.5t57.5 -18.5z" />
    <glyph glyph-name="uni1E60" unicode="&#x1e60;" horiz-adv-x="647" 
d="M151 7q-80 21 -130 56l65 146q47 -31 109 -50t122 -19q114 0 114 57q0 30 -32.5 44.5t-104.5 30.5q-79 17 -132 36.5t-91 62.5t-38 116q0 64 35 115.5t104.5 81.5t170.5 30q69 0 136 -15.5t118 -45.5l-61 -147q-100 54 -194 54q-59 0 -86 -17.5t-27 -45.5t32 -42t103 -29
q80 -17 132.5 -36.5t91 -62t38.5 -115.5q0 -63 -35 -114t-105 -81.5t-170 -30.5q-85 0 -165 21zM255.5 783q-27.5 28 -27.5 71t28 70.5t71 27.5t71 -27.5t28 -70.5t-28 -71t-71 -28q-44 0 -71.5 28z" />
    <glyph glyph-name="uni1E62" unicode="&#x1e62;" horiz-adv-x="647" 
d="M151 7q-80 21 -130 56l65 146q47 -31 109 -50t122 -19q114 0 114 57q0 30 -32.5 44.5t-104.5 30.5q-79 17 -132 36.5t-91 62.5t-38 116q0 64 35 115.5t104.5 81.5t170.5 30q69 0 136 -15.5t118 -45.5l-61 -147q-100 54 -194 54q-59 0 -86 -17.5t-27 -45.5t32 -42t103 -29
q80 -17 132.5 -36.5t91 -62t38.5 -115.5q0 -63 -35 -114t-105 -81.5t-170 -30.5q-85 0 -165 21zM270.5 -197q-22.5 21 -22.5 56t22.5 57t56.5 22t56.5 -22t22.5 -57t-22.5 -56t-56.5 -21t-56.5 21z" />
    <glyph glyph-name="uni1E68" unicode="&#x1e68;" horiz-adv-x="647" 
d="M151 7q-80 21 -130 56l65 146q47 -31 109 -50t122 -19q114 0 114 57q0 30 -32.5 44.5t-104.5 30.5q-79 17 -132 36.5t-91 62.5t-38 116q0 64 35 115.5t104.5 81.5t170.5 30q69 0 136 -15.5t118 -45.5l-61 -147q-100 54 -194 54q-59 0 -86 -17.5t-27 -45.5t32 -42t103 -29
q80 -17 132.5 -36.5t91 -62t38.5 -115.5q0 -63 -35 -114t-105 -81.5t-170 -30.5q-85 0 -165 21zM270.5 -197q-22.5 21 -22.5 56t22.5 57t56.5 22t56.5 -22t22.5 -57t-22.5 -56t-56.5 -21t-56.5 21zM255.5 783q-27.5 28 -27.5 71t28 70.5t71 27.5t71 -27.5t28 -70.5t-28 -71
t-71 -28q-44 0 -71.5 28z" />
    <glyph glyph-name="uni1E9E" unicode="&#x1e9e;" horiz-adv-x="788" 
d="M709 343q47 -55 47 -134q0 -69 -35.5 -119.5t-96.5 -77t-136 -26.5q-92 0 -154 24l28 151q19 -10 44.5 -15.5t49.5 -5.5q49 0 74 19.5t25 57.5q0 37 -25 56.5t-73 19.5q-36 0 -68 -10l-34 82l159 184q-42 11 -86 11q-81 0 -123.5 -46.5t-42.5 -132.5v-381h-198v386
q0 101 42.5 175t123.5 113.5t195 39.5q69 0 140.5 -17.5t118.5 -48.5v-116l-98 -113q76 -21 123 -76z" />
    <glyph glyph-name="uni018F" unicode="&#x18f;" horiz-adv-x="818" 
d="M595.5 667.5q88.5 -46.5 138 -129.5t49.5 -188t-48.5 -188t-133.5 -129.5t-192 -46.5q-109 0 -194.5 46.5t-133 131.5t-47.5 194v36h547q-11 70 -63 113t-126 43q-50 0 -103.5 -22t-87.5 -60l-117 124q51 54 135 88t175 34q113 0 201.5 -46.5zM524 173q45 37 56 102h-342
q12 -65 56.5 -102t114.5 -37t115 37z" />
    <glyph glyph-name="T" unicode="T" horiz-adv-x="635" 
d="M219 543h-215v157h627v-157h-214v-543h-198v543z" />
    <glyph glyph-name="Tbar" unicode="&#x166;" horiz-adv-x="635" 
d="M219 543h-215v157h627v-157h-214v-543h-198v543zM93 383h450v-122h-450v122z" />
    <glyph glyph-name="Tcaron" unicode="&#x164;" horiz-adv-x="635" 
d="M219 543h-215v157h627v-157h-214v-543h-198v543zM530 909l-130 -152h-164l-130 152h126l86 -76l86 76h126z" />
    <glyph glyph-name="uni0162" unicode="&#x162;" horiz-adv-x="635" 
d="M219 543h-215v157h627v-157h-214v-543h-198v543zM229.5 -230q-26.5 6 -43.5 15l26 75q30 -14 62 -14q50 0 50 28q0 25 -45 25h-37l26 110h99l-14 -60q44 -5 65 -27.5t21 -53.5q0 -48 -43 -76t-115 -28q-25 0 -51.5 6z" />
    <glyph glyph-name="uni021A" unicode="&#x21a;" horiz-adv-x="635" 
d="M219 543h-215v157h627v-157h-214v-543h-198v543zM375.5 -80.5q21.5 -18.5 21.5 -48.5q0 -35 -21 -72l-37 -67h-86l26 79q-40 15 -40 60q0 30 21.5 48.5t57.5 18.5t57.5 -18.5z" />
    <glyph glyph-name="uni1E6C" unicode="&#x1e6c;" horiz-adv-x="635" 
d="M219 543h-215v157h627v-157h-214v-543h-198v543zM261.5 -197q-22.5 21 -22.5 56t22.5 57t56.5 22t56.5 -22t22.5 -57t-22.5 -56t-56.5 -21t-56.5 21z" />
    <glyph glyph-name="uni1E6E" unicode="&#x1e6e;" horiz-adv-x="635" 
d="M219 543h-215v157h627v-157h-214v-543h-198v543zM121 -85h394v-102h-394v102z" />
    <glyph glyph-name="U" unicode="U" horiz-adv-x="786" 
d="M150.5 71q-86.5 85 -86.5 241v388h198v-382q0 -168 133 -168q132 0 132 168v382h195v-388q0 -156 -86.5 -241t-242.5 -85t-242.5 85z" />
    <glyph glyph-name="Uacute" unicode="&#xda;" horiz-adv-x="786" 
d="M150.5 71q-86.5 85 -86.5 241v388h198v-382q0 -168 133 -168q132 0 132 168v382h195v-388q0 -156 -86.5 -241t-242.5 -85t-242.5 85zM431 909h190l-188 -152h-136z" />
    <glyph glyph-name="Ubreve" unicode="&#x16c;" horiz-adv-x="786" 
d="M150.5 71q-86.5 85 -86.5 241v388h198v-382q0 -168 133 -168q132 0 132 168v382h195v-388q0 -156 -86.5 -241t-242.5 -85t-242.5 85zM256 791.5q-54 43.5 -57 117.5h116q1 -30 24 -48t56 -18t56 18t24 48h116q-3 -74 -57 -117.5t-139 -43.5t-139 43.5z" />
    <glyph glyph-name="uni01D3" unicode="&#x1d3;" horiz-adv-x="786" 
d="M150.5 71q-86.5 85 -86.5 241v388h198v-382q0 -168 133 -168q132 0 132 168v382h195v-388q0 -156 -86.5 -241t-242.5 -85t-242.5 85zM607 909l-130 -152h-164l-130 152h126l86 -76l86 76h126z" />
    <glyph glyph-name="Ucircumflex" unicode="&#xdb;" horiz-adv-x="786" 
d="M150.5 71q-86.5 85 -86.5 241v388h198v-382q0 -168 133 -168q132 0 132 168v382h195v-388q0 -156 -86.5 -241t-242.5 -85t-242.5 85zM481 757l-86 76l-86 -76h-126l130 152h164l130 -152h-126z" />
    <glyph glyph-name="uni0214" unicode="&#x214;" horiz-adv-x="786" 
d="M150.5 71q-86.5 85 -86.5 241v388h198v-382q0 -168 133 -168q132 0 132 168v382h195v-388q0 -156 -86.5 -241t-242.5 -85t-242.5 85zM120 909h170l62 -152h-132zM337 909h170l63 -152h-132z" />
    <glyph glyph-name="Udieresis" unicode="&#xdc;" horiz-adv-x="786" 
d="M150.5 71q-86.5 85 -86.5 241v388h198v-382q0 -168 133 -168q132 0 132 168v382h195v-388q0 -156 -86.5 -241t-242.5 -85t-242.5 85zM232.5 777.5q-22.5 21.5 -22.5 56.5t22.5 57t56.5 22t56.5 -22t22.5 -57t-22.5 -56.5t-56.5 -21.5t-56.5 21.5zM444.5 777.5
q-22.5 21.5 -22.5 56.5t22.5 57t56.5 22t56.5 -22t22.5 -57t-22.5 -56.5t-56.5 -21.5t-56.5 21.5z" />
    <glyph glyph-name="uni1EE4" unicode="&#x1ee4;" horiz-adv-x="786" 
d="M150.5 71q-86.5 85 -86.5 241v388h198v-382q0 -168 133 -168q132 0 132 168v382h195v-388q0 -156 -86.5 -241t-242.5 -85t-242.5 85zM338.5 -197q-22.5 21 -22.5 56t22.5 57t56.5 22t56.5 -22t22.5 -57t-22.5 -56t-56.5 -21t-56.5 21z" />
    <glyph glyph-name="Ugrave" unicode="&#xd9;" horiz-adv-x="786" 
d="M150.5 71q-86.5 85 -86.5 241v388h198v-382q0 -168 133 -168q132 0 132 168v382h195v-388q0 -156 -86.5 -241t-242.5 -85t-242.5 85zM169 909h190l134 -152h-136z" />
    <glyph glyph-name="uni1EE6" unicode="&#x1ee6;" horiz-adv-x="786" 
d="M150.5 71q-86.5 85 -86.5 241v388h198v-382q0 -168 133 -168q132 0 132 168v382h195v-388q0 -156 -86.5 -241t-242.5 -85t-242.5 85zM373 805q27 13 38 27t11 31q0 19 -12.5 29.5t-32.5 10.5q-29 0 -58 -20l-39 74q23 18 54 27.5t64 9.5q58 0 94.5 -32t36.5 -83
q0 -88 -98 -132z" />
    <glyph glyph-name="Uhorn" unicode="&#x1af;" horiz-adv-x="803" 
d="M150.5 71q-86.5 85 -86.5 241v388h198v-382q0 -168 133 -168q132 0 132 168v382h195v-388q0 -156 -86.5 -241t-242.5 -85t-242.5 85zM619 700h34q24 0 40.5 18t16.5 45q0 16 -5.5 31.5t-14.5 26.5l110 39q35 -43 35 -105q0 -83 -50 -129t-139 -46h-27v120z" />
    <glyph glyph-name="uni1EE8" unicode="&#x1ee8;" horiz-adv-x="803" 
d="M150.5 71q-86.5 85 -86.5 241v388h198v-382q0 -168 133 -168q132 0 132 168v382h195v-388q0 -156 -86.5 -241t-242.5 -85t-242.5 85zM619 700h34q24 0 40.5 18t16.5 45q0 16 -5.5 31.5t-14.5 26.5l110 39q35 -43 35 -105q0 -83 -50 -129t-139 -46h-27v120zM431 909h190
l-188 -152h-136z" />
    <glyph glyph-name="uni1EF0" unicode="&#x1ef0;" horiz-adv-x="803" 
d="M150.5 71q-86.5 85 -86.5 241v388h198v-382q0 -168 133 -168q132 0 132 168v382h195v-388q0 -156 -86.5 -241t-242.5 -85t-242.5 85zM619 700h34q24 0 40.5 18t16.5 45q0 16 -5.5 31.5t-14.5 26.5l110 39q35 -43 35 -105q0 -83 -50 -129t-139 -46h-27v120zM338.5 -197
q-22.5 21 -22.5 56t22.5 57t56.5 22t56.5 -22t22.5 -57t-22.5 -56t-56.5 -21t-56.5 21z" />
    <glyph glyph-name="uni1EEA" unicode="&#x1eea;" horiz-adv-x="803" 
d="M150.5 71q-86.5 85 -86.5 241v388h198v-382q0 -168 133 -168q132 0 132 168v382h195v-388q0 -156 -86.5 -241t-242.5 -85t-242.5 85zM619 700h34q24 0 40.5 18t16.5 45q0 16 -5.5 31.5t-14.5 26.5l110 39q35 -43 35 -105q0 -83 -50 -129t-139 -46h-27v120zM169 909h190
l134 -152h-136z" />
    <glyph glyph-name="uni1EEC" unicode="&#x1eec;" horiz-adv-x="803" 
d="M150.5 71q-86.5 85 -86.5 241v388h198v-382q0 -168 133 -168q132 0 132 168v382h195v-388q0 -156 -86.5 -241t-242.5 -85t-242.5 85zM619 700h34q24 0 40.5 18t16.5 45q0 16 -5.5 31.5t-14.5 26.5l110 39q35 -43 35 -105q0 -83 -50 -129t-139 -46h-27v120zM373 805
q27 13 38 27t11 31q0 19 -12.5 29.5t-32.5 10.5q-29 0 -58 -20l-39 74q23 18 54 27.5t64 9.5q58 0 94.5 -32t36.5 -83q0 -88 -98 -132z" />
    <glyph glyph-name="uni1EEE" unicode="&#x1eee;" horiz-adv-x="803" 
d="M150.5 71q-86.5 85 -86.5 241v388h198v-382q0 -168 133 -168q132 0 132 168v382h195v-388q0 -156 -86.5 -241t-242.5 -85t-242.5 85zM619 700h34q24 0 40.5 18t16.5 45q0 16 -5.5 31.5t-14.5 26.5l110 39q35 -43 35 -105q0 -83 -50 -129t-139 -46h-27v120zM424.5 760.5
q-21.5 10.5 -47.5 28.5q-19 13 -28.5 18t-19.5 5q-20 0 -32 -14t-14 -39h-93q2 73 36 116t91 43q27 0 48 -10t48 -28q19 -13 28.5 -18t19.5 -5q20 0 32 13.5t14 36.5h93q-2 -71 -36 -114t-91 -43q-27 0 -48.5 10.5z" />
    <glyph glyph-name="Uhungarumlaut" unicode="&#x170;" horiz-adv-x="786" 
d="M150.5 71q-86.5 85 -86.5 241v388h198v-382q0 -168 133 -168q132 0 132 168v382h195v-388q0 -156 -86.5 -241t-242.5 -85t-242.5 85zM283 909h170l-101 -152h-132zM500 909h170l-100 -152h-132z" />
    <glyph glyph-name="uni0216" unicode="&#x216;" horiz-adv-x="786" 
d="M150.5 71q-86.5 85 -86.5 241v388h198v-382q0 -168 133 -168q132 0 132 168v382h195v-388q0 -156 -86.5 -241t-242.5 -85t-242.5 85zM256 874.5q54 43.5 139 43.5t139 -43.5t57 -117.5h-116q-1 30 -24 48t-56 18t-56 -18t-24 -48h-116q3 74 57 117.5z" />
    <glyph glyph-name="Umacron" unicode="&#x16a;" horiz-adv-x="786" 
d="M150.5 71q-86.5 85 -86.5 241v388h198v-382q0 -168 133 -168q132 0 132 168v382h195v-388q0 -156 -86.5 -241t-242.5 -85t-242.5 85zM198 884h394v-102h-394v102z" />
    <glyph glyph-name="uni1E7A" unicode="&#x1e7a;" horiz-adv-x="786" 
d="M150.5 71q-86.5 85 -86.5 241v388h198v-382q0 -168 133 -168q132 0 132 168v382h195v-388q0 -156 -86.5 -241t-242.5 -85t-242.5 85zM198 867h394v-98h-394v98zM239.5 948.5q-21.5 20.5 -21.5 53.5t21.5 54t53.5 21q33 0 54.5 -21t21.5 -54t-21.5 -53.5t-54.5 -20.5
q-32 0 -53.5 20.5zM443.5 948.5q-21.5 20.5 -21.5 53.5t21.5 54t53.5 21t53.5 -21t21.5 -54t-21.5 -53.5t-53.5 -20.5t-53.5 20.5z" />
    <glyph glyph-name="Uogonek" unicode="&#x172;" horiz-adv-x="786" 
d="M722 700v-388q0 -120 -50 -195t-140 -110q-77 -29 -108 -55.5t-31 -53.5q0 -20 14 -32t41 -12q31 0 59 15l25 -82q-18 -10 -47.5 -16.5t-58.5 -6.5q-70 0 -109 32t-39 85q0 62 55 109q-128 15 -198.5 98.5t-70.5 223.5v388h198v-382q0 -168 133 -168q132 0 132 168v382
h195z" />
    <glyph glyph-name="Uring" unicode="&#x16e;" horiz-adv-x="786" 
d="M150.5 71q-86.5 85 -86.5 241v388h198v-382q0 -168 133 -168q132 0 132 168v382h195v-388q0 -156 -86.5 -241t-242.5 -85t-242.5 85zM301 786q-38 37 -38 90q0 54 38 91t94 37q36 0 66.5 -17t48 -46.5t17.5 -64.5q0 -53 -38.5 -90t-93.5 -37q-56 0 -94 37zM435.5 835
q16.5 16 16.5 41t-16.5 41.5t-40.5 16.5t-40.5 -16.5t-16.5 -41.5t16.5 -41t40.5 -16t40.5 16z" />
    <glyph glyph-name="Utilde" unicode="&#x168;" horiz-adv-x="786" 
d="M150.5 71q-86.5 85 -86.5 241v388h198v-382q0 -168 133 -168q132 0 132 168v382h195v-388q0 -156 -86.5 -241t-242.5 -85t-242.5 85zM424.5 760.5q-21.5 10.5 -47.5 28.5q-19 13 -28.5 18t-19.5 5q-20 0 -32 -14t-14 -39h-93q2 73 36 116t91 43q27 0 48 -10t48 -28
q19 -13 28.5 -18t19.5 -5q20 0 32 13.5t14 36.5h93q-2 -71 -36 -114t-91 -43q-27 0 -48.5 10.5z" />
    <glyph glyph-name="uni1E78" unicode="&#x1e78;" horiz-adv-x="786" 
d="M150.5 71q-86.5 85 -86.5 241v388h198v-382q0 -168 133 -168q132 0 132 168v382h195v-388q0 -156 -86.5 -241t-242.5 -85t-242.5 85zM419.5 760q-21.5 9 -46.5 24q-11 7 -22 12.5t-19 5.5q-19 0 -30 -11.5t-13 -31.5h-95q1 65 34.5 100.5t92.5 35.5q27 0 48.5 -9
t46.5 -24q16 -9 25.5 -13.5t18.5 -4.5q19 0 30.5 12t13.5 31h92q-1 -64 -34 -100t-92 -36q-29 0 -50.5 9zM406 1054h186l-161 -125h-131z" />
    <glyph glyph-name="V" unicode="V" horiz-adv-x="766" 
d="M780 700l-300 -700h-195l-299 700h214l190 -456l194 456h196z" />
    <glyph glyph-name="W" unicode="W" horiz-adv-x="1184" 
d="M1168 700l-227 -700h-212l-134 426l-140 -426h-212l-227 700h204l141 -447l148 447h182l141 -451l147 451h189z" />
    <glyph glyph-name="Wacute" unicode="&#x1e82;" horiz-adv-x="1184" 
d="M1168 700l-227 -700h-212l-134 426l-140 -426h-212l-227 700h204l141 -447l148 447h182l141 -451l147 451h189zM628 909h190l-188 -152h-136z" />
    <glyph glyph-name="Wcircumflex" unicode="&#x174;" horiz-adv-x="1184" 
d="M1168 700l-227 -700h-212l-134 426l-140 -426h-212l-227 700h204l141 -447l148 447h182l141 -451l147 451h189zM678 757l-86 76l-86 -76h-126l130 152h164l130 -152h-126z" />
    <glyph glyph-name="Wdieresis" unicode="&#x1e84;" horiz-adv-x="1184" 
d="M1168 700l-227 -700h-212l-134 426l-140 -426h-212l-227 700h204l141 -447l148 447h182l141 -451l147 451h189zM429.5 777.5q-22.5 21.5 -22.5 56.5t22.5 57t56.5 22t56.5 -22t22.5 -57t-22.5 -56.5t-56.5 -21.5t-56.5 21.5zM641.5 777.5q-22.5 21.5 -22.5 56.5t22.5 57
t56.5 22t56.5 -22t22.5 -57t-22.5 -56.5t-56.5 -21.5t-56.5 21.5z" />
    <glyph glyph-name="Wgrave" unicode="&#x1e80;" horiz-adv-x="1184" 
d="M1168 700l-227 -700h-212l-134 426l-140 -426h-212l-227 700h204l141 -447l148 447h182l141 -451l147 451h189zM366 909h190l134 -152h-136z" />
    <glyph glyph-name="X" unicode="X" horiz-adv-x="737" 
d="M512 0l-145 217l-143 -217h-226l255 354l-244 346h223l140 -202l138 202h214l-244 -338l260 -362h-228z" />
    <glyph glyph-name="Y" unicode="Y" horiz-adv-x="693" 
d="M445 251v-251h-198v254l-267 446h209l166 -278l166 278h192z" />
    <glyph glyph-name="Yacute" unicode="&#xdd;" horiz-adv-x="693" 
d="M445 251v-251h-198v254l-267 446h209l166 -278l166 278h192zM382 909h190l-188 -152h-136z" />
    <glyph glyph-name="Ycircumflex" unicode="&#x176;" horiz-adv-x="693" 
d="M445 251v-251h-198v254l-267 446h209l166 -278l166 278h192zM432 757l-86 76l-86 -76h-126l130 152h164l130 -152h-126z" />
    <glyph glyph-name="Ydieresis" unicode="&#x178;" horiz-adv-x="693" 
d="M445 251v-251h-198v254l-267 446h209l166 -278l166 278h192zM183.5 777.5q-22.5 21.5 -22.5 56.5t22.5 57t56.5 22t56.5 -22t22.5 -57t-22.5 -56.5t-56.5 -21.5t-56.5 21.5zM395.5 777.5q-22.5 21.5 -22.5 56.5t22.5 57t56.5 22t56.5 -22t22.5 -57t-22.5 -56.5
t-56.5 -21.5t-56.5 21.5z" />
    <glyph glyph-name="uni1E8E" unicode="&#x1e8e;" horiz-adv-x="693" 
d="M445 251v-251h-198v254l-267 446h209l166 -278l166 278h192zM274.5 783q-27.5 28 -27.5 71t28 70.5t71 27.5t71 -27.5t28 -70.5t-28 -71t-71 -28q-44 0 -71.5 28z" />
    <glyph glyph-name="uni1EF4" unicode="&#x1ef4;" horiz-adv-x="693" 
d="M445 251v-251h-198v254l-267 446h209l166 -278l166 278h192zM289.5 -197q-22.5 21 -22.5 56t22.5 57t56.5 22t56.5 -22t22.5 -57t-22.5 -56t-56.5 -21t-56.5 21z" />
    <glyph glyph-name="Ygrave" unicode="&#x1ef2;" horiz-adv-x="693" 
d="M445 251v-251h-198v254l-267 446h209l166 -278l166 278h192zM120 909h190l134 -152h-136z" />
    <glyph glyph-name="uni1EF6" unicode="&#x1ef6;" horiz-adv-x="693" 
d="M445 251v-251h-198v254l-267 446h209l166 -278l166 278h192zM324 805q27 13 38 27t11 31q0 19 -12.5 29.5t-32.5 10.5q-29 0 -58 -20l-39 74q23 18 54 27.5t64 9.5q58 0 94.5 -32t36.5 -83q0 -88 -98 -132z" />
    <glyph glyph-name="uni0232" unicode="&#x232;" horiz-adv-x="693" 
d="M445 251v-251h-198v254l-267 446h209l166 -278l166 278h192zM149 884h394v-102h-394v102z" />
    <glyph glyph-name="uni1EF8" unicode="&#x1ef8;" horiz-adv-x="693" 
d="M445 251v-251h-198v254l-267 446h209l166 -278l166 278h192zM375.5 760.5q-21.5 10.5 -47.5 28.5q-19 13 -28.5 18t-19.5 5q-20 0 -32 -14t-14 -39h-93q2 73 36 116t91 43q27 0 48 -10t48 -28q19 -13 28.5 -18t19.5 -5q20 0 32 13.5t14 36.5h93q-2 -71 -36 -114t-91 -43
q-27 0 -48.5 10.5z" />
    <glyph glyph-name="Z" unicode="Z" horiz-adv-x="679" 
d="M662 157v-157h-627v124l353 419h-344v157h603v-124l-353 -419h368z" />
    <glyph glyph-name="Zacute" unicode="&#x179;" horiz-adv-x="679" 
d="M662 157v-157h-627v124l353 419h-344v157h603v-124l-353 -419h368zM385 909h190l-188 -152h-136z" />
    <glyph glyph-name="Zcaron" unicode="&#x17d;" horiz-adv-x="679" 
d="M662 157v-157h-627v124l353 419h-344v157h603v-124l-353 -419h368zM561 909l-130 -152h-164l-130 152h126l86 -76l86 76h126z" />
    <glyph glyph-name="Zdotaccent" unicode="&#x17b;" horiz-adv-x="679" 
d="M662 157v-157h-627v124l353 419h-344v157h603v-124l-353 -419h368zM277.5 783q-27.5 28 -27.5 71t28 70.5t71 27.5t71 -27.5t28 -70.5t-28 -71t-71 -28q-44 0 -71.5 28z" />
    <glyph glyph-name="uni1E92" unicode="&#x1e92;" horiz-adv-x="679" 
d="M662 157v-157h-627v124l353 419h-344v157h603v-124l-353 -419h368zM294.5 -197q-22.5 21 -22.5 56t22.5 57t56.5 22t56.5 -22t22.5 -57t-22.5 -56t-56.5 -21t-56.5 21z" />
    <glyph glyph-name="Iacute_J.loclNLD" horiz-adv-x="727" 
d="M207 909h185l-189 -152h-129zM606 909h185l-189 -152h-129zM172.5 13q-72.5 22 -125.5 60l72 143q47 -31 100 -47.5t100 -16.5q74 0 109.5 39.5t35.5 122.5v386h198v-375q0 -106 -41 -181t-116.5 -114t-176.5 -39q-83 0 -155.5 22zM64 700h198v-371h-198v371z" />
    <glyph glyph-name="A.ss01" horiz-adv-x="794" 
d="M571.5 674.5q75.5 -39.5 117 -115t41.5 -181.5v-378h-198v155h-273v-155h-195v378q0 106 41.5 181.5t117 115t174.5 39.5t174.5 -39.5zM532 308v87q0 77 -37 116t-99 39q-63 0 -100 -39t-37 -116v-87h273z" />
    <glyph glyph-name="Aacute.ss01" horiz-adv-x="794" 
d="M571.5 674.5q75.5 -39.5 117 -115t41.5 -181.5v-378h-198v155h-273v-155h-195v378q0 106 41.5 181.5t117 115t174.5 39.5t174.5 -39.5zM532 308v87q0 77 -37 116t-99 39q-63 0 -100 -39t-37 -116v-87h273zM433 909h190l-188 -152h-136z" />
    <glyph glyph-name="Abreve.ss01" horiz-adv-x="794" 
d="M571.5 674.5q75.5 -39.5 117 -115t41.5 -181.5v-378h-198v155h-273v-155h-195v378q0 106 41.5 181.5t117 115t174.5 39.5t174.5 -39.5zM532 308v87q0 77 -37 116t-99 39q-63 0 -100 -39t-37 -116v-87h273zM258 791.5q-54 43.5 -57 117.5h116q1 -30 24 -48t56 -18t56 18
t24 48h116q-3 -74 -57 -117.5t-139 -43.5t-139 43.5z" />
    <glyph glyph-name="uni1EAE.ss01" horiz-adv-x="794" 
d="M571.5 674.5q75.5 -39.5 117 -115t41.5 -181.5v-378h-198v155h-273v-155h-195v378q0 106 41.5 181.5t117 115t174.5 39.5t174.5 -39.5zM532 308v87q0 77 -37 116t-99 39q-63 0 -100 -39t-37 -116v-87h273zM259 783.5q-54 35.5 -58 95.5h110q3 -20 26.5 -32.5t59.5 -12.5
t59.5 12.5t26.5 32.5h110q-4 -60 -58 -95.5t-138 -35.5t-138 35.5zM408 1038h186l-161 -125h-131z" />
    <glyph glyph-name="uni1EB6.ss01" horiz-adv-x="794" 
d="M571.5 674.5q75.5 -39.5 117 -115t41.5 -181.5v-378h-198v155h-273v-155h-195v378q0 106 41.5 181.5t117 115t174.5 39.5t174.5 -39.5zM532 308v87q0 77 -37 116t-99 39q-63 0 -100 -39t-37 -116v-87h273zM340.5 -197q-22.5 21 -22.5 56t22.5 57t56.5 22t56.5 -22
t22.5 -57t-22.5 -56t-56.5 -21t-56.5 21zM258 791.5q-54 43.5 -57 117.5h116q1 -30 24 -48t56 -18t56 18t24 48h116q-3 -74 -57 -117.5t-139 -43.5t-139 43.5z" />
    <glyph glyph-name="uni1EB0.ss01" horiz-adv-x="794" 
d="M571.5 674.5q75.5 -39.5 117 -115t41.5 -181.5v-378h-198v155h-273v-155h-195v378q0 106 41.5 181.5t117 115t174.5 39.5t174.5 -39.5zM532 308v87q0 77 -37 116t-99 39q-63 0 -100 -39t-37 -116v-87h273zM259 783.5q-54 35.5 -58 95.5h110q3 -20 26.5 -32.5t59.5 -12.5
t59.5 12.5t26.5 32.5h110q-4 -60 -58 -95.5t-138 -35.5t-138 35.5zM200 1038h186l106 -125h-130z" />
    <glyph glyph-name="uni1EB2.ss01" horiz-adv-x="794" 
d="M571.5 674.5q75.5 -39.5 117 -115t41.5 -181.5v-378h-198v155h-273v-155h-195v378q0 106 41.5 181.5t117 115t174.5 39.5t174.5 -39.5zM532 308v87q0 77 -37 116t-99 39q-63 0 -100 -39t-37 -116v-87h273zM259 783.5q-54 35.5 -58 95.5h110q3 -20 26.5 -32.5t59.5 -12.5
t59.5 12.5t26.5 32.5h110q-4 -60 -58 -95.5t-138 -35.5t-138 35.5zM382 924q36 19 36 40q0 12 -9 19.5t-23 7.5q-21 0 -45 -12l-30 54q38 24 91 24q45 0 72 -22.5t27 -60.5q0 -31 -21 -54.5t-53 -36.5z" />
    <glyph glyph-name="uni1EB4.ss01" horiz-adv-x="794" 
d="M571.5 674.5q75.5 -39.5 117 -115t41.5 -181.5v-378h-198v155h-273v-155h-195v378q0 106 41.5 181.5t117 115t174.5 39.5t174.5 -39.5zM532 308v87q0 77 -37 116t-99 39q-63 0 -100 -39t-37 -116v-87h273zM259 783.5q-54 35.5 -58 95.5h110q3 -20 26.5 -32.5t59.5 -12.5
t59.5 12.5t26.5 32.5h110q-4 -60 -58 -95.5t-138 -35.5t-138 35.5zM421.5 916q-21.5 9 -46.5 24q-11 7 -22 12.5t-19 5.5q-19 0 -30 -11.5t-13 -31.5h-95q1 65 34.5 100.5t92.5 35.5q27 0 48.5 -9t46.5 -24q16 -9 25.5 -13.5t18.5 -4.5q19 0 30.5 12t13.5 31h92
q-1 -64 -34 -100t-92 -36q-29 0 -50.5 9z" />
    <glyph glyph-name="uni01CD.ss01" horiz-adv-x="794" 
d="M571.5 674.5q75.5 -39.5 117 -115t41.5 -181.5v-378h-198v155h-273v-155h-195v378q0 106 41.5 181.5t117 115t174.5 39.5t174.5 -39.5zM532 308v87q0 77 -37 116t-99 39q-63 0 -100 -39t-37 -116v-87h273zM609 909l-130 -152h-164l-130 152h126l86 -76l86 76h126z" />
    <glyph glyph-name="Acircumflex.ss01" horiz-adv-x="794" 
d="M571.5 674.5q75.5 -39.5 117 -115t41.5 -181.5v-378h-198v155h-273v-155h-195v378q0 106 41.5 181.5t117 115t174.5 39.5t174.5 -39.5zM532 308v87q0 77 -37 116t-99 39q-63 0 -100 -39t-37 -116v-87h273zM483 757l-86 76l-86 -76h-126l130 152h164l130 -152h-126z" />
    <glyph glyph-name="uni1EA4.ss01" horiz-adv-x="794" 
d="M571.5 674.5q75.5 -39.5 117 -115t41.5 -181.5v-378h-198v155h-273v-155h-195v378q0 106 41.5 181.5t117 115t174.5 39.5t174.5 -39.5zM532 308v87q0 77 -37 116t-99 39q-63 0 -100 -39t-37 -116v-87h273zM482 757l-85 59l-85 -59h-127l131 122h162l131 -122h-127z
M635 982h186l-161 -125h-131z" />
    <glyph glyph-name="uni1EAC.ss01" horiz-adv-x="794" 
d="M571.5 674.5q75.5 -39.5 117 -115t41.5 -181.5v-378h-198v155h-273v-155h-195v378q0 106 41.5 181.5t117 115t174.5 39.5t174.5 -39.5zM532 308v87q0 77 -37 116t-99 39q-63 0 -100 -39t-37 -116v-87h273zM340.5 -197q-22.5 21 -22.5 56t22.5 57t56.5 22t56.5 -22
t22.5 -57t-22.5 -56t-56.5 -21t-56.5 21zM483 757l-86 76l-86 -76h-126l130 152h164l130 -152h-126z" />
    <glyph glyph-name="uni1EA6.ss01" horiz-adv-x="794" 
d="M571.5 674.5q75.5 -39.5 117 -115t41.5 -181.5v-378h-198v155h-273v-155h-195v378q0 106 41.5 181.5t117 115t174.5 39.5t174.5 -39.5zM532 308v87q0 77 -37 116t-99 39q-63 0 -100 -39t-37 -116v-87h273zM482 757l-85 59l-85 -59h-127l131 122h162l131 -122h-127z
M427 982h186l106 -125h-130z" />
    <glyph glyph-name="uni1EA8.ss01" horiz-adv-x="794" 
d="M571.5 674.5q75.5 -39.5 117 -115t41.5 -181.5v-378h-198v155h-273v-155h-195v378q0 106 41.5 181.5t117 115t174.5 39.5t174.5 -39.5zM532 308v87q0 77 -37 116t-99 39q-63 0 -100 -39t-37 -116v-87h273zM482 757l-85 59l-85 -59h-127l131 122h162l131 -122h-127z
M548 878q36 19 36 40q0 12 -9 19.5t-23 7.5q-21 0 -45 -12l-30 54q38 24 91 24q45 0 72 -22.5t27 -60.5q0 -31 -21 -54.5t-53 -36.5z" />
    <glyph glyph-name="uni1EAA.ss01" horiz-adv-x="794" 
d="M571.5 674.5q75.5 -39.5 117 -115t41.5 -181.5v-378h-198v155h-273v-155h-195v378q0 106 41.5 181.5t117 115t174.5 39.5t174.5 -39.5zM532 308v87q0 77 -37 116t-99 39q-63 0 -100 -39t-37 -116v-87h273zM482 757l-85 59l-85 -59h-127l131 122h162l131 -122h-127z
M421.5 923q-21.5 9 -46.5 24q-11 7 -22 12.5t-19 5.5q-19 0 -30 -11.5t-13 -31.5h-95q1 65 34.5 100.5t92.5 35.5q27 0 48.5 -9t46.5 -24q16 -9 25.5 -13.5t18.5 -4.5q19 0 30.5 12t13.5 31h92q-1 -64 -34 -100t-92 -36q-29 0 -50.5 9z" />
    <glyph glyph-name="uni0200.ss01" horiz-adv-x="794" 
d="M571.5 674.5q75.5 -39.5 117 -115t41.5 -181.5v-378h-198v155h-273v-155h-195v378q0 106 41.5 181.5t117 115t174.5 39.5t174.5 -39.5zM532 308v87q0 77 -37 116t-99 39q-63 0 -100 -39t-37 -116v-87h273zM122 909h170l62 -152h-132zM339 909h170l63 -152h-132z" />
    <glyph glyph-name="Adieresis.ss01" horiz-adv-x="794" 
d="M571.5 674.5q75.5 -39.5 117 -115t41.5 -181.5v-378h-198v155h-273v-155h-195v378q0 106 41.5 181.5t117 115t174.5 39.5t174.5 -39.5zM532 308v87q0 77 -37 116t-99 39q-63 0 -100 -39t-37 -116v-87h273zM234.5 777.5q-22.5 21.5 -22.5 56.5t22.5 57t56.5 22t56.5 -22
t22.5 -57t-22.5 -56.5t-56.5 -21.5t-56.5 21.5zM446.5 777.5q-22.5 21.5 -22.5 56.5t22.5 57t56.5 22t56.5 -22t22.5 -57t-22.5 -56.5t-56.5 -21.5t-56.5 21.5z" />
    <glyph glyph-name="uni1EA0.ss01" horiz-adv-x="794" 
d="M571.5 674.5q75.5 -39.5 117 -115t41.5 -181.5v-378h-198v155h-273v-155h-195v378q0 106 41.5 181.5t117 115t174.5 39.5t174.5 -39.5zM532 308v87q0 77 -37 116t-99 39q-63 0 -100 -39t-37 -116v-87h273zM340.5 -197q-22.5 21 -22.5 56t22.5 57t56.5 22t56.5 -22
t22.5 -57t-22.5 -56t-56.5 -21t-56.5 21z" />
    <glyph glyph-name="Agrave.ss01" horiz-adv-x="794" 
d="M571.5 674.5q75.5 -39.5 117 -115t41.5 -181.5v-378h-198v155h-273v-155h-195v378q0 106 41.5 181.5t117 115t174.5 39.5t174.5 -39.5zM532 308v87q0 77 -37 116t-99 39q-63 0 -100 -39t-37 -116v-87h273zM171 909h190l134 -152h-136z" />
    <glyph glyph-name="uni1EA2.ss01" horiz-adv-x="794" 
d="M571.5 674.5q75.5 -39.5 117 -115t41.5 -181.5v-378h-198v155h-273v-155h-195v378q0 106 41.5 181.5t117 115t174.5 39.5t174.5 -39.5zM532 308v87q0 77 -37 116t-99 39q-63 0 -100 -39t-37 -116v-87h273zM375 805q27 13 38 27t11 31q0 19 -12.5 29.5t-32.5 10.5
q-29 0 -58 -20l-39 74q23 18 54 27.5t64 9.5q58 0 94.5 -32t36.5 -83q0 -88 -98 -132z" />
    <glyph glyph-name="uni0202.ss01" horiz-adv-x="794" 
d="M571.5 674.5q75.5 -39.5 117 -115t41.5 -181.5v-378h-198v155h-273v-155h-195v378q0 106 41.5 181.5t117 115t174.5 39.5t174.5 -39.5zM532 308v87q0 77 -37 116t-99 39q-63 0 -100 -39t-37 -116v-87h273zM258 874.5q54 43.5 139 43.5t139 -43.5t57 -117.5h-116
q-1 30 -24 48t-56 18t-56 -18t-24 -48h-116q3 74 57 117.5z" />
    <glyph glyph-name="Amacron.ss01" horiz-adv-x="794" 
d="M571.5 674.5q75.5 -39.5 117 -115t41.5 -181.5v-378h-198v155h-273v-155h-195v378q0 106 41.5 181.5t117 115t174.5 39.5t174.5 -39.5zM532 308v87q0 77 -37 116t-99 39q-63 0 -100 -39t-37 -116v-87h273zM200 884h394v-102h-394v102z" />
    <glyph glyph-name="Aogonek.ss01" horiz-adv-x="794" 
d="M571.5 674.5q75.5 -39.5 117 -115t41.5 -181.5v-378h-198v155h-273v-155h-195v378q0 106 41.5 181.5t117 115t174.5 39.5t174.5 -39.5zM532 308v87q0 77 -37 116t-99 39q-63 0 -100 -39t-37 -116v-87h273zM539 -204q-39 32 -39 85q0 52 40.5 94.5t119.5 69.5l70 -45
q-63 -28 -89 -52t-26 -50q0 -20 14.5 -32t40.5 -12q32 0 60 15l25 -82q-19 -10 -48.5 -16.5t-58.5 -6.5q-70 0 -109 32z" />
    <glyph glyph-name="Aring.ss01" horiz-adv-x="794" 
d="M571.5 674.5q75.5 -39.5 117 -115t41.5 -181.5v-378h-198v155h-273v-155h-195v378q0 106 41.5 181.5t117 115t174.5 39.5t174.5 -39.5zM532 308v87q0 77 -37 116t-99 39q-63 0 -100 -39t-37 -116v-87h273zM303 786q-38 37 -38 90q0 54 38 91t94 37q36 0 66.5 -17
t48 -46.5t17.5 -64.5q0 -53 -38.5 -90t-93.5 -37q-56 0 -94 37zM437.5 835q16.5 16 16.5 41t-16.5 41.5t-40.5 16.5t-40.5 -16.5t-16.5 -41.5t16.5 -41t40.5 -16t40.5 16z" />
    <glyph glyph-name="Aringacute.ss01" horiz-adv-x="794" 
d="M571.5 674.5q75.5 -39.5 117 -115t41.5 -181.5v-378h-198v155h-273v-155h-195v378q0 106 41.5 181.5t117 115t174.5 39.5t174.5 -39.5zM532 308v87q0 77 -37 116t-99 39q-63 0 -100 -39t-37 -116v-87h273zM512 939q17 -29 17 -63q0 -53 -38.5 -90t-93.5 -37q-56 0 -94 37
t-38 90q0 54 38 91t94 37q27 0 49 -9l89 93l93 -70zM437.5 835q16.5 16 16.5 41t-16.5 41.5t-40.5 16.5t-40.5 -16.5t-16.5 -41.5t16.5 -41t40.5 -16t40.5 16z" />
    <glyph glyph-name="Atilde.ss01" horiz-adv-x="794" 
d="M571.5 674.5q75.5 -39.5 117 -115t41.5 -181.5v-378h-198v155h-273v-155h-195v378q0 106 41.5 181.5t117 115t174.5 39.5t174.5 -39.5zM532 308v87q0 77 -37 116t-99 39q-63 0 -100 -39t-37 -116v-87h273zM426.5 760.5q-21.5 10.5 -47.5 28.5q-19 13 -28.5 18t-19.5 5
q-20 0 -32 -14t-14 -39h-93q2 73 36 116t91 43q27 0 48 -10t48 -28q19 -13 28.5 -18t19.5 -5q20 0 32 13.5t14 36.5h93q-2 -71 -36 -114t-91 -43q-27 0 -48.5 10.5z" />
    <glyph glyph-name="AE.ss01" horiz-adv-x="1092" 
d="M1057 153v-153h-562v163h-238v-163h-199v381q0 154 84.5 236.5t242.5 82.5h658v-153h-353v-119h312v-146h-312v-129h367zM495 315v221h-92q-76 0 -111 -38.5t-35 -121.5v-61h238z" />
    <glyph glyph-name="AEacute.ss01" horiz-adv-x="1092" 
d="M1057 153v-153h-562v163h-238v-163h-199v381q0 154 84.5 236.5t242.5 82.5h658v-153h-353v-119h312v-146h-312v-129h367zM495 315v221h-92q-76 0 -111 -38.5t-35 -121.5v-61h238zM579 909h190l-188 -152h-136z" />
    <glyph glyph-name="uni01C4.ss01" horiz-adv-x="1445" 
d="M70 700h331q115 0 204 -43t138 -122t49 -185t-49 -185t-138 -122t-204 -43h-331v700zM393 158q90 0 144.5 51t54.5 141t-54.5 141t-144.5 51h-125v-384h125zM1435 153v-153h-627v112l147 175h-94v140h212l100 120h-356v154h603v-112l-139 -166h87v-139h-204l-110 -131
h381zM1333 909l-130 -152h-164l-130 152h126l86 -76l86 76h126z" />
    <glyph glyph-name="uni01C5.ss01" horiz-adv-x="1392" 
d="M70 700h331q115 0 204 -43t138 -122t49 -185t-49 -185t-138 -122t-204 -43h-331v700zM393 158q90 0 144.5 51t54.5 141t-54.5 141t-144.5 51h-125v-384h125zM1364 142v-142h-500v112l89 103h-58v118h161l59 68h-244v141h483v-111l-86 -99h63v-118h-166l-62 -72h261z
M1321 759l-130 -152h-164l-130 152h126l86 -76l86 76h126z" />
    <glyph glyph-name="E.ss01" horiz-adv-x="681" 
d="M672 53q-54 -31 -131 -49t-160 -18q-112 0 -190.5 27t-118 75t-39.5 111q0 55 30 97t83 65q-41 21 -62.5 58.5t-21.5 82.5q0 58 36.5 106t111.5 77t185 29q69 0 136 -13t118 -35l-54 -148q-93 41 -192 41q-71 0 -106 -18.5t-35 -51.5q0 -60 87 -60h198v-151h-211
q-51 0 -77 -16.5t-26 -48.5q0 -34 38 -53t118 -19q57 0 117.5 15.5t105.5 42.5z" />
    <glyph glyph-name="Eacute.ss01" horiz-adv-x="681" 
d="M672 53q-54 -31 -131 -49t-160 -18q-112 0 -190.5 27t-118 75t-39.5 111q0 55 30 97t83 65q-41 21 -62.5 58.5t-21.5 82.5q0 58 36.5 106t111.5 77t185 29q69 0 136 -13t118 -35l-54 -148q-93 41 -192 41q-71 0 -106 -18.5t-35 -51.5q0 -60 87 -60h198v-151h-211
q-51 0 -77 -16.5t-26 -48.5q0 -34 38 -53t118 -19q57 0 117.5 15.5t105.5 42.5zM404 909h190l-188 -152h-136z" />
    <glyph glyph-name="Ebreve.ss01" horiz-adv-x="681" 
d="M672 53q-54 -31 -131 -49t-160 -18q-112 0 -190.5 27t-118 75t-39.5 111q0 55 30 97t83 65q-41 21 -62.5 58.5t-21.5 82.5q0 58 36.5 106t111.5 77t185 29q69 0 136 -13t118 -35l-54 -148q-93 41 -192 41q-71 0 -106 -18.5t-35 -51.5q0 -60 87 -60h198v-151h-211
q-51 0 -77 -16.5t-26 -48.5q0 -34 38 -53t118 -19q57 0 117.5 15.5t105.5 42.5zM229 791.5q-54 43.5 -57 117.5h116q1 -30 24 -48t56 -18t56 18t24 48h116q-3 -74 -57 -117.5t-139 -43.5t-139 43.5z" />
    <glyph glyph-name="Ecaron.ss01" horiz-adv-x="681" 
d="M672 53q-54 -31 -131 -49t-160 -18q-112 0 -190.5 27t-118 75t-39.5 111q0 55 30 97t83 65q-41 21 -62.5 58.5t-21.5 82.5q0 58 36.5 106t111.5 77t185 29q69 0 136 -13t118 -35l-54 -148q-93 41 -192 41q-71 0 -106 -18.5t-35 -51.5q0 -60 87 -60h198v-151h-211
q-51 0 -77 -16.5t-26 -48.5q0 -34 38 -53t118 -19q57 0 117.5 15.5t105.5 42.5zM580 909l-130 -152h-164l-130 152h126l86 -76l86 76h126z" />
    <glyph glyph-name="uni1E1C.ss01" horiz-adv-x="681" 
d="M672 53q-54 -31 -131 -49t-160 -18q-112 0 -190.5 27t-118 75t-39.5 111q0 55 30 97t83 65q-41 21 -62.5 58.5t-21.5 82.5q0 58 36.5 106t111.5 77t185 29q69 0 136 -13t118 -35l-54 -148q-93 41 -192 41q-71 0 -106 -18.5t-35 -51.5q0 -60 87 -60h198v-151h-211
q-51 0 -77 -16.5t-26 -48.5q0 -34 38 -53t118 -19q57 0 117.5 15.5t105.5 42.5zM279.5 -230q-26.5 6 -43.5 15l26 75q30 -14 62 -14q50 0 50 28q0 25 -45 25h-37l26 110h99l-14 -60q44 -5 65 -27.5t21 -53.5q0 -48 -43 -76t-115 -28q-25 0 -51.5 6zM229 791.5
q-54 43.5 -57 117.5h116q1 -30 24 -48t56 -18t56 18t24 48h116q-3 -74 -57 -117.5t-139 -43.5t-139 43.5z" />
    <glyph glyph-name="Ecircumflex.ss01" horiz-adv-x="681" 
d="M672 53q-54 -31 -131 -49t-160 -18q-112 0 -190.5 27t-118 75t-39.5 111q0 55 30 97t83 65q-41 21 -62.5 58.5t-21.5 82.5q0 58 36.5 106t111.5 77t185 29q69 0 136 -13t118 -35l-54 -148q-93 41 -192 41q-71 0 -106 -18.5t-35 -51.5q0 -60 87 -60h198v-151h-211
q-51 0 -77 -16.5t-26 -48.5q0 -34 38 -53t118 -19q57 0 117.5 15.5t105.5 42.5zM454 757l-86 76l-86 -76h-126l130 152h164l130 -152h-126z" />
    <glyph glyph-name="uni1EBE.ss01" horiz-adv-x="681" 
d="M672 53q-54 -31 -131 -49t-160 -18q-112 0 -190.5 27t-118 75t-39.5 111q0 55 30 97t83 65q-41 21 -62.5 58.5t-21.5 82.5q0 58 36.5 106t111.5 77t185 29q69 0 136 -13t118 -35l-54 -148q-93 41 -192 41q-71 0 -106 -18.5t-35 -51.5q0 -60 87 -60h198v-151h-211
q-51 0 -77 -16.5t-26 -48.5q0 -34 38 -53t118 -19q57 0 117.5 15.5t105.5 42.5zM453 757l-85 59l-85 -59h-127l131 122h162l131 -122h-127zM606 982h186l-161 -125h-131z" />
    <glyph glyph-name="uni1EC6.ss01" horiz-adv-x="681" 
d="M672 53q-54 -31 -131 -49t-160 -18q-112 0 -190.5 27t-118 75t-39.5 111q0 55 30 97t83 65q-41 21 -62.5 58.5t-21.5 82.5q0 58 36.5 106t111.5 77t185 29q69 0 136 -13t118 -35l-54 -148q-93 41 -192 41q-71 0 -106 -18.5t-35 -51.5q0 -60 87 -60h198v-151h-211
q-51 0 -77 -16.5t-26 -48.5q0 -34 38 -53t118 -19q57 0 117.5 15.5t105.5 42.5zM311.5 -197q-22.5 21 -22.5 56t22.5 57t56.5 22t56.5 -22t22.5 -57t-22.5 -56t-56.5 -21t-56.5 21zM454 757l-86 76l-86 -76h-126l130 152h164l130 -152h-126z" />
    <glyph glyph-name="uni1EC0.ss01" horiz-adv-x="681" 
d="M672 53q-54 -31 -131 -49t-160 -18q-112 0 -190.5 27t-118 75t-39.5 111q0 55 30 97t83 65q-41 21 -62.5 58.5t-21.5 82.5q0 58 36.5 106t111.5 77t185 29q69 0 136 -13t118 -35l-54 -148q-93 41 -192 41q-71 0 -106 -18.5t-35 -51.5q0 -60 87 -60h198v-151h-211
q-51 0 -77 -16.5t-26 -48.5q0 -34 38 -53t118 -19q57 0 117.5 15.5t105.5 42.5zM453 757l-85 59l-85 -59h-127l131 122h162l131 -122h-127zM398 982h186l106 -125h-130z" />
    <glyph glyph-name="uni1EC2.ss01" horiz-adv-x="681" 
d="M672 53q-54 -31 -131 -49t-160 -18q-112 0 -190.5 27t-118 75t-39.5 111q0 55 30 97t83 65q-41 21 -62.5 58.5t-21.5 82.5q0 58 36.5 106t111.5 77t185 29q69 0 136 -13t118 -35l-54 -148q-93 41 -192 41q-71 0 -106 -18.5t-35 -51.5q0 -60 87 -60h198v-151h-211
q-51 0 -77 -16.5t-26 -48.5q0 -34 38 -53t118 -19q57 0 117.5 15.5t105.5 42.5zM453 757l-85 59l-85 -59h-127l131 122h162l131 -122h-127zM519 878q36 19 36 40q0 12 -9 19.5t-23 7.5q-21 0 -45 -12l-30 54q38 24 91 24q45 0 72 -22.5t27 -60.5q0 -31 -21 -54.5t-53 -36.5z
" />
    <glyph glyph-name="uni1EC4.ss01" horiz-adv-x="681" 
d="M672 53q-54 -31 -131 -49t-160 -18q-112 0 -190.5 27t-118 75t-39.5 111q0 55 30 97t83 65q-41 21 -62.5 58.5t-21.5 82.5q0 58 36.5 106t111.5 77t185 29q69 0 136 -13t118 -35l-54 -148q-93 41 -192 41q-71 0 -106 -18.5t-35 -51.5q0 -60 87 -60h198v-151h-211
q-51 0 -77 -16.5t-26 -48.5q0 -34 38 -53t118 -19q57 0 117.5 15.5t105.5 42.5zM453 757l-85 59l-85 -59h-127l131 122h162l131 -122h-127zM392.5 923q-21.5 9 -46.5 24q-11 7 -22 12.5t-19 5.5q-19 0 -30 -11.5t-13 -31.5h-95q1 65 34.5 100.5t92.5 35.5q27 0 48.5 -9
t46.5 -24q16 -9 25.5 -13.5t18.5 -4.5q19 0 30.5 12t13.5 31h92q-1 -64 -34 -100t-92 -36q-29 0 -50.5 9z" />
    <glyph glyph-name="uni0204.ss01" horiz-adv-x="681" 
d="M672 53q-54 -31 -131 -49t-160 -18q-112 0 -190.5 27t-118 75t-39.5 111q0 55 30 97t83 65q-41 21 -62.5 58.5t-21.5 82.5q0 58 36.5 106t111.5 77t185 29q69 0 136 -13t118 -35l-54 -148q-93 41 -192 41q-71 0 -106 -18.5t-35 -51.5q0 -60 87 -60h198v-151h-211
q-51 0 -77 -16.5t-26 -48.5q0 -34 38 -53t118 -19q57 0 117.5 15.5t105.5 42.5zM93 909h170l62 -152h-132zM310 909h170l63 -152h-132z" />
    <glyph glyph-name="Edieresis.ss01" horiz-adv-x="681" 
d="M672 53q-54 -31 -131 -49t-160 -18q-112 0 -190.5 27t-118 75t-39.5 111q0 55 30 97t83 65q-41 21 -62.5 58.5t-21.5 82.5q0 58 36.5 106t111.5 77t185 29q69 0 136 -13t118 -35l-54 -148q-93 41 -192 41q-71 0 -106 -18.5t-35 -51.5q0 -60 87 -60h198v-151h-211
q-51 0 -77 -16.5t-26 -48.5q0 -34 38 -53t118 -19q57 0 117.5 15.5t105.5 42.5zM205.5 777.5q-22.5 21.5 -22.5 56.5t22.5 57t56.5 22t56.5 -22t22.5 -57t-22.5 -56.5t-56.5 -21.5t-56.5 21.5zM417.5 777.5q-22.5 21.5 -22.5 56.5t22.5 57t56.5 22t56.5 -22t22.5 -57
t-22.5 -56.5t-56.5 -21.5t-56.5 21.5z" />
    <glyph glyph-name="Edotaccent.ss01" horiz-adv-x="681" 
d="M672 53q-54 -31 -131 -49t-160 -18q-112 0 -190.5 27t-118 75t-39.5 111q0 55 30 97t83 65q-41 21 -62.5 58.5t-21.5 82.5q0 58 36.5 106t111.5 77t185 29q69 0 136 -13t118 -35l-54 -148q-93 41 -192 41q-71 0 -106 -18.5t-35 -51.5q0 -60 87 -60h198v-151h-211
q-51 0 -77 -16.5t-26 -48.5q0 -34 38 -53t118 -19q57 0 117.5 15.5t105.5 42.5zM296.5 783q-27.5 28 -27.5 71t28 70.5t71 27.5t71 -27.5t28 -70.5t-28 -71t-71 -28q-44 0 -71.5 28z" />
    <glyph glyph-name="uni1EB8.ss01" horiz-adv-x="681" 
d="M672 53q-54 -31 -131 -49t-160 -18q-112 0 -190.5 27t-118 75t-39.5 111q0 55 30 97t83 65q-41 21 -62.5 58.5t-21.5 82.5q0 58 36.5 106t111.5 77t185 29q69 0 136 -13t118 -35l-54 -148q-93 41 -192 41q-71 0 -106 -18.5t-35 -51.5q0 -60 87 -60h198v-151h-211
q-51 0 -77 -16.5t-26 -48.5q0 -34 38 -53t118 -19q57 0 117.5 15.5t105.5 42.5zM311.5 -197q-22.5 21 -22.5 56t22.5 57t56.5 22t56.5 -22t22.5 -57t-22.5 -56t-56.5 -21t-56.5 21z" />
    <glyph glyph-name="Egrave.ss01" horiz-adv-x="681" 
d="M672 53q-54 -31 -131 -49t-160 -18q-112 0 -190.5 27t-118 75t-39.5 111q0 55 30 97t83 65q-41 21 -62.5 58.5t-21.5 82.5q0 58 36.5 106t111.5 77t185 29q69 0 136 -13t118 -35l-54 -148q-93 41 -192 41q-71 0 -106 -18.5t-35 -51.5q0 -60 87 -60h198v-151h-211
q-51 0 -77 -16.5t-26 -48.5q0 -34 38 -53t118 -19q57 0 117.5 15.5t105.5 42.5zM142 909h190l134 -152h-136z" />
    <glyph glyph-name="uni1EBA.ss01" horiz-adv-x="681" 
d="M672 53q-54 -31 -131 -49t-160 -18q-112 0 -190.5 27t-118 75t-39.5 111q0 55 30 97t83 65q-41 21 -62.5 58.5t-21.5 82.5q0 58 36.5 106t111.5 77t185 29q69 0 136 -13t118 -35l-54 -148q-93 41 -192 41q-71 0 -106 -18.5t-35 -51.5q0 -60 87 -60h198v-151h-211
q-51 0 -77 -16.5t-26 -48.5q0 -34 38 -53t118 -19q57 0 117.5 15.5t105.5 42.5zM346 805q27 13 38 27t11 31q0 19 -12.5 29.5t-32.5 10.5q-29 0 -58 -20l-39 74q23 18 54 27.5t64 9.5q58 0 94.5 -32t36.5 -83q0 -88 -98 -132z" />
    <glyph glyph-name="uni0206.ss01" horiz-adv-x="681" 
d="M672 53q-54 -31 -131 -49t-160 -18q-112 0 -190.5 27t-118 75t-39.5 111q0 55 30 97t83 65q-41 21 -62.5 58.5t-21.5 82.5q0 58 36.5 106t111.5 77t185 29q69 0 136 -13t118 -35l-54 -148q-93 41 -192 41q-71 0 -106 -18.5t-35 -51.5q0 -60 87 -60h198v-151h-211
q-51 0 -77 -16.5t-26 -48.5q0 -34 38 -53t118 -19q57 0 117.5 15.5t105.5 42.5zM229 874.5q54 43.5 139 43.5t139 -43.5t57 -117.5h-116q-1 30 -24 48t-56 18t-56 -18t-24 -48h-116q3 74 57 117.5z" />
    <glyph glyph-name="Emacron.ss01" horiz-adv-x="681" 
d="M672 53q-54 -31 -131 -49t-160 -18q-112 0 -190.5 27t-118 75t-39.5 111q0 55 30 97t83 65q-41 21 -62.5 58.5t-21.5 82.5q0 58 36.5 106t111.5 77t185 29q69 0 136 -13t118 -35l-54 -148q-93 41 -192 41q-71 0 -106 -18.5t-35 -51.5q0 -60 87 -60h198v-151h-211
q-51 0 -77 -16.5t-26 -48.5q0 -34 38 -53t118 -19q57 0 117.5 15.5t105.5 42.5zM171 884h394v-102h-394v102z" />
    <glyph glyph-name="uni1E16.ss01" horiz-adv-x="681" 
d="M672 53q-54 -31 -131 -49t-160 -18q-112 0 -190.5 27t-118 75t-39.5 111q0 55 30 97t83 65q-41 21 -62.5 58.5t-21.5 82.5q0 58 36.5 106t111.5 77t185 29q69 0 136 -13t118 -35l-54 -148q-93 41 -192 41q-71 0 -106 -18.5t-35 -51.5q0 -60 87 -60h198v-151h-211
q-51 0 -77 -16.5t-26 -48.5q0 -34 38 -53t118 -19q57 0 117.5 15.5t105.5 42.5zM171 867h394v-98h-394v98zM379 1054h186l-161 -125h-131z" />
    <glyph glyph-name="uni1E14.ss01" horiz-adv-x="681" 
d="M672 53q-54 -31 -131 -49t-160 -18q-112 0 -190.5 27t-118 75t-39.5 111q0 55 30 97t83 65q-41 21 -62.5 58.5t-21.5 82.5q0 58 36.5 106t111.5 77t185 29q69 0 136 -13t118 -35l-54 -148q-93 41 -192 41q-71 0 -106 -18.5t-35 -51.5q0 -60 87 -60h198v-151h-211
q-51 0 -77 -16.5t-26 -48.5q0 -34 38 -53t118 -19q57 0 117.5 15.5t105.5 42.5zM171 867h394v-98h-394v98zM171 1054h186l106 -125h-130z" />
    <glyph glyph-name="Eogonek.ss01" horiz-adv-x="681" 
d="M630 -131l25 -82q-19 -10 -48.5 -16.5t-58.5 -6.5q-69 0 -108.5 32t-39.5 85q0 62 50 109q-46 -4 -69 -4q-112 0 -190.5 27t-118 75t-39.5 111q0 55 30 97t83 65q-41 21 -62.5 58.5t-21.5 82.5q0 58 36.5 106t111.5 77t185 29q69 0 136 -13t118 -35l-54 -148
q-93 41 -192 41q-71 0 -106 -18.5t-35 -51.5q0 -60 87 -60h198v-151h-211q-51 0 -77 -16.5t-26 -48.5q0 -34 38 -53t118 -19q57 0 117.5 15.5t105.5 42.5l60 -146q-81 -41 -119 -80.5t-38 -71.5q0 -22 14 -34.5t41 -12.5q32 0 60 15z" />
    <glyph glyph-name="uni1EBC.ss01" horiz-adv-x="681" 
d="M672 53q-54 -31 -131 -49t-160 -18q-112 0 -190.5 27t-118 75t-39.5 111q0 55 30 97t83 65q-41 21 -62.5 58.5t-21.5 82.5q0 58 36.5 106t111.5 77t185 29q69 0 136 -13t118 -35l-54 -148q-93 41 -192 41q-71 0 -106 -18.5t-35 -51.5q0 -60 87 -60h198v-151h-211
q-51 0 -77 -16.5t-26 -48.5q0 -34 38 -53t118 -19q57 0 117.5 15.5t105.5 42.5zM397.5 760.5q-21.5 10.5 -47.5 28.5q-19 13 -28.5 18t-19.5 5q-20 0 -32 -14t-14 -39h-93q2 73 36 116t91 43q27 0 48 -10t48 -28q19 -13 28.5 -18t19.5 -5q20 0 32 13.5t14 36.5h93
q-2 -71 -36 -114t-91 -43q-27 0 -48.5 10.5z" />
    <glyph glyph-name="F.ss01" horiz-adv-x="620" 
d="M302 517q-40 -33 -40 -100v-24h269v-153h-269v-240h-198v414q0 143 89 221.5t250 78.5q61 0 114.5 -12t91.5 -34l-58 -152q-58 34 -133 34q-76 0 -116 -33z" />
    <glyph glyph-name="G.ss01" horiz-adv-x="770" 
d="M539 365h175v-365h-137v43q-71 -57 -188 -57q-98 0 -179 42t-128.5 122.5t-47.5 192.5q0 108 50 192.5t139 131.5t201 47q98 0 176 -33t130 -95l-126 -114q-71 78 -170 78q-91 0 -145.5 -55.5t-54.5 -150.5q0 -96 51 -147t129 -51q75 0 125 40v179z" />
    <glyph glyph-name="Gbreve.ss01" horiz-adv-x="770" 
d="M539 365h175v-365h-137v43q-71 -57 -188 -57q-98 0 -179 42t-128.5 122.5t-47.5 192.5q0 108 50 192.5t139 131.5t201 47q98 0 176 -33t130 -95l-126 -114q-71 78 -170 78q-91 0 -145.5 -55.5t-54.5 -150.5q0 -96 51 -147t129 -51q75 0 125 40v179zM281 792.5
q-54 43.5 -57 117.5h116q1 -30 24 -48t56 -18t56 18t24 48h116q-3 -74 -57 -117.5t-139 -43.5t-139 43.5z" />
    <glyph glyph-name="Gcaron.ss01" horiz-adv-x="770" 
d="M539 365h175v-365h-137v43q-71 -57 -188 -57q-98 0 -179 42t-128.5 122.5t-47.5 192.5q0 108 50 192.5t139 131.5t201 47q98 0 176 -33t130 -95l-126 -114q-71 78 -170 78q-91 0 -145.5 -55.5t-54.5 -150.5q0 -96 51 -147t129 -51q75 0 125 40v179zM632 910l-130 -152
h-164l-130 152h126l86 -76l86 76h126z" />
    <glyph glyph-name="Gcircumflex.ss01" horiz-adv-x="770" 
d="M539 365h175v-365h-137v43q-71 -57 -188 -57q-98 0 -179 42t-128.5 122.5t-47.5 192.5q0 108 50 192.5t139 131.5t201 47q98 0 176 -33t130 -95l-126 -114q-71 78 -170 78q-91 0 -145.5 -55.5t-54.5 -150.5q0 -96 51 -147t129 -51q75 0 125 40v179zM506 758l-86 76
l-86 -76h-126l130 152h164l130 -152h-126z" />
    <glyph glyph-name="Gcommaaccent.ss01" horiz-adv-x="770" 
d="M539 365h175v-365h-137v43q-71 -57 -188 -57q-98 0 -179 42t-128.5 122.5t-47.5 192.5q0 108 50 192.5t139 131.5t201 47q98 0 176 -33t130 -95l-126 -114q-71 78 -170 78q-91 0 -145.5 -55.5t-54.5 -150.5q0 -96 51 -147t129 -51q75 0 125 40v179zM465.5 -78.5
q21.5 -18.5 21.5 -48.5q0 -35 -21 -72l-37 -67h-86l26 79q-40 15 -40 60q0 30 21.5 48.5t57.5 18.5t57.5 -18.5z" />
    <glyph glyph-name="Gdotaccent.ss01" horiz-adv-x="770" 
d="M539 365h175v-365h-137v43q-71 -57 -188 -57q-98 0 -179 42t-128.5 122.5t-47.5 192.5q0 108 50 192.5t139 131.5t201 47q98 0 176 -33t130 -95l-126 -114q-71 78 -170 78q-91 0 -145.5 -55.5t-54.5 -150.5q0 -96 51 -147t129 -51q75 0 125 40v179zM348.5 784
q-27.5 28 -27.5 71t28 70.5t71 27.5t71 -27.5t28 -70.5t-28 -71t-71 -28q-44 0 -71.5 28z" />
    <glyph glyph-name="uni1E20.ss01" horiz-adv-x="770" 
d="M539 365h175v-365h-137v43q-71 -57 -188 -57q-98 0 -179 42t-128.5 122.5t-47.5 192.5q0 108 50 192.5t139 131.5t201 47q98 0 176 -33t130 -95l-126 -114q-71 78 -170 78q-91 0 -145.5 -55.5t-54.5 -150.5q0 -96 51 -147t129 -51q75 0 125 40v179zM223 885h394v-102
h-394v102z" />
    <glyph glyph-name="uni01E4.ss01" horiz-adv-x="818" 
d="M539 365h175v-365h-137v43q-71 -57 -188 -57q-98 0 -179 42t-128.5 122.5t-47.5 192.5q0 108 50 192.5t139 131.5t201 47q98 0 176 -33t130 -95l-126 -114q-71 78 -170 78q-91 0 -145.5 -55.5t-54.5 -150.5q0 -96 51 -147t129 -51q75 0 125 40v179zM394.622 321.248
h405.753v-120.317h-405.753v120.317z" />
    <glyph glyph-name="I.ss01" horiz-adv-x="499" 
d="M349 547v-394h113v-153h-425v153h114v394h-114v153h425v-153h-113z" />
    <glyph glyph-name="IJ.ss01" horiz-adv-x="727" 
d="M172.5 -88.5q-72.5 21.5 -125.5 59.5l72 144q47 -32 100 -48.5t102 -16.5q72 0 107.5 39t35.5 122v489h198v-476q0 -106 -41 -181t-116.5 -114t-176.5 -39q-83 0 -155.5 21.5zM64 700h198v-471h-198v471z" />
    <glyph glyph-name="Iacute.ss01" horiz-adv-x="499" 
d="M349 547v-394h113v-153h-425v153h114v394h-114v153h425v-153h-113zM286 909h190l-188 -152h-136z" />
    <glyph glyph-name="Iacute_J.loclNLD.ss01" horiz-adv-x="727" 
d="M207 909h185l-189 -152h-129zM606 909h185l-189 -152h-129zM172.5 -87q-72.5 22 -125.5 60l72 143q47 -31 100 -47.5t100 -16.5q74 0 109.5 39.5t35.5 122.5v486h198v-475q0 -106 -41 -181t-116.5 -114t-176.5 -39q-83 0 -155.5 22zM64 700h198v-471h-198v471z" />
    <glyph glyph-name="Ibreve.ss01" horiz-adv-x="499" 
d="M349 547v-394h113v-153h-425v153h114v394h-114v153h425v-153h-113zM111 791.5q-54 43.5 -57 117.5h116q1 -30 24 -48t56 -18t56 18t24 48h116q-3 -74 -57 -117.5t-139 -43.5t-139 43.5z" />
    <glyph glyph-name="Icircumflex.ss01" horiz-adv-x="499" 
d="M349 547v-394h113v-153h-425v153h114v394h-114v153h425v-153h-113zM336 757l-86 76l-86 -76h-126l130 152h164l130 -152h-126z" />
    <glyph glyph-name="uni0208.ss01" horiz-adv-x="499" 
d="M349 547v-394h113v-153h-425v153h114v394h-114v153h425v-153h-113zM-25 909h170l62 -152h-132zM192 909h170l63 -152h-132z" />
    <glyph glyph-name="Idieresis.ss01" horiz-adv-x="499" 
d="M349 547v-394h113v-153h-425v153h114v394h-114v153h425v-153h-113zM87.5 777.5q-22.5 21.5 -22.5 56.5t22.5 57t56.5 22t56.5 -22t22.5 -57t-22.5 -56.5t-56.5 -21.5t-56.5 21.5zM299.5 777.5q-22.5 21.5 -22.5 56.5t22.5 57t56.5 22t56.5 -22t22.5 -57t-22.5 -56.5
t-56.5 -21.5t-56.5 21.5z" />
    <glyph glyph-name="uni1E2E.ss01" horiz-adv-x="499" 
d="M349 547v-394h113v-153h-425v153h114v394h-114v153h425v-153h-113zM94.5 775.5q-21.5 20.5 -21.5 53.5t21.5 54t53.5 21q33 0 54.5 -21t21.5 -54t-21.5 -53.5t-54.5 -20.5q-32 0 -53.5 20.5zM298.5 775.5q-21.5 20.5 -21.5 53.5t21.5 54t53.5 21t53.5 -21t21.5 -54
t-21.5 -53.5t-53.5 -20.5t-53.5 20.5zM261 1053h186l-161 -125h-131z" />
    <glyph glyph-name="Idotaccent.ss01" horiz-adv-x="499" 
d="M349 547v-394h113v-153h-425v153h114v394h-114v153h425v-153h-113zM178.5 783q-27.5 28 -27.5 71t28 70.5t71 27.5t71 -27.5t28 -70.5t-28 -71t-71 -28q-44 0 -71.5 28z" />
    <glyph glyph-name="uni1ECA.ss01" horiz-adv-x="499" 
d="M349 547v-394h113v-153h-425v153h114v394h-114v153h425v-153h-113zM193.5 -197q-22.5 21 -22.5 56t22.5 57t56.5 22t56.5 -22t22.5 -57t-22.5 -56t-56.5 -21t-56.5 21z" />
    <glyph glyph-name="Igrave.ss01" horiz-adv-x="499" 
d="M349 547v-394h113v-153h-425v153h114v394h-114v153h425v-153h-113zM24 909h190l134 -152h-136z" />
    <glyph glyph-name="uni1EC8.ss01" horiz-adv-x="499" 
d="M349 547v-394h113v-153h-425v153h114v394h-114v153h425v-153h-113zM228 805q27 13 38 27t11 31q0 19 -12.5 29.5t-32.5 10.5q-29 0 -58 -20l-39 74q23 18 54 27.5t64 9.5q58 0 94.5 -32t36.5 -83q0 -88 -98 -132z" />
    <glyph glyph-name="uni020A.ss01" horiz-adv-x="499" 
d="M349 547v-394h113v-153h-425v153h114v394h-114v153h425v-153h-113zM111 874.5q54 43.5 139 43.5t139 -43.5t57 -117.5h-116q-1 30 -24 48t-56 18t-56 -18t-24 -48h-116q3 74 57 117.5z" />
    <glyph glyph-name="Imacron.ss01" horiz-adv-x="499" 
d="M349 547v-394h113v-153h-425v153h114v394h-114v153h425v-153h-113zM53 884h394v-102h-394v102z" />
    <glyph glyph-name="Iogonek.ss01" horiz-adv-x="499" 
d="M349 547v-394h113v-153h-425v153h114v394h-114v153h425v-153h-113zM202.5 -203.5q-36.5 32.5 -36.5 85.5q0 51 33.5 93.5t96.5 70.5l53 -46q-37 -27 -52 -51t-15 -50q0 -20 11.5 -32.5t28.5 -12.5q16 0 32 11l23 -79q-15 -10 -35.5 -16t-43.5 -6q-59 0 -95.5 32.5z" />
    <glyph glyph-name="Itilde.ss01" horiz-adv-x="499" 
d="M349 547v-394h113v-153h-425v153h114v394h-114v153h425v-153h-113zM279.5 760.5q-21.5 10.5 -47.5 28.5q-19 13 -28.5 18t-19.5 5q-20 0 -32 -14t-14 -39h-93q2 73 36 116t91 43q27 0 48 -10t48 -28q19 -13 28.5 -18t19.5 -5q20 0 32 13.5t14 36.5h93q-2 -71 -36 -114
t-91 -43q-27 0 -48.5 10.5z" />
    <glyph glyph-name="J.ss01" horiz-adv-x="556" 
d="M82.5 -87.5q-62.5 26.5 -102.5 76.5l107 128q56 -73 120 -73q44 0 66.5 26t22.5 76v401h-242v153h438v-542q0 -136 -68.5 -204t-201.5 -68q-77 0 -139.5 26.5z" />
    <glyph glyph-name="Jcircumflex.ss01" horiz-adv-x="556" 
d="M82.5 -87.5q-62.5 26.5 -102.5 76.5l107 128q56 -73 120 -73q44 0 66.5 26t22.5 76v401h-242v153h438v-542q0 -136 -68.5 -204t-201.5 -68q-77 0 -139.5 26.5zM359 757l-86 76l-86 -76h-126l130 152h164l130 -152h-126z" />
    <glyph glyph-name="uni01C7.ss01" horiz-adv-x="1196" 
d="M70 700h198v-543h334v-157h-532v700zM722.5 -87.5q-62.5 26.5 -102.5 76.5l107 128q56 -73 120 -73q44 0 66.5 26t22.5 76v401h-242v153h438v-542q0 -136 -68.5 -204t-201.5 -68q-77 0 -139.5 26.5z" />
    <glyph glyph-name="M.ss01" horiz-adv-x="1217" 
d="M1082.5 640.5q69.5 -73.5 69.5 -212.5v-428h-198v422q0 63 -33 95.5t-88 32.5q-59 0 -93.5 -34.5t-34.5 -103.5v-412h-198v422q0 63 -30.5 95.5t-83.5 32.5q-57 0 -91 -34.5t-34 -103.5v-412h-198v700h192v-78q32 45 82.5 68.5t117.5 23.5q69 0 120.5 -25t83.5 -73
q36 48 94 73t129 25q124 0 193.5 -73.5z" />
    <glyph glyph-name="uni1E42.ss01" horiz-adv-x="1217" 
d="M1082.5 640.5q69.5 -73.5 69.5 -212.5v-428h-198v422q0 63 -33 95.5t-88 32.5q-59 0 -93.5 -34.5t-34.5 -103.5v-412h-198v422q0 63 -30.5 95.5t-83.5 32.5q-57 0 -91 -34.5t-34 -103.5v-412h-198v700h192v-78q32 45 82.5 68.5t117.5 23.5q69 0 120.5 -25t83.5 -73
q36 48 94 73t129 25q124 0 193.5 -73.5zM549.5 -197q-22.5 21 -22.5 56t22.5 57t56.5 22t56.5 -22t22.5 -57t-22.5 -56t-56.5 -21t-56.5 21z" />
    <glyph glyph-name="N.ss01" horiz-adv-x="795" 
d="M662 634.5q69 -79.5 69 -226.5v-408h-198v402q0 74 -33.5 111t-93.5 37q-62 0 -100 -39.5t-38 -118.5v-392h-198v700h192v-80q71 94 206 94q125 0 194 -79.5z" />
    <glyph glyph-name="uni01CA.ss01" horiz-adv-x="1351" 
d="M662 634.5q69 -79.5 69 -226.5v-408h-198v402q0 74 -33.5 111t-93.5 37q-62 0 -100 -39.5t-38 -118.5v-392h-198v700h192v-80q71 94 206 94q125 0 194 -79.5zM877.5 -87.5q-62.5 26.5 -102.5 76.5l107 128q56 -73 120 -73q44 0 66.5 26t22.5 76v401h-242v153h438v-542
q0 -136 -68.5 -204t-201.5 -68q-77 0 -139.5 26.5z" />
    <glyph glyph-name="Nacute.ss01" horiz-adv-x="795" 
d="M662 634.5q69 -79.5 69 -226.5v-408h-198v402q0 74 -33.5 111t-93.5 37q-62 0 -100 -39.5t-38 -118.5v-392h-198v700h192v-80q71 94 206 94q125 0 194 -79.5zM437 909h190l-188 -152h-136z" />
    <glyph glyph-name="Ncaron.ss01" horiz-adv-x="795" 
d="M662 634.5q69 -79.5 69 -226.5v-408h-198v402q0 74 -33.5 111t-93.5 37q-62 0 -100 -39.5t-38 -118.5v-392h-198v700h192v-80q71 94 206 94q125 0 194 -79.5zM613 909l-130 -152h-164l-130 152h126l86 -76l86 76h126z" />
    <glyph glyph-name="Ncommaaccent.ss01" horiz-adv-x="795" 
d="M662 634.5q69 -79.5 69 -226.5v-408h-198v402q0 74 -33.5 111t-93.5 37q-62 0 -100 -39.5t-38 -118.5v-392h-198v700h192v-80q71 94 206 94q125 0 194 -79.5zM457.5 -80.5q21.5 -18.5 21.5 -48.5q0 -35 -21 -72l-37 -67h-86l26 79q-40 15 -40 60q0 30 21.5 48.5
t57.5 18.5t57.5 -18.5z" />
    <glyph glyph-name="uni1E44.ss01" horiz-adv-x="795" 
d="M662 634.5q69 -79.5 69 -226.5v-408h-198v402q0 74 -33.5 111t-93.5 37q-62 0 -100 -39.5t-38 -118.5v-392h-198v700h192v-80q71 94 206 94q125 0 194 -79.5zM329.5 783q-27.5 28 -27.5 71t28 70.5t71 27.5t71 -27.5t28 -70.5t-28 -71t-71 -28q-44 0 -71.5 28z" />
    <glyph glyph-name="uni1E46.ss01" horiz-adv-x="795" 
d="M662 634.5q69 -79.5 69 -226.5v-408h-198v402q0 74 -33.5 111t-93.5 37q-62 0 -100 -39.5t-38 -118.5v-392h-198v700h192v-80q71 94 206 94q125 0 194 -79.5zM343.5 -197q-22.5 21 -22.5 56t22.5 57t56.5 22t56.5 -22t22.5 -57t-22.5 -56t-56.5 -21t-56.5 21z" />
    <glyph glyph-name="Eng.ss01" horiz-adv-x="795" 
d="M662 634.5q69 -79.5 69 -226.5v-339q0 -135 -69.5 -203.5t-201.5 -68.5q-118 0 -193 59l91 139q40 -35 87 -35q43 0 65.5 25.5t22.5 75.5v341q0 74 -33.5 111t-93.5 37q-62 0 -100 -39.5t-38 -118.5v-392h-198v700h192v-80q71 94 206 94q125 0 194 -79.5z" />
    <glyph glyph-name="uni01CB.ss01" horiz-adv-x="1115" 
d="M662 634.5q69 -79.5 69 -226.5v-408h-198v402q0 74 -33.5 111t-93.5 37q-62 0 -100 -39.5t-38 -118.5v-392h-198v700h192v-80q71 94 206 94q125 0 194 -79.5zM701 -175l48 135q26 -16 59 -16q26 0 41 18t15 53v527h190v-528q0 -100 -58.5 -158.5t-162.5 -58.5
q-83 0 -132 28zM875 631q-32 29 -32 72t32 72t84 29t84 -27.5t32 -70.5q0 -45 -32 -74.5t-84 -29.5t-84 29z" />
    <glyph glyph-name="uni1E48.ss01" horiz-adv-x="795" 
d="M662 634.5q69 -79.5 69 -226.5v-408h-198v402q0 74 -33.5 111t-93.5 37q-62 0 -100 -39.5t-38 -118.5v-392h-198v700h192v-80q71 94 206 94q125 0 194 -79.5zM203 -85h394v-102h-394v102z" />
    <glyph glyph-name="Ntilde.ss01" horiz-adv-x="795" 
d="M662 634.5q69 -79.5 69 -226.5v-408h-198v402q0 74 -33.5 111t-93.5 37q-62 0 -100 -39.5t-38 -118.5v-392h-198v700h192v-80q71 94 206 94q125 0 194 -79.5zM430.5 760.5q-21.5 10.5 -47.5 28.5q-19 13 -28.5 18t-19.5 5q-20 0 -32 -14t-14 -39h-93q2 73 36 116t91 43
q27 0 48 -10t48 -28q19 -13 28.5 -18t19.5 -5q20 0 32 13.5t14 36.5h93q-2 -71 -36 -114t-91 -43q-27 0 -48.5 10.5z" />
    <glyph glyph-name="Q.ss01" horiz-adv-x="846" 
d="M775.5 188.5q-36.5 -73.5 -102 -123t-151.5 -68.5v-132h-198v132q-86 19 -151.5 68.5t-102 123t-36.5 161.5q0 104 50.5 187t139 130t199.5 47t199.5 -47t139 -130t50.5 -187q0 -88 -36.5 -161.5zM519 175q43 25 68 70.5t25 104.5t-25 104.5t-68 70.5t-96 25t-96 -25
t-68 -70.5t-25 -104.5t25 -104.5t68 -70.5t96 -25t96 25z" />
    <glyph glyph-name="uni018F.ss01" horiz-adv-x="818" 
d="M595.5 667.5q88.5 -46.5 138 -129.5t49.5 -188t-48.5 -188t-133.5 -129.5t-192 -46.5q-136 0 -232.5 71.5t-128.5 194.5l511 205q-24 43 -68 68t-99 25q-50 0 -103.5 -22t-87.5 -60l-117 124q51 54 135 88t175 34q113 0 201.5 -46.5zM538 186q46 50 46 136v11l-315 -128
q38 -69 140 -69q83 0 129 50z" />
    <glyph glyph-name="T.ss01" horiz-adv-x="660" 
d="M608 480q-88 49 -179 65v-545h-198v545q-93 -16 -179 -65l-66 144q73 44 161.5 67t182.5 23t182.5 -23t161.5 -67z" />
    <glyph glyph-name="Tbar.ss01" horiz-adv-x="660" 
d="M608 480q-88 49 -179 65v-545h-198v545q-93 -16 -179 -65l-66 144q73 44 161.5 67t182.5 23t182.5 -23t161.5 -67zM104 369h450v-122h-450v122z" />
    <glyph glyph-name="Tcaron.ss01" horiz-adv-x="660" 
d="M608 480q-88 49 -179 65v-545h-198v545q-93 -16 -179 -65l-66 144q73 44 161.5 67t182.5 23t182.5 -23t161.5 -67zM546 910l-130 -152h-164l-130 152h126l86 -76l86 76h126z" />
    <glyph glyph-name="uni0162.ss01" horiz-adv-x="660" 
d="M608 480q-88 49 -179 65v-545h-198v545q-93 -16 -179 -65l-66 144q73 44 161.5 67t182.5 23t182.5 -23t161.5 -67zM241.5 -230q-26.5 6 -43.5 15l26 75q30 -14 62 -14q50 0 50 28q0 25 -45 25h-37l26 110h99l-14 -60q44 -5 65 -27.5t21 -53.5q0 -48 -43 -76t-115 -28
q-25 0 -51.5 6z" />
    <glyph glyph-name="uni021A.ss01" horiz-adv-x="660" 
d="M608 480q-88 49 -179 65v-545h-198v545q-93 -16 -179 -65l-66 144q73 44 161.5 67t182.5 23t182.5 -23t161.5 -67zM387.5 -80.5q21.5 -18.5 21.5 -48.5q0 -35 -21 -72l-37 -67h-86l26 79q-40 15 -40 60q0 30 21.5 48.5t57.5 18.5t57.5 -18.5z" />
    <glyph glyph-name="uni1E6C.ss01" horiz-adv-x="660" 
d="M608 480q-88 49 -179 65v-545h-198v545q-93 -16 -179 -65l-66 144q73 44 161.5 67t182.5 23t182.5 -23t161.5 -67zM273.5 -197q-22.5 21 -22.5 56t22.5 57t56.5 22t56.5 -22t22.5 -57t-22.5 -56t-56.5 -21t-56.5 21z" />
    <glyph glyph-name="uni1E6E.ss01" horiz-adv-x="660" 
d="M608 480q-88 49 -179 65v-545h-198v545q-93 -16 -179 -65l-66 144q73 44 161.5 67t182.5 23t182.5 -23t161.5 -67zM133 -85h394v-102h-394v102z" />
    <glyph glyph-name="U.ss01" horiz-adv-x="791" 
d="M721 700v-700h-192v80q-34 -46 -86 -70t-117 -24q-124 0 -193 79.5t-69 226.5v408h198v-402q0 -74 33.5 -111t91.5 -37q61 0 98.5 40t37.5 118v392h198z" />
    <glyph glyph-name="Uacute.ss01" horiz-adv-x="791" 
d="M721 700v-700h-192v80q-34 -46 -86 -70t-117 -24q-124 0 -193 79.5t-69 226.5v408h198v-402q0 -74 33.5 -111t91.5 -37q61 0 98.5 40t37.5 118v392h198zM427 909h190l-188 -152h-136z" />
    <glyph glyph-name="Ubreve.ss01" horiz-adv-x="791" 
d="M721 700v-700h-192v80q-34 -46 -86 -70t-117 -24q-124 0 -193 79.5t-69 226.5v408h198v-402q0 -74 33.5 -111t91.5 -37q61 0 98.5 40t37.5 118v392h198zM252 791.5q-54 43.5 -57 117.5h116q1 -30 24 -48t56 -18t56 18t24 48h116q-3 -74 -57 -117.5t-139 -43.5t-139 43.5z
" />
    <glyph glyph-name="uni01D3.ss01" horiz-adv-x="791" 
d="M721 700v-700h-192v80q-34 -46 -86 -70t-117 -24q-124 0 -193 79.5t-69 226.5v408h198v-402q0 -74 33.5 -111t91.5 -37q61 0 98.5 40t37.5 118v392h198zM603 909l-130 -152h-164l-130 152h126l86 -76l86 76h126z" />
    <glyph glyph-name="Ucircumflex.ss01" horiz-adv-x="791" 
d="M721 700v-700h-192v80q-34 -46 -86 -70t-117 -24q-124 0 -193 79.5t-69 226.5v408h198v-402q0 -74 33.5 -111t91.5 -37q61 0 98.5 40t37.5 118v392h198zM477 757l-86 76l-86 -76h-126l130 152h164l130 -152h-126z" />
    <glyph glyph-name="uni0214.ss01" horiz-adv-x="791" 
d="M721 700v-700h-192v80q-34 -46 -86 -70t-117 -24q-124 0 -193 79.5t-69 226.5v408h198v-402q0 -74 33.5 -111t91.5 -37q61 0 98.5 40t37.5 118v392h198zM116 909h170l62 -152h-132zM333 909h170l63 -152h-132z" />
    <glyph glyph-name="Udieresis.ss01" horiz-adv-x="791" 
d="M721 700v-700h-192v80q-34 -46 -86 -70t-117 -24q-124 0 -193 79.5t-69 226.5v408h198v-402q0 -74 33.5 -111t91.5 -37q61 0 98.5 40t37.5 118v392h198zM228.5 777.5q-22.5 21.5 -22.5 56.5t22.5 57t56.5 22t56.5 -22t22.5 -57t-22.5 -56.5t-56.5 -21.5t-56.5 21.5z
M440.5 777.5q-22.5 21.5 -22.5 56.5t22.5 57t56.5 22t56.5 -22t22.5 -57t-22.5 -56.5t-56.5 -21.5t-56.5 21.5z" />
    <glyph glyph-name="uni1EE4.ss01" horiz-adv-x="791" 
d="M721 700v-700h-192v80q-34 -46 -86 -70t-117 -24q-124 0 -193 79.5t-69 226.5v408h198v-402q0 -74 33.5 -111t91.5 -37q61 0 98.5 40t37.5 118v392h198zM334.5 -197q-22.5 21 -22.5 56t22.5 57t56.5 22t56.5 -22t22.5 -57t-22.5 -56t-56.5 -21t-56.5 21z" />
    <glyph glyph-name="Ugrave.ss01" horiz-adv-x="791" 
d="M721 700v-700h-192v80q-34 -46 -86 -70t-117 -24q-124 0 -193 79.5t-69 226.5v408h198v-402q0 -74 33.5 -111t91.5 -37q61 0 98.5 40t37.5 118v392h198zM165 909h190l134 -152h-136z" />
    <glyph glyph-name="uni1EE6.ss01" horiz-adv-x="791" 
d="M721 700v-700h-192v80q-34 -46 -86 -70t-117 -24q-124 0 -193 79.5t-69 226.5v408h198v-402q0 -74 33.5 -111t91.5 -37q61 0 98.5 40t37.5 118v392h198zM369 805q27 13 38 27t11 31q0 19 -12.5 29.5t-32.5 10.5q-29 0 -58 -20l-39 74q23 18 54 27.5t64 9.5q58 0 94.5 -32
t36.5 -83q0 -88 -98 -132z" />
    <glyph glyph-name="Uhorn.ss01" horiz-adv-x="791" 
d="M721 700v-700h-192v80q-34 -46 -86 -70t-117 -24q-124 0 -193 79.5t-69 226.5v408h198v-402q0 -74 33.5 -111t91.5 -37q61 0 98.5 40t37.5 118v392h198zM608 700h34q24 0 40.5 18t16.5 45q0 16 -5.5 31.5t-14.5 26.5l110 39q35 -43 35 -105q0 -83 -50 -129t-139 -46h-27
v120z" />
    <glyph glyph-name="uni1EE8.ss01" horiz-adv-x="791" 
d="M721 700v-700h-192v80q-34 -46 -86 -70t-117 -24q-124 0 -193 79.5t-69 226.5v408h198v-402q0 -74 33.5 -111t91.5 -37q61 0 98.5 40t37.5 118v392h198zM608 700h34q24 0 40.5 18t16.5 45q0 16 -5.5 31.5t-14.5 26.5l110 39q35 -43 35 -105q0 -83 -50 -129t-139 -46h-27
v120zM427 909h190l-188 -152h-136z" />
    <glyph glyph-name="uni1EF0.ss01" horiz-adv-x="791" 
d="M721 700v-700h-192v80q-34 -46 -86 -70t-117 -24q-124 0 -193 79.5t-69 226.5v408h198v-402q0 -74 33.5 -111t91.5 -37q61 0 98.5 40t37.5 118v392h198zM608 700h34q24 0 40.5 18t16.5 45q0 16 -5.5 31.5t-14.5 26.5l110 39q35 -43 35 -105q0 -83 -50 -129t-139 -46h-27
v120zM334.5 -197q-22.5 21 -22.5 56t22.5 57t56.5 22t56.5 -22t22.5 -57t-22.5 -56t-56.5 -21t-56.5 21z" />
    <glyph glyph-name="uni1EEA.ss01" horiz-adv-x="791" 
d="M721 700v-700h-192v80q-34 -46 -86 -70t-117 -24q-124 0 -193 79.5t-69 226.5v408h198v-402q0 -74 33.5 -111t91.5 -37q61 0 98.5 40t37.5 118v392h198zM608 700h34q24 0 40.5 18t16.5 45q0 16 -5.5 31.5t-14.5 26.5l110 39q35 -43 35 -105q0 -83 -50 -129t-139 -46h-27
v120zM165 909h190l134 -152h-136z" />
    <glyph glyph-name="uni1EEC.ss01" horiz-adv-x="791" 
d="M721 700v-700h-192v80q-34 -46 -86 -70t-117 -24q-124 0 -193 79.5t-69 226.5v408h198v-402q0 -74 33.5 -111t91.5 -37q61 0 98.5 40t37.5 118v392h198zM608 700h34q24 0 40.5 18t16.5 45q0 16 -5.5 31.5t-14.5 26.5l110 39q35 -43 35 -105q0 -83 -50 -129t-139 -46h-27
v120zM369 805q27 13 38 27t11 31q0 19 -12.5 29.5t-32.5 10.5q-29 0 -58 -20l-39 74q23 18 54 27.5t64 9.5q58 0 94.5 -32t36.5 -83q0 -88 -98 -132z" />
    <glyph glyph-name="uni1EEE.ss01" horiz-adv-x="791" 
d="M721 700v-700h-192v80q-34 -46 -86 -70t-117 -24q-124 0 -193 79.5t-69 226.5v408h198v-402q0 -74 33.5 -111t91.5 -37q61 0 98.5 40t37.5 118v392h198zM608 700h34q24 0 40.5 18t16.5 45q0 16 -5.5 31.5t-14.5 26.5l110 39q35 -43 35 -105q0 -83 -50 -129t-139 -46h-27
v120zM420.5 760.5q-21.5 10.5 -47.5 28.5q-19 13 -28.5 18t-19.5 5q-20 0 -32 -14t-14 -39h-93q2 73 36 116t91 43q27 0 48 -10t48 -28q19 -13 28.5 -18t19.5 -5q20 0 32 13.5t14 36.5h93q-2 -71 -36 -114t-91 -43q-27 0 -48.5 10.5z" />
    <glyph glyph-name="Uhungarumlaut.ss01" horiz-adv-x="791" 
d="M721 700v-700h-192v80q-34 -46 -86 -70t-117 -24q-124 0 -193 79.5t-69 226.5v408h198v-402q0 -74 33.5 -111t91.5 -37q61 0 98.5 40t37.5 118v392h198zM279 909h170l-101 -152h-132zM496 909h170l-100 -152h-132z" />
    <glyph glyph-name="uni0216.ss01" horiz-adv-x="791" 
d="M721 700v-700h-192v80q-34 -46 -86 -70t-117 -24q-124 0 -193 79.5t-69 226.5v408h198v-402q0 -74 33.5 -111t91.5 -37q61 0 98.5 40t37.5 118v392h198zM252 874.5q54 43.5 139 43.5t139 -43.5t57 -117.5h-116q-1 30 -24 48t-56 18t-56 -18t-24 -48h-116q3 74 57 117.5z
" />
    <glyph glyph-name="Umacron.ss01" horiz-adv-x="791" 
d="M721 700v-700h-192v80q-34 -46 -86 -70t-117 -24q-124 0 -193 79.5t-69 226.5v408h198v-402q0 -74 33.5 -111t91.5 -37q61 0 98.5 40t37.5 118v392h198zM194 884h394v-102h-394v102z" />
    <glyph glyph-name="uni1E7A.ss01" horiz-adv-x="791" 
d="M721 700v-700h-192v80q-34 -46 -86 -70t-117 -24q-124 0 -193 79.5t-69 226.5v408h198v-402q0 -74 33.5 -111t91.5 -37q61 0 98.5 40t37.5 118v392h198zM194 867h394v-98h-394v98zM235.5 948.5q-21.5 20.5 -21.5 53.5t21.5 54t53.5 21q33 0 54.5 -21t21.5 -54
t-21.5 -53.5t-54.5 -20.5q-32 0 -53.5 20.5zM439.5 948.5q-21.5 20.5 -21.5 53.5t21.5 54t53.5 21t53.5 -21t21.5 -54t-21.5 -53.5t-53.5 -20.5t-53.5 20.5z" />
    <glyph glyph-name="Uogonek.ss01" horiz-adv-x="791" 
d="M721 700v-700h-192v80q-34 -46 -86 -70t-117 -24q-124 0 -193 79.5t-69 226.5v408h198v-402q0 -74 33.5 -111t91.5 -37q61 0 98.5 40t37.5 118v392h198zM530 -204q-39 32 -39 85q0 52 40.5 94.5t119.5 69.5l70 -45q-63 -28 -89 -52t-26 -50q0 -20 14.5 -32t40.5 -12
q32 0 60 15l25 -82q-19 -10 -48.5 -16.5t-58.5 -6.5q-70 0 -109 32z" />
    <glyph glyph-name="Uring.ss01" horiz-adv-x="791" 
d="M721 700v-700h-192v80q-34 -46 -86 -70t-117 -24q-124 0 -193 79.5t-69 226.5v408h198v-402q0 -74 33.5 -111t91.5 -37q61 0 98.5 40t37.5 118v392h198zM297 786q-38 37 -38 90q0 54 38 91t94 37q36 0 66.5 -17t48 -46.5t17.5 -64.5q0 -53 -38.5 -90t-93.5 -37
q-56 0 -94 37zM431.5 835q16.5 16 16.5 41t-16.5 41.5t-40.5 16.5t-40.5 -16.5t-16.5 -41.5t16.5 -41t40.5 -16t40.5 16z" />
    <glyph glyph-name="Utilde.ss01" horiz-adv-x="791" 
d="M721 700v-700h-192v80q-34 -46 -86 -70t-117 -24q-124 0 -193 79.5t-69 226.5v408h198v-402q0 -74 33.5 -111t91.5 -37q61 0 98.5 40t37.5 118v392h198zM420.5 760.5q-21.5 10.5 -47.5 28.5q-19 13 -28.5 18t-19.5 5q-20 0 -32 -14t-14 -39h-93q2 73 36 116t91 43
q27 0 48 -10t48 -28q19 -13 28.5 -18t19.5 -5q20 0 32 13.5t14 36.5h93q-2 -71 -36 -114t-91 -43q-27 0 -48.5 10.5z" />
    <glyph glyph-name="uni1E78.ss01" horiz-adv-x="791" 
d="M721 700v-700h-192v80q-34 -46 -86 -70t-117 -24q-124 0 -193 79.5t-69 226.5v408h198v-402q0 -74 33.5 -111t91.5 -37q61 0 98.5 40t37.5 118v392h198zM415.5 760q-21.5 9 -46.5 24q-11 7 -22 12.5t-19 5.5q-19 0 -30 -11.5t-13 -31.5h-95q1 65 34.5 100.5t92.5 35.5
q27 0 48.5 -9t46.5 -24q16 -9 25.5 -13.5t18.5 -4.5q19 0 30.5 12t13.5 31h92q-1 -64 -34 -100t-92 -36q-29 0 -50.5 9zM402 1054h186l-161 -125h-131z" />
    <glyph glyph-name="W.ss01" horiz-adv-x="1212" 
d="M1147 700v-409q0 -148 -84.5 -226.5t-238.5 -78.5q-69 0 -124.5 19t-93.5 54q-38 -35 -93.5 -54t-125.5 -19q-153 0 -238 79t-85 226v409h198v-403q0 -75 30.5 -111t91.5 -36t91.5 36t30.5 111v403h198v-403q0 -75 31 -111t93 -36q61 0 91 36t30 111v403h198z" />
    <glyph glyph-name="Wacute.ss01" horiz-adv-x="1212" 
d="M1147 700v-409q0 -148 -84.5 -226.5t-238.5 -78.5q-69 0 -124.5 19t-93.5 54q-38 -35 -93.5 -54t-125.5 -19q-153 0 -238 79t-85 226v409h198v-403q0 -75 30.5 -111t91.5 -36t91.5 36t30.5 111v403h198v-403q0 -75 31 -111t93 -36q61 0 91 36t30 111v403h198zM641 909
h190l-188 -152h-136z" />
    <glyph glyph-name="Wcircumflex.ss01" horiz-adv-x="1212" 
d="M1147 700v-409q0 -148 -84.5 -226.5t-238.5 -78.5q-69 0 -124.5 19t-93.5 54q-38 -35 -93.5 -54t-125.5 -19q-153 0 -238 79t-85 226v409h198v-403q0 -75 30.5 -111t91.5 -36t91.5 36t30.5 111v403h198v-403q0 -75 31 -111t93 -36q61 0 91 36t30 111v403h198zM691 757
l-86 76l-86 -76h-126l130 152h164l130 -152h-126z" />
    <glyph glyph-name="Wdieresis.ss01" horiz-adv-x="1212" 
d="M1147 700v-409q0 -148 -84.5 -226.5t-238.5 -78.5q-69 0 -124.5 19t-93.5 54q-38 -35 -93.5 -54t-125.5 -19q-153 0 -238 79t-85 226v409h198v-403q0 -75 30.5 -111t91.5 -36t91.5 36t30.5 111v403h198v-403q0 -75 31 -111t93 -36q61 0 91 36t30 111v403h198z
M442.5 777.5q-22.5 21.5 -22.5 56.5t22.5 57t56.5 22t56.5 -22t22.5 -57t-22.5 -56.5t-56.5 -21.5t-56.5 21.5zM654.5 777.5q-22.5 21.5 -22.5 56.5t22.5 57t56.5 22t56.5 -22t22.5 -57t-22.5 -56.5t-56.5 -21.5t-56.5 21.5z" />
    <glyph glyph-name="Wgrave.ss01" horiz-adv-x="1212" 
d="M1147 700v-409q0 -148 -84.5 -226.5t-238.5 -78.5q-69 0 -124.5 19t-93.5 54q-38 -35 -93.5 -54t-125.5 -19q-153 0 -238 79t-85 226v409h198v-403q0 -75 30.5 -111t91.5 -36t91.5 36t30.5 111v403h198v-403q0 -75 31 -111t93 -36q61 0 91 36t30 111v403h198zM379 909
h190l134 -152h-136z" />
    <glyph glyph-name="Y.ss01" horiz-adv-x="784" 
d="M720 700v-475q0 -106 -42 -181.5t-119.5 -114t-183.5 -38.5q-93 0 -168.5 23.5t-129.5 66.5l74 143q48 -35 103 -53t113 -18q80 0 117.5 39t37.5 122v32q-67 -81 -189 -81q-132 0 -203 75.5t-71 216.5v243h198v-230q0 -71 32.5 -106.5t94.5 -35.5q63 0 100.5 37t37.5 115
v220h198z" />
    <glyph glyph-name="Yacute.ss01" horiz-adv-x="784" 
d="M720 700v-475q0 -106 -42 -181.5t-119.5 -114t-183.5 -38.5q-93 0 -168.5 23.5t-129.5 66.5l74 143q48 -35 103 -53t113 -18q80 0 117.5 39t37.5 122v32q-67 -81 -189 -81q-132 0 -203 75.5t-71 216.5v243h198v-230q0 -71 32.5 -106.5t94.5 -35.5q63 0 100.5 37t37.5 115
v220h198zM426 909h190l-188 -152h-136z" />
    <glyph glyph-name="Ycircumflex.ss01" horiz-adv-x="784" 
d="M720 700v-475q0 -106 -42 -181.5t-119.5 -114t-183.5 -38.5q-93 0 -168.5 23.5t-129.5 66.5l74 143q48 -35 103 -53t113 -18q80 0 117.5 39t37.5 122v32q-67 -81 -189 -81q-132 0 -203 75.5t-71 216.5v243h198v-230q0 -71 32.5 -106.5t94.5 -35.5q63 0 100.5 37t37.5 115
v220h198zM476 757l-86 76l-86 -76h-126l130 152h164l130 -152h-126z" />
    <glyph glyph-name="Ydieresis.ss01" horiz-adv-x="784" 
d="M720 700v-475q0 -106 -42 -181.5t-119.5 -114t-183.5 -38.5q-93 0 -168.5 23.5t-129.5 66.5l74 143q48 -35 103 -53t113 -18q80 0 117.5 39t37.5 122v32q-67 -81 -189 -81q-132 0 -203 75.5t-71 216.5v243h198v-230q0 -71 32.5 -106.5t94.5 -35.5q63 0 100.5 37t37.5 115
v220h198zM227.5 777.5q-22.5 21.5 -22.5 56.5t22.5 57t56.5 22t56.5 -22t22.5 -57t-22.5 -56.5t-56.5 -21.5t-56.5 21.5zM439.5 777.5q-22.5 21.5 -22.5 56.5t22.5 57t56.5 22t56.5 -22t22.5 -57t-22.5 -56.5t-56.5 -21.5t-56.5 21.5z" />
    <glyph glyph-name="uni1E8E.ss01" horiz-adv-x="784" 
d="M720 700v-475q0 -106 -42 -181.5t-119.5 -114t-183.5 -38.5q-93 0 -168.5 23.5t-129.5 66.5l74 143q48 -35 103 -53t113 -18q80 0 117.5 39t37.5 122v32q-67 -81 -189 -81q-132 0 -203 75.5t-71 216.5v243h198v-230q0 -71 32.5 -106.5t94.5 -35.5q63 0 100.5 37t37.5 115
v220h198zM318.5 783q-27.5 28 -27.5 71t28 70.5t71 27.5t71 -27.5t28 -70.5t-28 -71t-71 -28q-44 0 -71.5 28z" />
    <glyph glyph-name="uni1EF4.ss01" horiz-adv-x="784" 
d="M720 700v-475q0 -106 -42 -181.5t-119.5 -114t-183.5 -38.5q-93 0 -168.5 23.5t-129.5 66.5l74 143q48 -35 103 -53t113 -18q80 0 117.5 39t37.5 122v32q-67 -81 -189 -81q-132 0 -203 75.5t-71 216.5v243h198v-230q0 -71 32.5 -106.5t94.5 -35.5q63 0 100.5 37t37.5 115
v220h198zM619.5 -197q-22.5 21 -22.5 56t22.5 57t56.5 22t56.5 -22t22.5 -57t-22.5 -56t-56.5 -21t-56.5 21z" />
    <glyph glyph-name="Ygrave.ss01" horiz-adv-x="784" 
d="M720 700v-475q0 -106 -42 -181.5t-119.5 -114t-183.5 -38.5q-93 0 -168.5 23.5t-129.5 66.5l74 143q48 -35 103 -53t113 -18q80 0 117.5 39t37.5 122v32q-67 -81 -189 -81q-132 0 -203 75.5t-71 216.5v243h198v-230q0 -71 32.5 -106.5t94.5 -35.5q63 0 100.5 37t37.5 115
v220h198zM164 909h190l134 -152h-136z" />
    <glyph glyph-name="uni1EF6.ss01" horiz-adv-x="784" 
d="M720 700v-475q0 -106 -42 -181.5t-119.5 -114t-183.5 -38.5q-93 0 -168.5 23.5t-129.5 66.5l74 143q48 -35 103 -53t113 -18q80 0 117.5 39t37.5 122v32q-67 -81 -189 -81q-132 0 -203 75.5t-71 216.5v243h198v-230q0 -71 32.5 -106.5t94.5 -35.5q63 0 100.5 37t37.5 115
v220h198zM368 805q27 13 38 27t11 31q0 19 -12.5 29.5t-32.5 10.5q-29 0 -58 -20l-39 74q23 18 54 27.5t64 9.5q58 0 94.5 -32t36.5 -83q0 -88 -98 -132z" />
    <glyph glyph-name="uni0232.ss01" horiz-adv-x="784" 
d="M720 700v-475q0 -106 -42 -181.5t-119.5 -114t-183.5 -38.5q-93 0 -168.5 23.5t-129.5 66.5l74 143q48 -35 103 -53t113 -18q80 0 117.5 39t37.5 122v32q-67 -81 -189 -81q-132 0 -203 75.5t-71 216.5v243h198v-230q0 -71 32.5 -106.5t94.5 -35.5q63 0 100.5 37t37.5 115
v220h198zM193 884h394v-102h-394v102z" />
    <glyph glyph-name="uni1EF8.ss01" horiz-adv-x="784" 
d="M720 700v-475q0 -106 -42 -181.5t-119.5 -114t-183.5 -38.5q-93 0 -168.5 23.5t-129.5 66.5l74 143q48 -35 103 -53t113 -18q80 0 117.5 39t37.5 122v32q-67 -81 -189 -81q-132 0 -203 75.5t-71 216.5v243h198v-230q0 -71 32.5 -106.5t94.5 -35.5q63 0 100.5 37t37.5 115
v220h198zM419.5 760.5q-21.5 10.5 -47.5 28.5q-19 13 -28.5 18t-19.5 5q-20 0 -32 -14t-14 -39h-93q2 73 36 116t91 43q27 0 48 -10t48 -28q19 -13 28.5 -18t19.5 -5q20 0 32 13.5t14 36.5h93q-2 -71 -36 -114t-91 -43q-27 0 -48.5 10.5z" />
    <glyph glyph-name="Z.ss01" horiz-adv-x="689" 
d="M667 153v-153h-627v112l147 175h-94v140h212l100 120h-356v154h603v-112l-139 -166h87v-139h-204l-110 -131h381z" />
    <glyph glyph-name="Zacute.ss01" horiz-adv-x="689" 
d="M667 153v-153h-627v112l147 175h-94v140h212l100 120h-356v154h603v-112l-139 -166h87v-139h-204l-110 -131h381zM389 909h190l-188 -152h-136z" />
    <glyph glyph-name="Zcaron.ss01" horiz-adv-x="689" 
d="M667 153v-153h-627v112l147 175h-94v140h212l100 120h-356v154h603v-112l-139 -166h87v-139h-204l-110 -131h381zM565 909l-130 -152h-164l-130 152h126l86 -76l86 76h126z" />
    <glyph glyph-name="Zdotaccent.ss01" horiz-adv-x="689" 
d="M667 153v-153h-627v112l147 175h-94v140h212l100 120h-356v154h603v-112l-139 -166h87v-139h-204l-110 -131h381zM281.5 783q-27.5 28 -27.5 71t28 70.5t71 27.5t71 -27.5t28 -70.5t-28 -71t-71 -28q-44 0 -71.5 28z" />
    <glyph glyph-name="uni1E92.ss01" horiz-adv-x="689" 
d="M667 153v-153h-627v112l147 175h-94v140h212l100 120h-356v154h603v-112l-139 -166h87v-139h-204l-110 -131h381zM298.5 -197q-22.5 21 -22.5 56t22.5 57t56.5 22t56.5 -22t22.5 -57t-22.5 -56t-56.5 -21t-56.5 21z" />
    <glyph glyph-name="a" unicode="a" horiz-adv-x="628" 
d="M498 489.5q71 -61.5 71 -188.5v-301h-177v70q-41 -79 -160 -79q-63 0 -109 22t-69.5 59.5t-23.5 85.5q0 77 59 119.5t182 42.5h108q-5 86 -115 86q-39 0 -79 -12.5t-68 -34.5l-64 129q45 30 109.5 46.5t129.5 16.5q135 0 206 -61.5zM343 127q25 16 36 47v47h-82
q-83 0 -83 -55q0 -25 19 -40t52 -15t58 16z" />
    <glyph glyph-name="aacute" unicode="&#xe1;" horiz-adv-x="628" 
d="M498 489.5q71 -61.5 71 -188.5v-301h-177v70q-41 -79 -160 -79q-63 0 -109 22t-69.5 59.5t-23.5 85.5q0 77 59 119.5t182 42.5h108q-5 86 -115 86q-39 0 -79 -12.5t-68 -34.5l-64 129q45 30 109.5 46.5t129.5 16.5q135 0 206 -61.5zM343 127q25 16 36 47v47h-82
q-83 0 -83 -55q0 -25 19 -40t52 -15t58 16zM349 759h190l-188 -152h-136z" />
    <glyph glyph-name="abreve" unicode="&#x103;" horiz-adv-x="628" 
d="M498 489.5q71 -61.5 71 -188.5v-301h-177v70q-41 -79 -160 -79q-63 0 -109 22t-69.5 59.5t-23.5 85.5q0 77 59 119.5t182 42.5h108q-5 86 -115 86q-39 0 -79 -12.5t-68 -34.5l-64 129q45 30 109.5 46.5t129.5 16.5q135 0 206 -61.5zM343 127q25 16 36 47v47h-82
q-83 0 -83 -55q0 -25 19 -40t52 -15t58 16zM174 641.5q-54 43.5 -57 117.5h116q1 -30 24 -48t56 -18t56 18t24 48h116q-3 -74 -57 -117.5t-139 -43.5t-139 43.5z" />
    <glyph glyph-name="uni1EAF" unicode="&#x1eaf;" horiz-adv-x="628" 
d="M498 489.5q71 -61.5 71 -188.5v-301h-177v70q-41 -79 -160 -79q-63 0 -109 22t-69.5 59.5t-23.5 85.5q0 77 59 119.5t182 42.5h108q-5 86 -115 86q-39 0 -79 -12.5t-68 -34.5l-64 129q45 30 109.5 46.5t129.5 16.5q135 0 206 -61.5zM343 127q25 16 36 47v47h-82
q-83 0 -83 -55q0 -25 19 -40t52 -15t58 16zM175 633.5q-54 35.5 -58 95.5h110q3 -20 26.5 -32.5t59.5 -12.5t59.5 12.5t26.5 32.5h110q-4 -60 -58 -95.5t-138 -35.5t-138 35.5zM324 888h186l-161 -125h-131z" />
    <glyph glyph-name="uni1EB7" unicode="&#x1eb7;" horiz-adv-x="628" 
d="M498 489.5q71 -61.5 71 -188.5v-301h-177v70q-41 -79 -160 -79q-63 0 -109 22t-69.5 59.5t-23.5 85.5q0 77 59 119.5t182 42.5h108q-5 86 -115 86q-39 0 -79 -12.5t-68 -34.5l-64 129q45 30 109.5 46.5t129.5 16.5q135 0 206 -61.5zM343 127q25 16 36 47v47h-82
q-83 0 -83 -55q0 -25 19 -40t52 -15t58 16zM239.5 -197q-22.5 21 -22.5 56t22.5 57t56.5 22t56.5 -22t22.5 -57t-22.5 -56t-56.5 -21t-56.5 21zM174 641.5q-54 43.5 -57 117.5h116q1 -30 24 -48t56 -18t56 18t24 48h116q-3 -74 -57 -117.5t-139 -43.5t-139 43.5z" />
    <glyph glyph-name="uni1EB1" unicode="&#x1eb1;" horiz-adv-x="628" 
d="M498 489.5q71 -61.5 71 -188.5v-301h-177v70q-41 -79 -160 -79q-63 0 -109 22t-69.5 59.5t-23.5 85.5q0 77 59 119.5t182 42.5h108q-5 86 -115 86q-39 0 -79 -12.5t-68 -34.5l-64 129q45 30 109.5 46.5t129.5 16.5q135 0 206 -61.5zM343 127q25 16 36 47v47h-82
q-83 0 -83 -55q0 -25 19 -40t52 -15t58 16zM175 633.5q-54 35.5 -58 95.5h110q3 -20 26.5 -32.5t59.5 -12.5t59.5 12.5t26.5 32.5h110q-4 -60 -58 -95.5t-138 -35.5t-138 35.5zM116 888h186l106 -125h-130z" />
    <glyph glyph-name="uni1EB3" unicode="&#x1eb3;" horiz-adv-x="628" 
d="M498 489.5q71 -61.5 71 -188.5v-301h-177v70q-41 -79 -160 -79q-63 0 -109 22t-69.5 59.5t-23.5 85.5q0 77 59 119.5t182 42.5h108q-5 86 -115 86q-39 0 -79 -12.5t-68 -34.5l-64 129q45 30 109.5 46.5t129.5 16.5q135 0 206 -61.5zM343 127q25 16 36 47v47h-82
q-83 0 -83 -55q0 -25 19 -40t52 -15t58 16zM175 633.5q-54 35.5 -58 95.5h110q3 -20 26.5 -32.5t59.5 -12.5t59.5 12.5t26.5 32.5h110q-4 -60 -58 -95.5t-138 -35.5t-138 35.5zM298 774q36 19 36 40q0 12 -9 19.5t-23 7.5q-21 0 -45 -12l-30 54q38 24 91 24q45 0 72 -22.5
t27 -60.5q0 -31 -21 -54.5t-53 -36.5z" />
    <glyph glyph-name="uni1EB5" unicode="&#x1eb5;" horiz-adv-x="628" 
d="M498 489.5q71 -61.5 71 -188.5v-301h-177v70q-41 -79 -160 -79q-63 0 -109 22t-69.5 59.5t-23.5 85.5q0 77 59 119.5t182 42.5h108q-5 86 -115 86q-39 0 -79 -12.5t-68 -34.5l-64 129q45 30 109.5 46.5t129.5 16.5q135 0 206 -61.5zM343 127q25 16 36 47v47h-82
q-83 0 -83 -55q0 -25 19 -40t52 -15t58 16zM175 633.5q-54 35.5 -58 95.5h110q3 -20 26.5 -32.5t59.5 -12.5t59.5 12.5t26.5 32.5h110q-4 -60 -58 -95.5t-138 -35.5t-138 35.5zM337.5 766q-21.5 9 -46.5 24q-11 7 -22 12.5t-19 5.5q-19 0 -30 -11.5t-13 -31.5h-95
q1 65 34.5 100.5t92.5 35.5q27 0 48.5 -9t46.5 -24q16 -9 25.5 -13.5t18.5 -4.5q19 0 30.5 12t13.5 31h92q-1 -64 -34 -100t-92 -36q-29 0 -50.5 9z" />
    <glyph glyph-name="uni01CE" unicode="&#x1ce;" horiz-adv-x="628" 
d="M498 489.5q71 -61.5 71 -188.5v-301h-177v70q-41 -79 -160 -79q-63 0 -109 22t-69.5 59.5t-23.5 85.5q0 77 59 119.5t182 42.5h108q-5 86 -115 86q-39 0 -79 -12.5t-68 -34.5l-64 129q45 30 109.5 46.5t129.5 16.5q135 0 206 -61.5zM343 127q25 16 36 47v47h-82
q-83 0 -83 -55q0 -25 19 -40t52 -15t58 16zM525 759l-130 -152h-164l-130 152h126l86 -76l86 76h126z" />
    <glyph glyph-name="acircumflex" unicode="&#xe2;" horiz-adv-x="628" 
d="M498 489.5q71 -61.5 71 -188.5v-301h-177v70q-41 -79 -160 -79q-63 0 -109 22t-69.5 59.5t-23.5 85.5q0 77 59 119.5t182 42.5h108q-5 86 -115 86q-39 0 -79 -12.5t-68 -34.5l-64 129q45 30 109.5 46.5t129.5 16.5q135 0 206 -61.5zM343 127q25 16 36 47v47h-82
q-83 0 -83 -55q0 -25 19 -40t52 -15t58 16zM399 607l-86 76l-86 -76h-126l130 152h164l130 -152h-126z" />
    <glyph glyph-name="uni1EA5" unicode="&#x1ea5;" horiz-adv-x="628" 
d="M498 489.5q71 -61.5 71 -188.5v-301h-177v70q-41 -79 -160 -79q-63 0 -109 22t-69.5 59.5t-23.5 85.5q0 77 59 119.5t182 42.5h108q-5 86 -115 86q-39 0 -79 -12.5t-68 -34.5l-64 129q45 30 109.5 46.5t129.5 16.5q135 0 206 -61.5zM343 127q25 16 36 47v47h-82
q-83 0 -83 -55q0 -25 19 -40t52 -15t58 16zM398 607l-85 59l-85 -59h-127l131 122h162l131 -122h-127zM551 832h186l-161 -125h-131z" />
    <glyph glyph-name="uni1EAD" unicode="&#x1ead;" horiz-adv-x="628" 
d="M498 489.5q71 -61.5 71 -188.5v-301h-177v70q-41 -79 -160 -79q-63 0 -109 22t-69.5 59.5t-23.5 85.5q0 77 59 119.5t182 42.5h108q-5 86 -115 86q-39 0 -79 -12.5t-68 -34.5l-64 129q45 30 109.5 46.5t129.5 16.5q135 0 206 -61.5zM343 127q25 16 36 47v47h-82
q-83 0 -83 -55q0 -25 19 -40t52 -15t58 16zM239.5 -197q-22.5 21 -22.5 56t22.5 57t56.5 22t56.5 -22t22.5 -57t-22.5 -56t-56.5 -21t-56.5 21zM399 607l-86 76l-86 -76h-126l130 152h164l130 -152h-126z" />
    <glyph glyph-name="uni1EA7" unicode="&#x1ea7;" horiz-adv-x="628" 
d="M498 489.5q71 -61.5 71 -188.5v-301h-177v70q-41 -79 -160 -79q-63 0 -109 22t-69.5 59.5t-23.5 85.5q0 77 59 119.5t182 42.5h108q-5 86 -115 86q-39 0 -79 -12.5t-68 -34.5l-64 129q45 30 109.5 46.5t129.5 16.5q135 0 206 -61.5zM343 127q25 16 36 47v47h-82
q-83 0 -83 -55q0 -25 19 -40t52 -15t58 16zM398 607l-85 59l-85 -59h-127l131 122h162l131 -122h-127zM343 832h186l106 -125h-130z" />
    <glyph glyph-name="uni1EA9" unicode="&#x1ea9;" horiz-adv-x="628" 
d="M498 489.5q71 -61.5 71 -188.5v-301h-177v70q-41 -79 -160 -79q-63 0 -109 22t-69.5 59.5t-23.5 85.5q0 77 59 119.5t182 42.5h108q-5 86 -115 86q-39 0 -79 -12.5t-68 -34.5l-64 129q45 30 109.5 46.5t129.5 16.5q135 0 206 -61.5zM343 127q25 16 36 47v47h-82
q-83 0 -83 -55q0 -25 19 -40t52 -15t58 16zM398 607l-85 59l-85 -59h-127l131 122h162l131 -122h-127zM464 728q36 19 36 40q0 12 -9 19.5t-23 7.5q-21 0 -45 -12l-30 54q38 24 91 24q45 0 72 -22.5t27 -60.5q0 -31 -21 -54.5t-53 -36.5z" />
    <glyph glyph-name="uni1EAB" unicode="&#x1eab;" horiz-adv-x="628" 
d="M498 489.5q71 -61.5 71 -188.5v-301h-177v70q-41 -79 -160 -79q-63 0 -109 22t-69.5 59.5t-23.5 85.5q0 77 59 119.5t182 42.5h108q-5 86 -115 86q-39 0 -79 -12.5t-68 -34.5l-64 129q45 30 109.5 46.5t129.5 16.5q135 0 206 -61.5zM343 127q25 16 36 47v47h-82
q-83 0 -83 -55q0 -25 19 -40t52 -15t58 16zM398 607l-85 59l-85 -59h-127l131 122h162l131 -122h-127zM337.5 773q-21.5 9 -46.5 24q-11 7 -22 12.5t-19 5.5q-19 0 -30 -11.5t-13 -31.5h-95q1 65 34.5 100.5t92.5 35.5q27 0 48.5 -9t46.5 -24q16 -9 25.5 -13.5t18.5 -4.5
q19 0 30.5 12t13.5 31h92q-1 -64 -34 -100t-92 -36q-29 0 -50.5 9z" />
    <glyph glyph-name="uni0201" unicode="&#x201;" horiz-adv-x="628" 
d="M498 489.5q71 -61.5 71 -188.5v-301h-177v70q-41 -79 -160 -79q-63 0 -109 22t-69.5 59.5t-23.5 85.5q0 77 59 119.5t182 42.5h108q-5 86 -115 86q-39 0 -79 -12.5t-68 -34.5l-64 129q45 30 109.5 46.5t129.5 16.5q135 0 206 -61.5zM343 127q25 16 36 47v47h-82
q-83 0 -83 -55q0 -25 19 -40t52 -15t58 16zM38 759h170l62 -152h-132zM255 759h170l63 -152h-132z" />
    <glyph glyph-name="adieresis" unicode="&#xe4;" horiz-adv-x="628" 
d="M498 489.5q71 -61.5 71 -188.5v-301h-177v70q-41 -79 -160 -79q-63 0 -109 22t-69.5 59.5t-23.5 85.5q0 77 59 119.5t182 42.5h108q-5 86 -115 86q-39 0 -79 -12.5t-68 -34.5l-64 129q45 30 109.5 46.5t129.5 16.5q135 0 206 -61.5zM343 127q25 16 36 47v47h-82
q-83 0 -83 -55q0 -25 19 -40t52 -15t58 16zM150.5 627.5q-22.5 21.5 -22.5 56.5t22.5 57t56.5 22t56.5 -22t22.5 -57t-22.5 -56.5t-56.5 -21.5t-56.5 21.5zM362.5 627.5q-22.5 21.5 -22.5 56.5t22.5 57t56.5 22t56.5 -22t22.5 -57t-22.5 -56.5t-56.5 -21.5t-56.5 21.5z" />
    <glyph glyph-name="uni1EA1" unicode="&#x1ea1;" horiz-adv-x="628" 
d="M498 489.5q71 -61.5 71 -188.5v-301h-177v70q-41 -79 -160 -79q-63 0 -109 22t-69.5 59.5t-23.5 85.5q0 77 59 119.5t182 42.5h108q-5 86 -115 86q-39 0 -79 -12.5t-68 -34.5l-64 129q45 30 109.5 46.5t129.5 16.5q135 0 206 -61.5zM343 127q25 16 36 47v47h-82
q-83 0 -83 -55q0 -25 19 -40t52 -15t58 16zM239.5 -197q-22.5 21 -22.5 56t22.5 57t56.5 22t56.5 -22t22.5 -57t-22.5 -56t-56.5 -21t-56.5 21z" />
    <glyph glyph-name="agrave" unicode="&#xe0;" horiz-adv-x="628" 
d="M498 489.5q71 -61.5 71 -188.5v-301h-177v70q-41 -79 -160 -79q-63 0 -109 22t-69.5 59.5t-23.5 85.5q0 77 59 119.5t182 42.5h108q-5 86 -115 86q-39 0 -79 -12.5t-68 -34.5l-64 129q45 30 109.5 46.5t129.5 16.5q135 0 206 -61.5zM343 127q25 16 36 47v47h-82
q-83 0 -83 -55q0 -25 19 -40t52 -15t58 16zM87 759h190l134 -152h-136z" />
    <glyph glyph-name="uni1EA3" unicode="&#x1ea3;" horiz-adv-x="628" 
d="M498 489.5q71 -61.5 71 -188.5v-301h-177v70q-41 -79 -160 -79q-63 0 -109 22t-69.5 59.5t-23.5 85.5q0 77 59 119.5t182 42.5h108q-5 86 -115 86q-39 0 -79 -12.5t-68 -34.5l-64 129q45 30 109.5 46.5t129.5 16.5q135 0 206 -61.5zM343 127q25 16 36 47v47h-82
q-83 0 -83 -55q0 -25 19 -40t52 -15t58 16zM291 655q27 13 38 27t11 31q0 19 -12.5 29.5t-32.5 10.5q-29 0 -58 -20l-39 74q23 18 54 27.5t64 9.5q58 0 94.5 -32t36.5 -83q0 -88 -98 -132z" />
    <glyph glyph-name="uni0203" unicode="&#x203;" horiz-adv-x="628" 
d="M498 489.5q71 -61.5 71 -188.5v-301h-177v70q-41 -79 -160 -79q-63 0 -109 22t-69.5 59.5t-23.5 85.5q0 77 59 119.5t182 42.5h108q-5 86 -115 86q-39 0 -79 -12.5t-68 -34.5l-64 129q45 30 109.5 46.5t129.5 16.5q135 0 206 -61.5zM343 127q25 16 36 47v47h-82
q-83 0 -83 -55q0 -25 19 -40t52 -15t58 16zM174 724.5q54 43.5 139 43.5t139 -43.5t57 -117.5h-116q-1 30 -24 48t-56 18t-56 -18t-24 -48h-116q3 74 57 117.5z" />
    <glyph glyph-name="amacron" unicode="&#x101;" horiz-adv-x="628" 
d="M498 489.5q71 -61.5 71 -188.5v-301h-177v70q-41 -79 -160 -79q-63 0 -109 22t-69.5 59.5t-23.5 85.5q0 77 59 119.5t182 42.5h108q-5 86 -115 86q-39 0 -79 -12.5t-68 -34.5l-64 129q45 30 109.5 46.5t129.5 16.5q135 0 206 -61.5zM343 127q25 16 36 47v47h-82
q-83 0 -83 -55q0 -25 19 -40t52 -15t58 16zM116 734h394v-102h-394v102z" />
    <glyph glyph-name="aogonek" unicode="&#x105;" horiz-adv-x="628" 
d="M498 489.5q71 -61.5 71 -188.5v-301h-177v70q-41 -79 -160 -79q-63 0 -109 22t-69.5 59.5t-23.5 85.5q0 77 59 119.5t182 42.5h108q-5 86 -115 86q-39 0 -79 -12.5t-68 -34.5l-64 129q45 30 109.5 46.5t129.5 16.5q135 0 206 -61.5zM343 127q25 16 36 47v47h-82
q-83 0 -83 -55q0 -25 19 -40t52 -15t58 16zM378 -204q-39 32 -39 85q0 52 40.5 94.5t119.5 69.5l70 -45q-63 -28 -89 -52t-26 -50q0 -20 14.5 -32t40.5 -12q32 0 60 15l25 -82q-19 -10 -48.5 -16.5t-58.5 -6.5q-70 0 -109 32z" />
    <glyph glyph-name="aring" unicode="&#xe5;" horiz-adv-x="628" 
d="M498 489.5q71 -61.5 71 -188.5v-301h-177v70q-41 -79 -160 -79q-63 0 -109 22t-69.5 59.5t-23.5 85.5q0 77 59 119.5t182 42.5h108q-5 86 -115 86q-39 0 -79 -12.5t-68 -34.5l-64 129q45 30 109.5 46.5t129.5 16.5q135 0 206 -61.5zM343 127q25 16 36 47v47h-82
q-83 0 -83 -55q0 -25 19 -40t52 -15t58 16zM219 628q-38 37 -38 90q0 54 38 91t94 37q36 0 66.5 -17t48 -46.5t17.5 -64.5q0 -53 -38.5 -90t-93.5 -37q-56 0 -94 37zM353.5 677q16.5 16 16.5 41t-16.5 41.5t-40.5 16.5t-40.5 -16.5t-16.5 -41.5t16.5 -41t40.5 -16t40.5 16z
" />
    <glyph glyph-name="aringacute" unicode="&#x1fb;" horiz-adv-x="628" 
d="M498 489.5q71 -61.5 71 -188.5v-301h-177v70q-41 -79 -160 -79q-63 0 -109 22t-69.5 59.5t-23.5 85.5q0 77 59 119.5t182 42.5h108q-5 86 -115 86q-39 0 -79 -12.5t-68 -34.5l-64 129q45 30 109.5 46.5t129.5 16.5q135 0 206 -61.5zM343 127q25 16 36 47v47h-82
q-83 0 -83 -55q0 -25 19 -40t52 -15t58 16zM428 781q17 -29 17 -63q0 -53 -38.5 -90t-93.5 -37q-56 0 -94 37t-38 90q0 54 38 91t94 37q27 0 49 -9l89 93l93 -70zM353.5 677q16.5 16 16.5 41t-16.5 41.5t-40.5 16.5t-40.5 -16.5t-16.5 -41.5t16.5 -41t40.5 -16t40.5 16z" />
    <glyph glyph-name="atilde" unicode="&#xe3;" horiz-adv-x="628" 
d="M498 489.5q71 -61.5 71 -188.5v-301h-177v70q-41 -79 -160 -79q-63 0 -109 22t-69.5 59.5t-23.5 85.5q0 77 59 119.5t182 42.5h108q-5 86 -115 86q-39 0 -79 -12.5t-68 -34.5l-64 129q45 30 109.5 46.5t129.5 16.5q135 0 206 -61.5zM343 127q25 16 36 47v47h-82
q-83 0 -83 -55q0 -25 19 -40t52 -15t58 16zM342.5 610.5q-21.5 10.5 -47.5 28.5q-19 13 -28.5 18t-19.5 5q-20 0 -32 -14t-14 -39h-93q2 73 36 116t91 43q27 0 48 -10t48 -28q19 -13 28.5 -18t19.5 -5q20 0 32 13.5t14 36.5h93q-2 -71 -36 -114t-91 -43q-27 0 -48.5 10.5z
" />
    <glyph glyph-name="ae" unicode="&#xe6;" horiz-adv-x="999" 
d="M969 222h-394q11 -41 45.5 -63.5t85.5 -22.5q36 0 66 11.5t60 35.5l100 -104q-82 -88 -229 -88q-70 0 -130 21.5t-103 66.5q-64 -88 -204 -88q-110 0 -173 47.5t-63 125.5q0 74 59.5 116t181.5 42h108q-3 40 -31.5 62t-82.5 22q-41 0 -80.5 -12.5t-67.5 -34.5l-64 129
q46 30 109 46.5t129 16.5q131 0 198 -68q39 33 89 50.5t106 17.5q78 0 144 -33.5t105 -96.5t39 -147q0 -29 -3 -52zM609.5 391q-30.5 -25 -38.5 -69h219q-7 44 -37 69t-72 25q-41 0 -71.5 -25zM354.5 135q24.5 24 24.5 65v22h-82q-83 0 -83 -54q0 -27 19 -42t54 -15
q43 0 67.5 24z" />
    <glyph glyph-name="aeacute" unicode="&#x1fd;" horiz-adv-x="999" 
d="M969 222h-394q11 -41 45.5 -63.5t85.5 -22.5q36 0 66 11.5t60 35.5l100 -104q-82 -88 -229 -88q-70 0 -130 21.5t-103 66.5q-64 -88 -204 -88q-110 0 -173 47.5t-63 125.5q0 74 59.5 116t181.5 42h108q-3 40 -31.5 62t-82.5 22q-41 0 -80.5 -12.5t-67.5 -34.5l-64 129
q46 30 109 46.5t129 16.5q131 0 198 -68q39 33 89 50.5t106 17.5q78 0 144 -33.5t105 -96.5t39 -147q0 -29 -3 -52zM609.5 391q-30.5 -25 -38.5 -69h219q-7 44 -37 69t-72 25q-41 0 -71.5 -25zM354.5 135q24.5 24 24.5 65v22h-82q-83 0 -83 -54q0 -27 19 -42t54 -15
q43 0 67.5 24zM510 759h190l-188 -152h-136z" />
    <glyph glyph-name="b" unicode="b" horiz-adv-x="695" 
d="M536.5 517q60.5 -34 96 -97.5t35.5 -147.5t-35.5 -148t-96 -98.5t-134.5 -34.5q-107 0 -160 63v-54h-181v742h190v-247q55 56 151 56q74 0 134.5 -34zM444 176.5q32 34.5 32 95.5q0 60 -32 94t-82 34t-82 -34t-32 -94q0 -61 32 -95.5t82 -34.5t82 34.5z" />
    <glyph glyph-name="c" unicode="c" horiz-adv-x="603" 
d="M177 27q-71 36 -110.5 100t-39.5 145t39.5 144.5t110.5 99t161 35.5q92 0 159 -39.5t95 -109.5l-147 -75q-37 73 -108 73q-51 0 -84.5 -34t-33.5 -94q0 -61 33.5 -95.5t84.5 -34.5q71 0 108 73l147 -75q-28 -70 -95 -109.5t-159 -39.5q-90 0 -161 36z" />
    <glyph glyph-name="cacute" unicode="&#x107;" horiz-adv-x="603" 
d="M177 27q-71 36 -110.5 100t-39.5 145t39.5 144.5t110.5 99t161 35.5q92 0 159 -39.5t95 -109.5l-147 -75q-37 73 -108 73q-51 0 -84.5 -34t-33.5 -94q0 -61 33.5 -95.5t84.5 -34.5q71 0 108 73l147 -75q-28 -70 -95 -109.5t-159 -39.5q-90 0 -161 36zM354 759h190
l-188 -152h-136z" />
    <glyph glyph-name="ccaron" unicode="&#x10d;" horiz-adv-x="603" 
d="M177 27q-71 36 -110.5 100t-39.5 145t39.5 144.5t110.5 99t161 35.5q92 0 159 -39.5t95 -109.5l-147 -75q-37 73 -108 73q-51 0 -84.5 -34t-33.5 -94q0 -61 33.5 -95.5t84.5 -34.5q71 0 108 73l147 -75q-28 -70 -95 -109.5t-159 -39.5q-90 0 -161 36zM530 759l-130 -152
h-164l-130 152h126l86 -76l86 76h126z" />
    <glyph glyph-name="ccedilla" unicode="&#xe7;" horiz-adv-x="603" 
d="M177 27q-71 36 -110.5 100t-39.5 145t39.5 144.5t110.5 99t161 35.5q92 0 159 -39.5t95 -109.5l-147 -75q-37 73 -108 73q-51 0 -84.5 -34t-33.5 -94q0 -61 33.5 -95.5t84.5 -34.5q71 0 108 73l147 -75q-28 -70 -95 -109.5t-159 -39.5q-90 0 -161 36zM223.5 -230
q-26.5 6 -43.5 15l26 75q30 -14 62 -14q50 0 50 28q0 25 -45 25h-37l26 110h99l-14 -60q44 -5 65 -27.5t21 -53.5q0 -48 -43 -76t-115 -28q-25 0 -51.5 6z" />
    <glyph glyph-name="uni1E09" unicode="&#x1e09;" horiz-adv-x="603" 
d="M177 27q-71 36 -110.5 100t-39.5 145t39.5 144.5t110.5 99t161 35.5q92 0 159 -39.5t95 -109.5l-147 -75q-37 73 -108 73q-51 0 -84.5 -34t-33.5 -94q0 -61 33.5 -95.5t84.5 -34.5q71 0 108 73l147 -75q-28 -70 -95 -109.5t-159 -39.5q-90 0 -161 36zM223.5 -230
q-26.5 6 -43.5 15l26 75q30 -14 62 -14q50 0 50 28q0 25 -45 25h-37l26 110h99l-14 -60q44 -5 65 -27.5t21 -53.5q0 -48 -43 -76t-115 -28q-25 0 -51.5 6zM354 759h190l-188 -152h-136z" />
    <glyph glyph-name="ccircumflex" unicode="&#x109;" horiz-adv-x="603" 
d="M177 27q-71 36 -110.5 100t-39.5 145t39.5 144.5t110.5 99t161 35.5q92 0 159 -39.5t95 -109.5l-147 -75q-37 73 -108 73q-51 0 -84.5 -34t-33.5 -94q0 -61 33.5 -95.5t84.5 -34.5q71 0 108 73l147 -75q-28 -70 -95 -109.5t-159 -39.5q-90 0 -161 36zM404 607l-86 76
l-86 -76h-126l130 152h164l130 -152h-126z" />
    <glyph glyph-name="cdotaccent" unicode="&#x10b;" horiz-adv-x="603" 
d="M177 27q-71 36 -110.5 100t-39.5 145t39.5 144.5t110.5 99t161 35.5q92 0 159 -39.5t95 -109.5l-147 -75q-37 73 -108 73q-51 0 -84.5 -34t-33.5 -94q0 -61 33.5 -95.5t84.5 -34.5q71 0 108 73l147 -75q-28 -70 -95 -109.5t-159 -39.5q-90 0 -161 36zM246.5 633
q-27.5 28 -27.5 71t28 70.5t71 27.5t71 -27.5t28 -70.5t-28 -71t-71 -28q-44 0 -71.5 28z" />
    <glyph glyph-name="d" unicode="d" horiz-adv-x="698" 
d="M637 742v-742h-181v54q-53 -63 -159 -63q-74 0 -135 34.5t-96.5 98.5t-35.5 148t35.5 147.5t96.5 97.5t135 34q97 0 150 -56v247h190zM418 176.5q32 34.5 32 95.5q0 60 -31.5 94t-81.5 34t-82 -34t-32 -94q0 -61 32 -95.5t82 -34.5q49 0 81 34.5z" />
    <glyph glyph-name="eth" unicode="&#xf0;" horiz-adv-x="666" 
d="M639 340q0 -110 -41 -189.5t-116 -122t-176 -42.5q-78 0 -142 29.5t-100.5 84t-36.5 125.5q0 66 33.5 117t90.5 79t126 28q103 0 163 -57q-3 102 -49 155l-244 -90l-33 85l168 63q-23 4 -54 4q-68 0 -128 -20l-20 142q80 18 158 18q149 0 250 -67l92 34l33 -86l-51 -19
q77 -103 77 -271zM395 152.5q29 25.5 29 64.5q0 40 -29 65.5t-73 25.5q-45 0 -73.5 -24.5t-28.5 -66.5q0 -41 28.5 -65.5t72.5 -24.5q45 0 74 25.5z" />
    <glyph glyph-name="dcaron" unicode="&#x10f;" horiz-adv-x="698" 
d="M637 742v-742h-181v54q-53 -63 -159 -63q-74 0 -135 34.5t-96.5 98.5t-35.5 148t35.5 147.5t96.5 97.5t135 34q97 0 150 -56v247h190zM418 176.5q32 34.5 32 95.5q0 60 -31.5 94t-81.5 34t-82 -34t-32 -94q0 -61 32 -95.5t82 -34.5q49 0 81 34.5zM715 787h137l-25 -205
h-112v205z" />
    <glyph glyph-name="dcroat" unicode="&#x111;" horiz-adv-x="698" 
d="M637 742v-742h-181v54q-53 -63 -159 -63q-74 0 -135 34.5t-96.5 98.5t-35.5 148t35.5 147.5t96.5 97.5t135 34q97 0 150 -56v247h190zM418 176.5q32 34.5 32 95.5q0 60 -31.5 94t-81.5 34t-82 -34t-32 -94q0 -61 32 -95.5t82 -34.5q49 0 81 34.5zM280 688h420v-99h-420
v99z" />
    <glyph glyph-name="uni1E0D" unicode="&#x1e0d;" horiz-adv-x="698" 
d="M637 742v-742h-181v54q-53 -63 -159 -63q-74 0 -135 34.5t-96.5 98.5t-35.5 148t35.5 147.5t96.5 97.5t135 34q97 0 150 -56v247h190zM418 176.5q32 34.5 32 95.5q0 60 -31.5 94t-81.5 34t-82 -34t-32 -94q0 -61 32 -95.5t82 -34.5q49 0 81 34.5zM315.5 -197
q-22.5 21 -22.5 56t22.5 57t56.5 22t56.5 -22t22.5 -57t-22.5 -56t-56.5 -21t-56.5 21z" />
    <glyph glyph-name="uni1E0F" unicode="&#x1e0f;" horiz-adv-x="698" 
d="M637 742v-742h-181v54q-53 -63 -159 -63q-74 0 -135 34.5t-96.5 98.5t-35.5 148t35.5 147.5t96.5 97.5t135 34q97 0 150 -56v247h190zM418 176.5q32 34.5 32 95.5q0 60 -31.5 94t-81.5 34t-82 -34t-32 -94q0 -61 32 -95.5t82 -34.5q49 0 81 34.5zM175 -85h394v-102h-394
v102z" />
    <glyph glyph-name="uni01C6" unicode="&#x1c6;" horiz-adv-x="1245" 
d="M637 742v-742h-181v54q-53 -63 -159 -63q-74 0 -135 34.5t-96.5 98.5t-35.5 148t35.5 147.5t96.5 97.5t135 34q97 0 150 -56v247h190zM418 176.5q32 34.5 32 95.5q0 60 -31.5 94t-81.5 34t-82 -34t-32 -94q0 -61 32 -95.5t82 -34.5q49 0 81 34.5zM1220 142v-142h-500v112
l251 289h-244v141h483v-111l-251 -289h261zM1181 759l-130 -152h-164l-130 152h126l86 -76l86 76h126z" />
    <glyph glyph-name="e" unicode="e" horiz-adv-x="642" 
d="M612 223h-394q12 -42 46.5 -64.5t86.5 -22.5q39 0 67.5 11t57.5 36l100 -104q-79 -88 -231 -88q-95 0 -167 36t-111.5 100t-39.5 145q0 80 38.5 143.5t106.5 99.5t153 36q81 0 147 -33.5t104.5 -97t38.5 -150.5q0 -2 -3 -47zM252.5 391q-29.5 -25 -37.5 -68h222
q-8 43 -37.5 68t-73.5 25t-73.5 -25z" />
    <glyph glyph-name="eacute" unicode="&#xe9;" horiz-adv-x="642" 
d="M612 223h-394q12 -42 46.5 -64.5t86.5 -22.5q39 0 67.5 11t57.5 36l100 -104q-79 -88 -231 -88q-95 0 -167 36t-111.5 100t-39.5 145q0 80 38.5 143.5t106.5 99.5t153 36q81 0 147 -33.5t104.5 -97t38.5 -150.5q0 -2 -3 -47zM252.5 391q-29.5 -25 -37.5 -68h222
q-8 43 -37.5 68t-73.5 25t-73.5 -25zM357 759h190l-188 -152h-136z" />
    <glyph glyph-name="ebreve" unicode="&#x115;" horiz-adv-x="642" 
d="M612 223h-394q12 -42 46.5 -64.5t86.5 -22.5q39 0 67.5 11t57.5 36l100 -104q-79 -88 -231 -88q-95 0 -167 36t-111.5 100t-39.5 145q0 80 38.5 143.5t106.5 99.5t153 36q81 0 147 -33.5t104.5 -97t38.5 -150.5q0 -2 -3 -47zM252.5 391q-29.5 -25 -37.5 -68h222
q-8 43 -37.5 68t-73.5 25t-73.5 -25zM182 641.5q-54 43.5 -57 117.5h116q1 -30 24 -48t56 -18t56 18t24 48h116q-3 -74 -57 -117.5t-139 -43.5t-139 43.5z" />
    <glyph glyph-name="ecaron" unicode="&#x11b;" horiz-adv-x="642" 
d="M612 223h-394q12 -42 46.5 -64.5t86.5 -22.5q39 0 67.5 11t57.5 36l100 -104q-79 -88 -231 -88q-95 0 -167 36t-111.5 100t-39.5 145q0 80 38.5 143.5t106.5 99.5t153 36q81 0 147 -33.5t104.5 -97t38.5 -150.5q0 -2 -3 -47zM252.5 391q-29.5 -25 -37.5 -68h222
q-8 43 -37.5 68t-73.5 25t-73.5 -25zM533 759l-130 -152h-164l-130 152h126l86 -76l86 76h126z" />
    <glyph glyph-name="uni1E1D" unicode="&#x1e1d;" horiz-adv-x="642" 
d="M612 223h-394q12 -42 46.5 -64.5t86.5 -22.5q39 0 67.5 11t57.5 36l100 -104q-79 -88 -231 -88q-95 0 -167 36t-111.5 100t-39.5 145q0 80 38.5 143.5t106.5 99.5t153 36q81 0 147 -33.5t104.5 -97t38.5 -150.5q0 -2 -3 -47zM252.5 391q-29.5 -25 -37.5 -68h222
q-8 43 -37.5 68t-73.5 25t-73.5 -25zM232.5 -230q-26.5 6 -43.5 15l26 75q30 -14 62 -14q50 0 50 28q0 25 -45 25h-37l26 110h99l-14 -60q44 -5 65 -27.5t21 -53.5q0 -48 -43 -76t-115 -28q-25 0 -51.5 6zM182 641.5q-54 43.5 -57 117.5h116q1 -30 24 -48t56 -18t56 18
t24 48h116q-3 -74 -57 -117.5t-139 -43.5t-139 43.5z" />
    <glyph glyph-name="ecircumflex" unicode="&#xea;" horiz-adv-x="642" 
d="M612 223h-394q12 -42 46.5 -64.5t86.5 -22.5q39 0 67.5 11t57.5 36l100 -104q-79 -88 -231 -88q-95 0 -167 36t-111.5 100t-39.5 145q0 80 38.5 143.5t106.5 99.5t153 36q81 0 147 -33.5t104.5 -97t38.5 -150.5q0 -2 -3 -47zM252.5 391q-29.5 -25 -37.5 -68h222
q-8 43 -37.5 68t-73.5 25t-73.5 -25zM407 607l-86 76l-86 -76h-126l130 152h164l130 -152h-126z" />
    <glyph glyph-name="uni1EBF" unicode="&#x1ebf;" horiz-adv-x="642" 
d="M612 223h-394q12 -42 46.5 -64.5t86.5 -22.5q39 0 67.5 11t57.5 36l100 -104q-79 -88 -231 -88q-95 0 -167 36t-111.5 100t-39.5 145q0 80 38.5 143.5t106.5 99.5t153 36q81 0 147 -33.5t104.5 -97t38.5 -150.5q0 -2 -3 -47zM252.5 391q-29.5 -25 -37.5 -68h222
q-8 43 -37.5 68t-73.5 25t-73.5 -25zM406 607l-85 59l-85 -59h-127l131 122h162l131 -122h-127zM559 832h186l-161 -125h-131z" />
    <glyph glyph-name="uni1EC7" unicode="&#x1ec7;" horiz-adv-x="642" 
d="M612 223h-394q12 -42 46.5 -64.5t86.5 -22.5q39 0 67.5 11t57.5 36l100 -104q-79 -88 -231 -88q-95 0 -167 36t-111.5 100t-39.5 145q0 80 38.5 143.5t106.5 99.5t153 36q81 0 147 -33.5t104.5 -97t38.5 -150.5q0 -2 -3 -47zM252.5 391q-29.5 -25 -37.5 -68h222
q-8 43 -37.5 68t-73.5 25t-73.5 -25zM264.5 -197q-22.5 21 -22.5 56t22.5 57t56.5 22t56.5 -22t22.5 -57t-22.5 -56t-56.5 -21t-56.5 21zM407 607l-86 76l-86 -76h-126l130 152h164l130 -152h-126z" />
    <glyph glyph-name="uni1EC1" unicode="&#x1ec1;" horiz-adv-x="642" 
d="M612 223h-394q12 -42 46.5 -64.5t86.5 -22.5q39 0 67.5 11t57.5 36l100 -104q-79 -88 -231 -88q-95 0 -167 36t-111.5 100t-39.5 145q0 80 38.5 143.5t106.5 99.5t153 36q81 0 147 -33.5t104.5 -97t38.5 -150.5q0 -2 -3 -47zM252.5 391q-29.5 -25 -37.5 -68h222
q-8 43 -37.5 68t-73.5 25t-73.5 -25zM406 607l-85 59l-85 -59h-127l131 122h162l131 -122h-127zM351 832h186l106 -125h-130z" />
    <glyph glyph-name="uni1EC3" unicode="&#x1ec3;" horiz-adv-x="642" 
d="M612 223h-394q12 -42 46.5 -64.5t86.5 -22.5q39 0 67.5 11t57.5 36l100 -104q-79 -88 -231 -88q-95 0 -167 36t-111.5 100t-39.5 145q0 80 38.5 143.5t106.5 99.5t153 36q81 0 147 -33.5t104.5 -97t38.5 -150.5q0 -2 -3 -47zM252.5 391q-29.5 -25 -37.5 -68h222
q-8 43 -37.5 68t-73.5 25t-73.5 -25zM406 607l-85 59l-85 -59h-127l131 122h162l131 -122h-127zM472 728q36 19 36 40q0 12 -9 19.5t-23 7.5q-21 0 -45 -12l-30 54q38 24 91 24q45 0 72 -22.5t27 -60.5q0 -31 -21 -54.5t-53 -36.5z" />
    <glyph glyph-name="uni1EC5" unicode="&#x1ec5;" horiz-adv-x="642" 
d="M612 223h-394q12 -42 46.5 -64.5t86.5 -22.5q39 0 67.5 11t57.5 36l100 -104q-79 -88 -231 -88q-95 0 -167 36t-111.5 100t-39.5 145q0 80 38.5 143.5t106.5 99.5t153 36q81 0 147 -33.5t104.5 -97t38.5 -150.5q0 -2 -3 -47zM252.5 391q-29.5 -25 -37.5 -68h222
q-8 43 -37.5 68t-73.5 25t-73.5 -25zM406 607l-85 59l-85 -59h-127l131 122h162l131 -122h-127zM345.5 773q-21.5 9 -46.5 24q-11 7 -22 12.5t-19 5.5q-19 0 -30 -11.5t-13 -31.5h-95q1 65 34.5 100.5t92.5 35.5q27 0 48.5 -9t46.5 -24q16 -9 25.5 -13.5t18.5 -4.5
q19 0 30.5 12t13.5 31h92q-1 -64 -34 -100t-92 -36q-29 0 -50.5 9z" />
    <glyph glyph-name="uni0205" unicode="&#x205;" horiz-adv-x="642" 
d="M612 223h-394q12 -42 46.5 -64.5t86.5 -22.5q39 0 67.5 11t57.5 36l100 -104q-79 -88 -231 -88q-95 0 -167 36t-111.5 100t-39.5 145q0 80 38.5 143.5t106.5 99.5t153 36q81 0 147 -33.5t104.5 -97t38.5 -150.5q0 -2 -3 -47zM252.5 391q-29.5 -25 -37.5 -68h222
q-8 43 -37.5 68t-73.5 25t-73.5 -25zM46 759h170l62 -152h-132zM263 759h170l63 -152h-132z" />
    <glyph glyph-name="edieresis" unicode="&#xeb;" horiz-adv-x="642" 
d="M612 223h-394q12 -42 46.5 -64.5t86.5 -22.5q39 0 67.5 11t57.5 36l100 -104q-79 -88 -231 -88q-95 0 -167 36t-111.5 100t-39.5 145q0 80 38.5 143.5t106.5 99.5t153 36q81 0 147 -33.5t104.5 -97t38.5 -150.5q0 -2 -3 -47zM252.5 391q-29.5 -25 -37.5 -68h222
q-8 43 -37.5 68t-73.5 25t-73.5 -25zM158.5 627.5q-22.5 21.5 -22.5 56.5t22.5 57t56.5 22t56.5 -22t22.5 -57t-22.5 -56.5t-56.5 -21.5t-56.5 21.5zM370.5 627.5q-22.5 21.5 -22.5 56.5t22.5 57t56.5 22t56.5 -22t22.5 -57t-22.5 -56.5t-56.5 -21.5t-56.5 21.5z" />
    <glyph glyph-name="edotaccent" unicode="&#x117;" horiz-adv-x="642" 
d="M612 223h-394q12 -42 46.5 -64.5t86.5 -22.5q39 0 67.5 11t57.5 36l100 -104q-79 -88 -231 -88q-95 0 -167 36t-111.5 100t-39.5 145q0 80 38.5 143.5t106.5 99.5t153 36q81 0 147 -33.5t104.5 -97t38.5 -150.5q0 -2 -3 -47zM252.5 391q-29.5 -25 -37.5 -68h222
q-8 43 -37.5 68t-73.5 25t-73.5 -25zM249.5 633q-27.5 28 -27.5 71t28 70.5t71 27.5t71 -27.5t28 -70.5t-28 -71t-71 -28q-44 0 -71.5 28z" />
    <glyph glyph-name="uni1EB9" unicode="&#x1eb9;" horiz-adv-x="642" 
d="M612 223h-394q12 -42 46.5 -64.5t86.5 -22.5q39 0 67.5 11t57.5 36l100 -104q-79 -88 -231 -88q-95 0 -167 36t-111.5 100t-39.5 145q0 80 38.5 143.5t106.5 99.5t153 36q81 0 147 -33.5t104.5 -97t38.5 -150.5q0 -2 -3 -47zM252.5 391q-29.5 -25 -37.5 -68h222
q-8 43 -37.5 68t-73.5 25t-73.5 -25zM264.5 -197q-22.5 21 -22.5 56t22.5 57t56.5 22t56.5 -22t22.5 -57t-22.5 -56t-56.5 -21t-56.5 21z" />
    <glyph glyph-name="egrave" unicode="&#xe8;" horiz-adv-x="642" 
d="M612 223h-394q12 -42 46.5 -64.5t86.5 -22.5q39 0 67.5 11t57.5 36l100 -104q-79 -88 -231 -88q-95 0 -167 36t-111.5 100t-39.5 145q0 80 38.5 143.5t106.5 99.5t153 36q81 0 147 -33.5t104.5 -97t38.5 -150.5q0 -2 -3 -47zM252.5 391q-29.5 -25 -37.5 -68h222
q-8 43 -37.5 68t-73.5 25t-73.5 -25zM95 759h190l134 -152h-136z" />
    <glyph glyph-name="uni1EBB" unicode="&#x1ebb;" horiz-adv-x="642" 
d="M612 223h-394q12 -42 46.5 -64.5t86.5 -22.5q39 0 67.5 11t57.5 36l100 -104q-79 -88 -231 -88q-95 0 -167 36t-111.5 100t-39.5 145q0 80 38.5 143.5t106.5 99.5t153 36q81 0 147 -33.5t104.5 -97t38.5 -150.5q0 -2 -3 -47zM252.5 391q-29.5 -25 -37.5 -68h222
q-8 43 -37.5 68t-73.5 25t-73.5 -25zM299 655q27 13 38 27t11 31q0 19 -12.5 29.5t-32.5 10.5q-29 0 -58 -20l-39 74q23 18 54 27.5t64 9.5q58 0 94.5 -32t36.5 -83q0 -88 -98 -132z" />
    <glyph glyph-name="uni0207" unicode="&#x207;" horiz-adv-x="642" 
d="M612 223h-394q12 -42 46.5 -64.5t86.5 -22.5q39 0 67.5 11t57.5 36l100 -104q-79 -88 -231 -88q-95 0 -167 36t-111.5 100t-39.5 145q0 80 38.5 143.5t106.5 99.5t153 36q81 0 147 -33.5t104.5 -97t38.5 -150.5q0 -2 -3 -47zM252.5 391q-29.5 -25 -37.5 -68h222
q-8 43 -37.5 68t-73.5 25t-73.5 -25zM182 724.5q54 43.5 139 43.5t139 -43.5t57 -117.5h-116q-1 30 -24 48t-56 18t-56 -18t-24 -48h-116q3 74 57 117.5z" />
    <glyph glyph-name="emacron" unicode="&#x113;" horiz-adv-x="642" 
d="M612 223h-394q12 -42 46.5 -64.5t86.5 -22.5q39 0 67.5 11t57.5 36l100 -104q-79 -88 -231 -88q-95 0 -167 36t-111.5 100t-39.5 145q0 80 38.5 143.5t106.5 99.5t153 36q81 0 147 -33.5t104.5 -97t38.5 -150.5q0 -2 -3 -47zM252.5 391q-29.5 -25 -37.5 -68h222
q-8 43 -37.5 68t-73.5 25t-73.5 -25zM124 734h394v-102h-394v102z" />
    <glyph glyph-name="uni1E17" unicode="&#x1e17;" horiz-adv-x="642" 
d="M612 223h-394q12 -42 46.5 -64.5t86.5 -22.5q39 0 67.5 11t57.5 36l100 -104q-79 -88 -231 -88q-95 0 -167 36t-111.5 100t-39.5 145q0 80 38.5 143.5t106.5 99.5t153 36q81 0 147 -33.5t104.5 -97t38.5 -150.5q0 -2 -3 -47zM252.5 391q-29.5 -25 -37.5 -68h222
q-8 43 -37.5 68t-73.5 25t-73.5 -25zM124 717h394v-98h-394v98zM332 904h186l-161 -125h-131z" />
    <glyph glyph-name="uni1E15" unicode="&#x1e15;" horiz-adv-x="642" 
d="M612 223h-394q12 -42 46.5 -64.5t86.5 -22.5q39 0 67.5 11t57.5 36l100 -104q-79 -88 -231 -88q-95 0 -167 36t-111.5 100t-39.5 145q0 80 38.5 143.5t106.5 99.5t153 36q81 0 147 -33.5t104.5 -97t38.5 -150.5q0 -2 -3 -47zM252.5 391q-29.5 -25 -37.5 -68h222
q-8 43 -37.5 68t-73.5 25t-73.5 -25zM124 717h394v-98h-394v98zM124 904h186l106 -125h-130z" />
    <glyph glyph-name="eogonek" unicode="&#x119;" horiz-adv-x="642" 
d="M612 223h-394q12 -42 46.5 -64.5t86.5 -22.5q39 0 67.5 11t57.5 36l100 -104q-16 -19 -41 -37q-65 -43 -88.5 -75t-23.5 -63q0 -23 15.5 -36.5t41.5 -13.5q30 0 58 15l25 -82q-18 -10 -48 -16.5t-59 -6.5q-69 0 -108.5 32.5t-39.5 88.5q0 28 13.5 56t37.5 50h-14
q-95 0 -167 36t-111.5 100t-39.5 145q0 80 38.5 143.5t106.5 99.5t153 36q81 0 147 -33.5t104.5 -97t38.5 -150.5q0 -2 -3 -47zM252.5 391q-29.5 -25 -37.5 -68h222q-8 43 -37.5 68t-73.5 25t-73.5 -25z" />
    <glyph glyph-name="uni1EBD" unicode="&#x1ebd;" horiz-adv-x="642" 
d="M612 223h-394q12 -42 46.5 -64.5t86.5 -22.5q39 0 67.5 11t57.5 36l100 -104q-79 -88 -231 -88q-95 0 -167 36t-111.5 100t-39.5 145q0 80 38.5 143.5t106.5 99.5t153 36q81 0 147 -33.5t104.5 -97t38.5 -150.5q0 -2 -3 -47zM252.5 391q-29.5 -25 -37.5 -68h222
q-8 43 -37.5 68t-73.5 25t-73.5 -25zM350.5 610.5q-21.5 10.5 -47.5 28.5q-19 13 -28.5 18t-19.5 5q-20 0 -32 -14t-14 -39h-93q2 73 36 116t91 43q27 0 48 -10t48 -28q19 -13 28.5 -18t19.5 -5q20 0 32 13.5t14 36.5h93q-2 -71 -36 -114t-91 -43q-27 0 -48.5 10.5z" />
    <glyph glyph-name="uni0259" unicode="&#x259;" horiz-adv-x="642" 
d="M30 319h394q-12 42 -46.5 64.5t-86.5 22.5q-39 0 -67.5 -11t-57.5 -36l-100 104q79 88 231 88q95 0 167 -36t111.5 -100t39.5 -145q0 -80 -38.5 -143.5t-106.5 -99.5t-153 -36q-81 0 -147 33.5t-104.5 97t-38.5 150.5q0 2 3 47zM389.5 151q29.5 25 37.5 68h-222
q8 -43 37.5 -68t73.5 -25t73.5 25z" />
    <glyph glyph-name="uni0292" unicode="&#x292;" horiz-adv-x="569" 
d="M503 174.5q47 -55.5 47 -136.5q0 -65 -33 -120t-100.5 -88t-167.5 -33q-74 0 -145 19t-122 54l66 149q41 -30 92 -46t102 -16q52 0 82 21.5t30 59.5q0 77 -107 77h-83v124l128 150h-279v153h501v-124l-146 -170q88 -18 135 -73.5z" />
    <glyph glyph-name="uni01EF" unicode="&#x1ef;" horiz-adv-x="569" 
d="M503 174.5q47 -55.5 47 -136.5q0 -65 -33 -120t-100.5 -88t-167.5 -33q-74 0 -145 19t-122 54l66 149q41 -30 92 -46t102 -16q52 0 82 21.5t30 59.5q0 77 -107 77h-83v124l128 150h-279v153h501v-124l-146 -170q88 -18 135 -73.5zM470 759l-130 -152h-164l-130 152h126
l86 -76l86 76h126z" />
    <glyph glyph-name="f" unicode="f" horiz-adv-x="406" 
d="M268 522h129v-142h-124v-380h-190v380h-79v142h79v14q0 99 59.5 157t166.5 58q36 0 70 -7t56 -21l-47 -134q-28 16 -57 16q-30 0 -46.5 -18t-16.5 -53v-12z" />
    <glyph glyph-name="g" unicode="g" horiz-adv-x="705" 
d="M644 542v-443q0 -151 -82 -226.5t-236 -75.5q-80 0 -150 18t-119 53l69 133q33 -27 83.5 -42.5t99.5 -15.5q75 0 110 33t35 98v18q-55 -64 -161 -64q-72 0 -133 32.5t-97 92t-36 137.5q0 77 36 136.5t97 92t133 32.5q116 0 170 -75v66h181zM422.5 210q33.5 31 33.5 80
t-33 79.5t-85 30.5t-85.5 -30.5t-33.5 -79.5t34 -80t85 -31t84.5 31z" />
    <glyph glyph-name="gbreve" unicode="&#x11f;" horiz-adv-x="705" 
d="M644 542v-443q0 -151 -82 -226.5t-236 -75.5q-80 0 -150 18t-119 53l69 133q33 -27 83.5 -42.5t99.5 -15.5q75 0 110 33t35 98v18q-55 -64 -161 -64q-72 0 -133 32.5t-97 92t-36 137.5q0 77 36 136.5t97 92t133 32.5q116 0 170 -75v66h181zM422.5 210q33.5 31 33.5 80
t-33 79.5t-85 30.5t-85.5 -30.5t-33.5 -79.5t34 -80t85 -31t84.5 31zM209 641.5q-54 43.5 -57 117.5h116q1 -30 24 -48t56 -18t56 18t24 48h116q-3 -74 -57 -117.5t-139 -43.5t-139 43.5z" />
    <glyph glyph-name="gcaron" unicode="&#x1e7;" horiz-adv-x="705" 
d="M644 542v-443q0 -151 -82 -226.5t-236 -75.5q-80 0 -150 18t-119 53l69 133q33 -27 83.5 -42.5t99.5 -15.5q75 0 110 33t35 98v18q-55 -64 -161 -64q-72 0 -133 32.5t-97 92t-36 137.5q0 77 36 136.5t97 92t133 32.5q116 0 170 -75v66h181zM422.5 210q33.5 31 33.5 80
t-33 79.5t-85 30.5t-85.5 -30.5t-33.5 -79.5t34 -80t85 -31t84.5 31zM560 759l-130 -152h-164l-130 152h126l86 -76l86 76h126z" />
    <glyph glyph-name="gcircumflex" unicode="&#x11d;" horiz-adv-x="705" 
d="M644 542v-443q0 -151 -82 -226.5t-236 -75.5q-80 0 -150 18t-119 53l69 133q33 -27 83.5 -42.5t99.5 -15.5q75 0 110 33t35 98v18q-55 -64 -161 -64q-72 0 -133 32.5t-97 92t-36 137.5q0 77 36 136.5t97 92t133 32.5q116 0 170 -75v66h181zM422.5 210q33.5 31 33.5 80
t-33 79.5t-85 30.5t-85.5 -30.5t-33.5 -79.5t34 -80t85 -31t84.5 31zM434 607l-86 76l-86 -76h-126l130 152h164l130 -152h-126z" />
    <glyph glyph-name="gcommaaccent" unicode="&#x123;" horiz-adv-x="705" 
d="M644 542v-443q0 -151 -82 -226.5t-236 -75.5q-80 0 -150 18t-119 53l69 133q33 -27 83.5 -42.5t99.5 -15.5q75 0 110 33t35 98v18q-55 -64 -161 -64q-72 0 -133 32.5t-97 92t-36 137.5q0 77 36 136.5t97 92t133 32.5q116 0 170 -75v66h181zM422.5 210q33.5 31 33.5 80
t-33 79.5t-85 30.5t-85.5 -30.5t-33.5 -79.5t34 -80t85 -31t84.5 31zM441 665q0 -31 -24 -49t-69 -18t-69 18t-24 49q0 28 26 72l49 88h101l-37 -100q47 -15 47 -60z" />
    <glyph glyph-name="gdotaccent" unicode="&#x121;" horiz-adv-x="705" 
d="M644 542v-443q0 -151 -82 -226.5t-236 -75.5q-80 0 -150 18t-119 53l69 133q33 -27 83.5 -42.5t99.5 -15.5q75 0 110 33t35 98v18q-55 -64 -161 -64q-72 0 -133 32.5t-97 92t-36 137.5q0 77 36 136.5t97 92t133 32.5q116 0 170 -75v66h181zM422.5 210q33.5 31 33.5 80
t-33 79.5t-85 30.5t-85.5 -30.5t-33.5 -79.5t34 -80t85 -31t84.5 31zM276.5 633q-27.5 28 -27.5 71t28 70.5t71 27.5t71 -27.5t28 -70.5t-28 -71t-71 -28q-44 0 -71.5 28z" />
    <glyph glyph-name="uni1E21" unicode="&#x1e21;" horiz-adv-x="705" 
d="M644 542v-443q0 -151 -82 -226.5t-236 -75.5q-80 0 -150 18t-119 53l69 133q33 -27 83.5 -42.5t99.5 -15.5q75 0 110 33t35 98v18q-55 -64 -161 -64q-72 0 -133 32.5t-97 92t-36 137.5q0 77 36 136.5t97 92t133 32.5q116 0 170 -75v66h181zM422.5 210q33.5 31 33.5 80
t-33 79.5t-85 30.5t-85.5 -30.5t-33.5 -79.5t34 -80t85 -31t84.5 31zM151 734h394v-102h-394v102z" />
    <glyph glyph-name="uni01E5" unicode="&#x1e5;" horiz-adv-x="718" 
d="M707 -24h-81q-28 -89 -104.5 -134t-197.5 -45q-78 0 -148.5 18.5t-118.5 52.5l69 126q32 -26 82.5 -42t102.5 -16q80 0 114 39h-157v78h186v14v64l1 11q-60 -64 -169 -64q-76 0 -135 30.5t-91.5 84.5t-32.5 122t32.5 121.5t91 83.5t134.5 30q119 0 178 -74v66h181v-443
q0 -17 -2 -45h65v-78zM424 239q32 28 32 76q0 47 -32.5 75t-85.5 28q-54 0 -86.5 -28t-32.5 -75q0 -48 32.5 -76t86.5 -28t86 28z" />
    <glyph glyph-name="h" unicode="h" horiz-adv-x="696" 
d="M576.5 491q61.5 -60 61.5 -181v-310h-190v279q0 111 -89 111q-49 0 -78.5 -32t-29.5 -96v-262h-190v742h190v-250q31 29 73 44t90 15q101 0 162.5 -60z" />
    <glyph glyph-name="hbar" unicode="&#x127;" horiz-adv-x="696" 
d="M576.5 491q61.5 -60 61.5 -181v-310h-190v279q0 111 -89 111q-49 0 -78.5 -32t-29.5 -96v-262h-190v742h190v-250q31 29 73 44t90 15q101 0 162.5 -60zM0 688h420v-99h-420v99z" />
    <glyph glyph-name="uni1E2B" unicode="&#x1e2b;" horiz-adv-x="696" 
d="M576.5 491q61.5 -60 61.5 -181v-310h-190v279q0 111 -89 111q-49 0 -78.5 -32t-29.5 -96v-262h-190v742h190v-250q31 29 73 44t90 15q101 0 162.5 -60zM214 -179.5q-54 41.5 -58 108.5h109q2 -28 26 -45t61 -17t61 17t26 45h109q-4 -67 -58 -108.5t-138 -41.5t-138 41.5z
" />
    <glyph glyph-name="uni021F" unicode="&#x21f;" horiz-adv-x="696" 
d="M576.5 491q61.5 -60 61.5 -181v-310h-190v279q0 111 -89 111q-49 0 -78.5 -32t-29.5 -96v-262h-190v742h190v-250q31 29 73 44t90 15q101 0 162.5 -60zM368 959l-130 -152h-164l-130 152h126l86 -76l86 76h126z" />
    <glyph glyph-name="hcircumflex" unicode="&#x125;" horiz-adv-x="696" 
d="M576.5 491q61.5 -60 61.5 -181v-310h-190v279q0 111 -89 111q-49 0 -78.5 -32t-29.5 -96v-262h-190v742h190v-250q31 29 73 44t90 15q101 0 162.5 -60zM242 799l-86 76l-86 -76h-126l130 152h164l130 -152h-126z" />
    <glyph glyph-name="uni1E25" unicode="&#x1e25;" horiz-adv-x="696" 
d="M576.5 491q61.5 -60 61.5 -181v-310h-190v279q0 111 -89 111q-49 0 -78.5 -32t-29.5 -96v-262h-190v742h190v-250q31 29 73 44t90 15q101 0 162.5 -60zM295.5 -197q-22.5 21 -22.5 56t22.5 57t56.5 22t56.5 -22t22.5 -57t-22.5 -56t-56.5 -21t-56.5 21z" />
    <glyph glyph-name="i" unicode="i" horiz-adv-x="313" 
d="M61 542h190v-542h-190v542zM72 631q-32 29 -32 72t32 72t84 29t84 -27.5t32 -70.5q0 -45 -32 -74.5t-84 -29.5t-84 29z" />
    <glyph glyph-name="dotlessi" unicode="&#x131;" horiz-adv-x="313" 
d="M61 542h190v-542h-190v542z" />
    <glyph glyph-name="iacute" unicode="&#xed;" horiz-adv-x="313" 
d="M61 542h190v-542h-190v542zM192 759h190l-188 -152h-136z" />
    <glyph glyph-name="ibreve" unicode="&#x12d;" horiz-adv-x="313" 
d="M61 542h190v-542h-190v542zM33.5 642q-47.5 44 -48.5 117h111q0 -31 16 -49.5t44 -18.5t44 18.5t16 49.5h111q-1 -73 -48.5 -117t-122.5 -44t-122.5 44z" />
    <glyph glyph-name="icircumflex" unicode="&#xee;" horiz-adv-x="313" 
d="M61 542h190v-542h-190v542zM218 607l-62 69l-62 -69h-125l107 152h160l107 -152h-125z" />
    <glyph glyph-name="uni0209" unicode="&#x209;" horiz-adv-x="313" 
d="M61 542h190v-542h-190v542zM-119 759h170l62 -152h-132zM98 759h170l63 -152h-132z" />
    <glyph glyph-name="idieresis" unicode="&#xef;" horiz-adv-x="313" 
d="M61 542h190v-542h-190v542zM16 628q-21 22 -21 56t21 56t53 22q31 0 52 -22t21 -56q0 -35 -21 -56.5t-52 -21.5q-32 0 -53 22zM191 628q-21 22 -21 56t21 56t53 22q31 0 52 -22t21 -56q0 -35 -21 -56.5t-52 -21.5q-32 0 -53 22z" />
    <glyph glyph-name="uni1E2F" unicode="&#x1e2f;" horiz-adv-x="313" 
d="M61 542h190v-542h-190v542zM0.5 626.5q-21.5 20.5 -21.5 53.5t21.5 54t53.5 21q33 0 54.5 -21t21.5 -54t-21.5 -53.5t-54.5 -20.5q-32 0 -53.5 20.5zM204.5 626.5q-21.5 20.5 -21.5 53.5t21.5 54t53.5 21t53.5 -21t21.5 -54t-21.5 -53.5t-53.5 -20.5t-53.5 20.5zM167 904
h186l-161 -125h-131z" />
    <glyph glyph-name="i.loclTRK" horiz-adv-x="313" 
d="M61 542h190v-542h-190v542zM84.5 633q-27.5 28 -27.5 71t28 70.5t71 27.5t71 -27.5t28 -70.5t-28 -71t-71 -28q-44 0 -71.5 28z" />
    <glyph glyph-name="uni1ECB" unicode="&#x1ecb;" horiz-adv-x="313" 
d="M61 542h190v-542h-190v542zM72 631q-32 29 -32 72t32 72t84 29t84 -27.5t32 -70.5q0 -45 -32 -74.5t-84 -29.5t-84 29zM99.5 -197q-22.5 21 -22.5 56t22.5 57t56.5 22t56.5 -22t22.5 -57t-22.5 -56t-56.5 -21t-56.5 21z" />
    <glyph glyph-name="igrave" unicode="&#xec;" horiz-adv-x="313" 
d="M61 542h190v-542h-190v542zM-70 759h190l134 -152h-136z" />
    <glyph glyph-name="uni1EC9" unicode="&#x1ec9;" horiz-adv-x="313" 
d="M61 542h190v-542h-190v542zM134 655q27 13 38 27t11 31q0 19 -12.5 29.5t-32.5 10.5q-29 0 -58 -20l-39 74q23 18 54 27.5t64 9.5q58 0 94.5 -32t36.5 -83q0 -88 -98 -132z" />
    <glyph glyph-name="uni020B" unicode="&#x20b;" horiz-adv-x="313" 
d="M61 542h190v-542h-190v542zM33.5 724q47.5 44 122.5 44t122.5 -44t48.5 -117h-111q0 31 -16 49.5t-44 18.5t-44 -18.5t-16 -49.5h-111q1 73 48.5 117z" />
    <glyph glyph-name="ij" unicode="&#x133;" horiz-adv-x="633" 
d="M61 542h190v-542h-190v542zM72 631q-32 29 -32 72t32 72t84 29t84 -27.5t32 -70.5q0 -45 -32 -74.5t-84 -29.5t-84 29zM219 -175l48 135q26 -16 59 -16q26 0 41 18t15 53v527h190v-528q0 -100 -58.5 -158.5t-162.5 -58.5q-83 0 -132 28zM393 631q-32 29 -32 72t32 72
t84 29t84 -27.5t32 -70.5q0 -45 -32 -74.5t-84 -29.5t-84 29z" />
    <glyph glyph-name="imacron" unicode="&#x12b;" horiz-adv-x="313" 
d="M61 542h190v-542h-190v542zM-4 734h320v-102h-320v102z" />
    <glyph glyph-name="iogonek" unicode="&#x12f;" horiz-adv-x="313" 
d="M61 542h190v-542h-190v542zM72 631q-32 29 -32 72t32 72t84 29t84 -27.5t32 -70.5q0 -45 -32 -74.5t-84 -29.5t-84 29zM104.5 -203.5q-36.5 32.5 -36.5 85.5q0 51 33.5 93.5t96.5 70.5l53 -46q-37 -27 -52 -51t-15 -50q0 -20 11.5 -32.5t28.5 -12.5q16 0 32 11l23 -79
q-15 -10 -35.5 -16t-43.5 -6q-59 0 -95.5 32.5z" />
    <glyph glyph-name="itilde" unicode="&#x129;" horiz-adv-x="313" 
d="M61 542h190v-542h-190v542zM178 611.5q-20 11.5 -42 31.5q-10 9 -19.5 15.5t-16.5 6.5q-30 0 -30 -56h-91q0 78 27.5 118.5t80.5 40.5q26 0 46 -11t43 -31q10 -9 19.5 -15.5t16.5 -6.5q30 0 30 53h91q0 -76 -27.5 -116.5t-80.5 -40.5q-27 0 -47 11.5z" />
    <glyph glyph-name="j" unicode="j" horiz-adv-x="320" 
d="M-94 -175l48 135q26 -16 59 -16q26 0 41 18t15 53v527h190v-528q0 -100 -58.5 -158.5t-162.5 -58.5q-83 0 -132 28zM80 631q-32 29 -32 72t32 72t84 29t84 -27.5t32 -70.5q0 -45 -32 -74.5t-84 -29.5t-84 29z" />
    <glyph glyph-name="uni0237" unicode="&#x237;" horiz-adv-x="320" 
d="M-94 -175l48 135q26 -16 59 -16q26 0 41 18t15 53v527h190v-528q0 -100 -58.5 -158.5t-162.5 -58.5q-83 0 -132 28z" />
    <glyph glyph-name="jcircumflex" unicode="&#x135;" horiz-adv-x="320" 
d="M-94 -175l48 135q26 -16 59 -16q26 0 41 18t15 53v527h190v-528q0 -100 -58.5 -158.5t-162.5 -58.5q-83 0 -132 28zM226 607l-62 69l-62 -69h-125l107 152h160l107 -152h-125z" />
    <glyph glyph-name="k" unicode="k" horiz-adv-x="686" 
d="M307 190l-56 -57v-133h-190v742h190v-389l194 189h225l-225 -232l244 -310h-230z" />
    <glyph glyph-name="uni01E9" unicode="&#x1e9;" horiz-adv-x="686" 
d="M307 190l-56 -57v-133h-190v742h190v-389l194 189h225l-225 -232l244 -310h-230zM368 959l-130 -152h-164l-130 152h126l86 -76l86 76h126z" />
    <glyph glyph-name="kcommaaccent" unicode="&#x137;" horiz-adv-x="686" 
d="M307 190l-56 -57v-133h-190v742h190v-389l194 189h225l-225 -232l244 -310h-230zM377.5 -80.5q21.5 -18.5 21.5 -48.5q0 -35 -21 -72l-37 -67h-86l26 79q-40 15 -40 60q0 30 21.5 48.5t57.5 18.5t57.5 -18.5z" />
    <glyph glyph-name="kgreenlandic" unicode="&#x138;" horiz-adv-x="667" 
d="M307 190l-56 -57v-133h-190v542h190v-189l194 189h225l-225 -232l244 -310h-230z" />
    <glyph glyph-name="l" unicode="l" horiz-adv-x="313" 
d="M61 742h190v-742h-190v742z" />
    <glyph glyph-name="lacute" unicode="&#x13a;" horiz-adv-x="313" 
d="M61 742h190v-742h-190v742zM192 959h190l-188 -152h-136z" />
    <glyph glyph-name="lcaron" unicode="&#x13e;" horiz-adv-x="313" 
d="M61 742h190v-742h-190v742zM326 787h137l-25 -205h-112v205z" />
    <glyph glyph-name="lcommaaccent" unicode="&#x13c;" horiz-adv-x="313" 
d="M61 742h190v-742h-190v742zM213.5 -80.5q21.5 -18.5 21.5 -48.5q0 -35 -21 -72l-37 -67h-86l26 79q-40 15 -40 60q0 30 21.5 48.5t57.5 18.5t57.5 -18.5z" />
    <glyph glyph-name="ldot" unicode="&#x140;" horiz-adv-x="462" 
d="M61 742h190v-742h-190v742zM322 301q-25 25 -25 65t25 65t65 25t65.5 -25t25.5 -65t-25.5 -65t-65.5 -25t-65 25z" />
    <glyph glyph-name="uni1E37" unicode="&#x1e37;" horiz-adv-x="313" 
d="M61 742h190v-742h-190v742zM99.5 -197q-22.5 21 -22.5 56t22.5 57t56.5 22t56.5 -22t22.5 -57t-22.5 -56t-56.5 -21t-56.5 21z" />
    <glyph glyph-name="uni01C9" unicode="&#x1c9;" horiz-adv-x="633" 
d="M61 742h190v-742h-190v742zM219 -175l48 135q26 -16 59 -16q26 0 41 18t15 53v527h190v-528q0 -100 -58.5 -158.5t-162.5 -58.5q-83 0 -132 28zM393 631q-32 29 -32 72t32 72t84 29t84 -27.5t32 -70.5q0 -45 -32 -74.5t-84 -29.5t-84 29z" />
    <glyph glyph-name="uni1E3B" unicode="&#x1e3b;" horiz-adv-x="313" 
d="M61 742h190v-742h-190v742zM-41 -85h394v-102h-394v102z" />
    <glyph glyph-name="lslash" unicode="&#x142;" horiz-adv-x="347" 
d="M78 742h190v-742h-190v742zM-37 278l357 266l63 -90l-356 -265z" />
    <glyph glyph-name="m" unicode="m" horiz-adv-x="1045" 
d="M926.5 491q59.5 -60 59.5 -181v-310h-190v279q0 57 -21.5 84t-60.5 27q-43 0 -69 -30t-26 -91v-269h-190v279q0 111 -82 111q-44 0 -70 -30t-26 -91v-269h-190v542h181v-57q30 33 71.5 49.5t90.5 16.5q57 0 102 -21t73 -64q32 41 81 63t107 22q100 0 159.5 -60z" />
    <glyph glyph-name="uni1E43" unicode="&#x1e43;" horiz-adv-x="1045" 
d="M926.5 491q59.5 -60 59.5 -181v-310h-190v279q0 57 -21.5 84t-60.5 27q-43 0 -69 -30t-26 -91v-269h-190v279q0 111 -82 111q-44 0 -70 -30t-26 -91v-269h-190v542h181v-57q30 33 71.5 49.5t90.5 16.5q57 0 102 -21t73 -64q32 41 81 63t107 22q100 0 159.5 -60z
M465.5 -197q-22.5 21 -22.5 56t22.5 57t56.5 22t56.5 -22t22.5 -57t-22.5 -56t-56.5 -21t-56.5 21z" />
    <glyph glyph-name="n" unicode="n" horiz-adv-x="696" 
d="M576.5 491q61.5 -60 61.5 -181v-310h-190v279q0 111 -89 111q-49 0 -78.5 -32t-29.5 -96v-262h-190v542h181v-59q32 33 76 50.5t96 17.5q101 0 162.5 -60z" />
    <glyph glyph-name="nacute" unicode="&#x144;" horiz-adv-x="696" 
d="M576.5 491q61.5 -60 61.5 -181v-310h-190v279q0 111 -89 111q-49 0 -78.5 -32t-29.5 -96v-262h-190v542h181v-59q32 33 76 50.5t96 17.5q101 0 162.5 -60zM388 759h190l-188 -152h-136z" />
    <glyph glyph-name="napostrophe" unicode="&#x149;" horiz-adv-x="849" 
d="M36 700h123l-26 -263h-98zM729.5 491q61.5 -60 61.5 -181v-310h-190v279q0 111 -89 111q-49 0 -78.5 -32t-29.5 -96v-262h-190v542h181v-59q32 33 76 50.5t96 17.5q101 0 162.5 -60z" />
    <glyph glyph-name="ncaron" unicode="&#x148;" horiz-adv-x="696" 
d="M576.5 491q61.5 -60 61.5 -181v-310h-190v279q0 111 -89 111q-49 0 -78.5 -32t-29.5 -96v-262h-190v542h181v-59q32 33 76 50.5t96 17.5q101 0 162.5 -60zM564 759l-130 -152h-164l-130 152h126l86 -76l86 76h126z" />
    <glyph glyph-name="ncommaaccent" unicode="&#x146;" horiz-adv-x="696" 
d="M576.5 491q61.5 -60 61.5 -181v-310h-190v279q0 111 -89 111q-49 0 -78.5 -32t-29.5 -96v-262h-190v542h181v-59q32 33 76 50.5t96 17.5q101 0 162.5 -60zM409.5 -80.5q21.5 -18.5 21.5 -48.5q0 -35 -21 -72l-37 -67h-86l26 79q-40 15 -40 60q0 30 21.5 48.5t57.5 18.5
t57.5 -18.5z" />
    <glyph glyph-name="uni1E45" unicode="&#x1e45;" horiz-adv-x="696" 
d="M576.5 491q61.5 -60 61.5 -181v-310h-190v279q0 111 -89 111q-49 0 -78.5 -32t-29.5 -96v-262h-190v542h181v-59q32 33 76 50.5t96 17.5q101 0 162.5 -60zM280.5 633q-27.5 28 -27.5 71t28 70.5t71 27.5t71 -27.5t28 -70.5t-28 -71t-71 -28q-44 0 -71.5 28z" />
    <glyph glyph-name="uni1E47" unicode="&#x1e47;" horiz-adv-x="696" 
d="M576.5 491q61.5 -60 61.5 -181v-310h-190v279q0 111 -89 111q-49 0 -78.5 -32t-29.5 -96v-262h-190v542h181v-59q32 33 76 50.5t96 17.5q101 0 162.5 -60zM295.5 -197q-22.5 21 -22.5 56t22.5 57t56.5 22t56.5 -22t22.5 -57t-22.5 -56t-56.5 -21t-56.5 21z" />
    <glyph glyph-name="eng" unicode="&#x14b;" horiz-adv-x="696" 
d="M576.5 491q61.5 -60 61.5 -181v-296q0 -100 -58.5 -158.5t-162.5 -58.5q-83 0 -132 28l48 135q26 -16 59 -16q26 0 41 18t15 53v264q0 111 -89 111q-49 0 -78.5 -32t-29.5 -96v-262h-190v542h181v-59q32 33 76 50.5t96 17.5q101 0 162.5 -60z" />
    <glyph glyph-name="uni01CC" unicode="&#x1cc;" horiz-adv-x="1016" 
d="M576.5 491q61.5 -60 61.5 -181v-310h-190v279q0 111 -89 111q-49 0 -78.5 -32t-29.5 -96v-262h-190v542h181v-59q32 33 76 50.5t96 17.5q101 0 162.5 -60zM602 -175l48 135q26 -16 59 -16q26 0 41 18t15 53v527h190v-528q0 -100 -58.5 -158.5t-162.5 -58.5q-83 0 -132 28
zM776 631q-32 29 -32 72t32 72t84 29t84 -27.5t32 -70.5q0 -45 -32 -74.5t-84 -29.5t-84 29z" />
    <glyph glyph-name="uni1E49" unicode="&#x1e49;" horiz-adv-x="696" 
d="M576.5 491q61.5 -60 61.5 -181v-310h-190v279q0 111 -89 111q-49 0 -78.5 -32t-29.5 -96v-262h-190v542h181v-59q32 33 76 50.5t96 17.5q101 0 162.5 -60zM155 -85h394v-102h-394v102z" />
    <glyph glyph-name="ntilde" unicode="&#xf1;" horiz-adv-x="696" 
d="M576.5 491q61.5 -60 61.5 -181v-310h-190v279q0 111 -89 111q-49 0 -78.5 -32t-29.5 -96v-262h-190v542h181v-59q32 33 76 50.5t96 17.5q101 0 162.5 -60zM381.5 610.5q-21.5 10.5 -47.5 28.5q-19 13 -28.5 18t-19.5 5q-20 0 -32 -14t-14 -39h-93q2 73 36 116t91 43
q27 0 48 -10t48 -28q19 -13 28.5 -18t19.5 -5q20 0 32 13.5t14 36.5h93q-2 -71 -36 -114t-91 -43q-27 0 -48.5 10.5z" />
    <glyph glyph-name="o" unicode="o" horiz-adv-x="666" 
d="M176 27q-70 36 -109.5 100t-39.5 145q0 80 39.5 144t109 99.5t157.5 35.5t158 -35.5t109 -99t39 -144.5t-39 -145t-109 -100t-158 -36q-87 0 -157 36zM415 176.5q32 34.5 32 95.5q0 60 -32 94t-82 34t-82 -34t-32 -94q0 -61 32 -95.5t82 -34.5t82 34.5z" />
    <glyph glyph-name="oacute" unicode="&#xf3;" horiz-adv-x="666" 
d="M176 27q-70 36 -109.5 100t-39.5 145q0 80 39.5 144t109 99.5t157.5 35.5t158 -35.5t109 -99t39 -144.5t-39 -145t-109 -100t-158 -36q-87 0 -157 36zM415 176.5q32 34.5 32 95.5q0 60 -32 94t-82 34t-82 -34t-32 -94q0 -61 32 -95.5t82 -34.5t82 34.5zM367 759h190
l-188 -152h-136z" />
    <glyph glyph-name="obreve" unicode="&#x14f;" horiz-adv-x="666" 
d="M176 27q-70 36 -109.5 100t-39.5 145q0 80 39.5 144t109 99.5t157.5 35.5t158 -35.5t109 -99t39 -144.5t-39 -145t-109 -100t-158 -36q-87 0 -157 36zM415 176.5q32 34.5 32 95.5q0 60 -32 94t-82 34t-82 -34t-32 -94q0 -61 32 -95.5t82 -34.5t82 34.5zM192 641.5
q-54 43.5 -57 117.5h116q1 -30 24 -48t56 -18t56 18t24 48h116q-3 -74 -57 -117.5t-139 -43.5t-139 43.5z" />
    <glyph glyph-name="ocircumflex" unicode="&#xf4;" horiz-adv-x="666" 
d="M176 27q-70 36 -109.5 100t-39.5 145q0 80 39.5 144t109 99.5t157.5 35.5t158 -35.5t109 -99t39 -144.5t-39 -145t-109 -100t-158 -36q-87 0 -157 36zM415 176.5q32 34.5 32 95.5q0 60 -32 94t-82 34t-82 -34t-32 -94q0 -61 32 -95.5t82 -34.5t82 34.5zM417 607l-86 76
l-86 -76h-126l130 152h164l130 -152h-126z" />
    <glyph glyph-name="uni1ED1" unicode="&#x1ed1;" horiz-adv-x="666" 
d="M176 27q-70 36 -109.5 100t-39.5 145q0 80 39.5 144t109 99.5t157.5 35.5t158 -35.5t109 -99t39 -144.5t-39 -145t-109 -100t-158 -36q-87 0 -157 36zM415 176.5q32 34.5 32 95.5q0 60 -32 94t-82 34t-82 -34t-32 -94q0 -61 32 -95.5t82 -34.5t82 34.5zM416 607l-85 59
l-85 -59h-127l131 122h162l131 -122h-127zM569 832h186l-161 -125h-131z" />
    <glyph glyph-name="uni1ED9" unicode="&#x1ed9;" horiz-adv-x="666" 
d="M176 27q-70 36 -109.5 100t-39.5 145q0 80 39.5 144t109 99.5t157.5 35.5t158 -35.5t109 -99t39 -144.5t-39 -145t-109 -100t-158 -36q-87 0 -157 36zM415 176.5q32 34.5 32 95.5q0 60 -32 94t-82 34t-82 -34t-32 -94q0 -61 32 -95.5t82 -34.5t82 34.5zM274.5 -197
q-22.5 21 -22.5 56t22.5 57t56.5 22t56.5 -22t22.5 -57t-22.5 -56t-56.5 -21t-56.5 21zM417 607l-86 76l-86 -76h-126l130 152h164l130 -152h-126z" />
    <glyph glyph-name="uni1ED3" unicode="&#x1ed3;" horiz-adv-x="666" 
d="M176 27q-70 36 -109.5 100t-39.5 145q0 80 39.5 144t109 99.5t157.5 35.5t158 -35.5t109 -99t39 -144.5t-39 -145t-109 -100t-158 -36q-87 0 -157 36zM415 176.5q32 34.5 32 95.5q0 60 -32 94t-82 34t-82 -34t-32 -94q0 -61 32 -95.5t82 -34.5t82 34.5zM416 607l-85 59
l-85 -59h-127l131 122h162l131 -122h-127zM361 832h186l106 -125h-130z" />
    <glyph glyph-name="uni1ED5" unicode="&#x1ed5;" horiz-adv-x="666" 
d="M176 27q-70 36 -109.5 100t-39.5 145q0 80 39.5 144t109 99.5t157.5 35.5t158 -35.5t109 -99t39 -144.5t-39 -145t-109 -100t-158 -36q-87 0 -157 36zM415 176.5q32 34.5 32 95.5q0 60 -32 94t-82 34t-82 -34t-32 -94q0 -61 32 -95.5t82 -34.5t82 34.5zM416 607l-85 59
l-85 -59h-127l131 122h162l131 -122h-127zM482 728q36 19 36 40q0 12 -9 19.5t-23 7.5q-21 0 -45 -12l-30 54q38 24 91 24q45 0 72 -22.5t27 -60.5q0 -31 -21 -54.5t-53 -36.5z" />
    <glyph glyph-name="uni1ED7" unicode="&#x1ed7;" horiz-adv-x="666" 
d="M176 27q-70 36 -109.5 100t-39.5 145q0 80 39.5 144t109 99.5t157.5 35.5t158 -35.5t109 -99t39 -144.5t-39 -145t-109 -100t-158 -36q-87 0 -157 36zM415 176.5q32 34.5 32 95.5q0 60 -32 94t-82 34t-82 -34t-32 -94q0 -61 32 -95.5t82 -34.5t82 34.5zM416 607l-85 59
l-85 -59h-127l131 122h162l131 -122h-127zM355.5 773q-21.5 9 -46.5 24q-11 7 -22 12.5t-19 5.5q-19 0 -30 -11.5t-13 -31.5h-95q1 65 34.5 100.5t92.5 35.5q27 0 48.5 -9t46.5 -24q16 -9 25.5 -13.5t18.5 -4.5q19 0 30.5 12t13.5 31h92q-1 -64 -34 -100t-92 -36
q-29 0 -50.5 9z" />
    <glyph glyph-name="uni020D" unicode="&#x20d;" horiz-adv-x="666" 
d="M176 27q-70 36 -109.5 100t-39.5 145q0 80 39.5 144t109 99.5t157.5 35.5t158 -35.5t109 -99t39 -144.5t-39 -145t-109 -100t-158 -36q-87 0 -157 36zM415 176.5q32 34.5 32 95.5q0 60 -32 94t-82 34t-82 -34t-32 -94q0 -61 32 -95.5t82 -34.5t82 34.5zM56 759h170
l62 -152h-132zM273 759h170l63 -152h-132z" />
    <glyph glyph-name="odieresis" unicode="&#xf6;" horiz-adv-x="666" 
d="M176 27q-70 36 -109.5 100t-39.5 145q0 80 39.5 144t109 99.5t157.5 35.5t158 -35.5t109 -99t39 -144.5t-39 -145t-109 -100t-158 -36q-87 0 -157 36zM415 176.5q32 34.5 32 95.5q0 60 -32 94t-82 34t-82 -34t-32 -94q0 -61 32 -95.5t82 -34.5t82 34.5zM168.5 627.5
q-22.5 21.5 -22.5 56.5t22.5 57t56.5 22t56.5 -22t22.5 -57t-22.5 -56.5t-56.5 -21.5t-56.5 21.5zM380.5 627.5q-22.5 21.5 -22.5 56.5t22.5 57t56.5 22t56.5 -22t22.5 -57t-22.5 -56.5t-56.5 -21.5t-56.5 21.5z" />
    <glyph glyph-name="uni022B" unicode="&#x22b;" horiz-adv-x="666" 
d="M176 27q-70 36 -109.5 100t-39.5 145q0 80 39.5 144t109 99.5t157.5 35.5t158 -35.5t109 -99t39 -144.5t-39 -145t-109 -100t-158 -36q-87 0 -157 36zM415 176.5q32 34.5 32 95.5q0 60 -32 94t-82 34t-82 -34t-32 -94q0 -61 32 -95.5t82 -34.5t82 34.5zM175.5 626.5
q-21.5 20.5 -21.5 53.5t21.5 54t53.5 21q33 0 54.5 -21t21.5 -54t-21.5 -53.5t-54.5 -20.5q-32 0 -53.5 20.5zM379.5 626.5q-21.5 20.5 -21.5 53.5t21.5 54t53.5 21t53.5 -21t21.5 -54t-21.5 -53.5t-53.5 -20.5t-53.5 20.5zM134 889h394v-98h-394v98z" />
    <glyph glyph-name="uni0231" unicode="&#x231;" horiz-adv-x="666" 
d="M176 27q-70 36 -109.5 100t-39.5 145q0 80 39.5 144t109 99.5t157.5 35.5t158 -35.5t109 -99t39 -144.5t-39 -145t-109 -100t-158 -36q-87 0 -157 36zM415 176.5q32 34.5 32 95.5q0 60 -32 94t-82 34t-82 -34t-32 -94q0 -61 32 -95.5t82 -34.5t82 34.5zM274.5 625.5
q-22.5 21.5 -22.5 56.5q0 34 22.5 56t56.5 22t56.5 -22t22.5 -56q0 -35 -22.5 -56.5t-56.5 -21.5t-56.5 21.5zM134 897h394v-98h-394v98z" />
    <glyph glyph-name="uni1ECD" unicode="&#x1ecd;" horiz-adv-x="666" 
d="M176 27q-70 36 -109.5 100t-39.5 145q0 80 39.5 144t109 99.5t157.5 35.5t158 -35.5t109 -99t39 -144.5t-39 -145t-109 -100t-158 -36q-87 0 -157 36zM415 176.5q32 34.5 32 95.5q0 60 -32 94t-82 34t-82 -34t-32 -94q0 -61 32 -95.5t82 -34.5t82 34.5zM274.5 -197
q-22.5 21 -22.5 56t22.5 57t56.5 22t56.5 -22t22.5 -57t-22.5 -56t-56.5 -21t-56.5 21z" />
    <glyph glyph-name="ograve" unicode="&#xf2;" horiz-adv-x="666" 
d="M176 27q-70 36 -109.5 100t-39.5 145q0 80 39.5 144t109 99.5t157.5 35.5t158 -35.5t109 -99t39 -144.5t-39 -145t-109 -100t-158 -36q-87 0 -157 36zM415 176.5q32 34.5 32 95.5q0 60 -32 94t-82 34t-82 -34t-32 -94q0 -61 32 -95.5t82 -34.5t82 34.5zM105 759h190
l134 -152h-136z" />
    <glyph glyph-name="uni1ECF" unicode="&#x1ecf;" horiz-adv-x="666" 
d="M176 27q-70 36 -109.5 100t-39.5 145q0 80 39.5 144t109 99.5t157.5 35.5t158 -35.5t109 -99t39 -144.5t-39 -145t-109 -100t-158 -36q-87 0 -157 36zM415 176.5q32 34.5 32 95.5q0 60 -32 94t-82 34t-82 -34t-32 -94q0 -61 32 -95.5t82 -34.5t82 34.5zM309 655
q27 13 38 27t11 31q0 19 -12.5 29.5t-32.5 10.5q-29 0 -58 -20l-39 74q23 18 54 27.5t64 9.5q58 0 94.5 -32t36.5 -83q0 -88 -98 -132z" />
    <glyph glyph-name="ohorn" unicode="&#x1a1;" horiz-adv-x="666" 
d="M619 378q20 -49 20 -106q0 -81 -39.5 -145t-109 -100t-157.5 -36t-157.5 36t-109 100t-39.5 145t39.5 144.5t109.5 99t159 35.5q21 0 73 -5q32 -4 45 -4q28 0 43 17t15 46q0 32 -22 58l109 40q36 -48 36 -106q0 -43 -19 -77.5t-53 -55.5q37 -37 57 -86zM415 176.5
q32 34.5 32 95.5q0 60 -32 94t-82 34t-82 -34t-32 -94q0 -61 32 -95.5t82 -34.5t82 34.5z" />
    <glyph glyph-name="uni1EDB" unicode="&#x1edb;" horiz-adv-x="666" 
d="M619 378q20 -49 20 -106q0 -81 -39.5 -145t-109 -100t-157.5 -36t-157.5 36t-109 100t-39.5 145t39.5 144.5t109.5 99t159 35.5q21 0 73 -5q32 -4 45 -4q28 0 43 17t15 46q0 32 -22 58l109 40q36 -48 36 -106q0 -43 -19 -77.5t-53 -55.5q37 -37 57 -86zM415 176.5
q32 34.5 32 95.5q0 60 -32 94t-82 34t-82 -34t-32 -94q0 -61 32 -95.5t82 -34.5t82 34.5zM369 759h190l-188 -152h-136z" />
    <glyph glyph-name="uni1EE3" unicode="&#x1ee3;" horiz-adv-x="666" 
d="M619 378q20 -49 20 -106q0 -81 -39.5 -145t-109 -100t-157.5 -36t-157.5 36t-109 100t-39.5 145t39.5 144.5t109.5 99t159 35.5q21 0 73 -5q32 -4 45 -4q28 0 43 17t15 46q0 32 -22 58l109 40q36 -48 36 -106q0 -43 -19 -77.5t-53 -55.5q37 -37 57 -86zM415 176.5
q32 34.5 32 95.5q0 60 -32 94t-82 34t-82 -34t-32 -94q0 -61 32 -95.5t82 -34.5t82 34.5zM276.5 -197q-22.5 21 -22.5 56t22.5 57t56.5 22t56.5 -22t22.5 -57t-22.5 -56t-56.5 -21t-56.5 21z" />
    <glyph glyph-name="uni1EDD" unicode="&#x1edd;" horiz-adv-x="666" 
d="M619 378q20 -49 20 -106q0 -81 -39.5 -145t-109 -100t-157.5 -36t-157.5 36t-109 100t-39.5 145t39.5 144.5t109.5 99t159 35.5q21 0 73 -5q32 -4 45 -4q28 0 43 17t15 46q0 32 -22 58l109 40q36 -48 36 -106q0 -43 -19 -77.5t-53 -55.5q37 -37 57 -86zM415 176.5
q32 34.5 32 95.5q0 60 -32 94t-82 34t-82 -34t-32 -94q0 -61 32 -95.5t82 -34.5t82 34.5zM107 759h190l134 -152h-136z" />
    <glyph glyph-name="uni1EDF" unicode="&#x1edf;" horiz-adv-x="666" 
d="M619 378q20 -49 20 -106q0 -81 -39.5 -145t-109 -100t-157.5 -36t-157.5 36t-109 100t-39.5 145t39.5 144.5t109.5 99t159 35.5q21 0 73 -5q32 -4 45 -4q28 0 43 17t15 46q0 32 -22 58l109 40q36 -48 36 -106q0 -43 -19 -77.5t-53 -55.5q37 -37 57 -86zM415 176.5
q32 34.5 32 95.5q0 60 -32 94t-82 34t-82 -34t-32 -94q0 -61 32 -95.5t82 -34.5t82 34.5zM311 655q27 13 38 27t11 31q0 19 -12.5 29.5t-32.5 10.5q-29 0 -58 -20l-39 74q23 18 54 27.5t64 9.5q58 0 94.5 -32t36.5 -83q0 -88 -98 -132z" />
    <glyph glyph-name="uni1EE1" unicode="&#x1ee1;" horiz-adv-x="663" 
d="M619 378q20 -49 20 -106q0 -81 -39.5 -145t-109 -100t-157.5 -36t-157.5 36t-109 100t-39.5 145t39.5 144.5t109.5 99t159 35.5q21 0 73 -5q32 -4 45 -4q28 0 43 17t15 46q0 32 -22 58l109 40q36 -48 36 -106q0 -43 -19 -77.5t-53 -55.5q37 -37 57 -86zM415 176.5
q32 34.5 32 95.5q0 60 -32 94t-82 34t-82 -34t-32 -94q0 -61 32 -95.5t82 -34.5t82 34.5zM343.159 610.5q-17.9502 10.5 -39.6572 28.5q-15.8633 13 -23.7949 18t-16.2803 5q-16.6982 0 -26.7168 -14t-11.6885 -39h-77.6455q1.66895 73 30.0557 116t75.9766 43
q22.542 0 40.0752 -10q17.5322 -10 40.0752 -28q15.8623 -13 23.7939 -18t16.2812 -5q16.6973 0 26.7168 13.5q10.0186 13.5 11.6885 36.5h77.6455q-1.66992 -71 -30.0566 -114t-75.9756 -43q-22.542 0 -40.4932 10.5z" />
    <glyph glyph-name="ohungarumlaut" unicode="&#x151;" horiz-adv-x="666" 
d="M176 27q-70 36 -109.5 100t-39.5 145q0 80 39.5 144t109 99.5t157.5 35.5t158 -35.5t109 -99t39 -144.5t-39 -145t-109 -100t-158 -36q-87 0 -157 36zM415 176.5q32 34.5 32 95.5q0 60 -32 94t-82 34t-82 -34t-32 -94q0 -61 32 -95.5t82 -34.5t82 34.5zM219 759h170
l-101 -152h-132zM436 759h170l-100 -152h-132z" />
    <glyph glyph-name="uni020F" unicode="&#x20f;" horiz-adv-x="666" 
d="M176 27q-70 36 -109.5 100t-39.5 145q0 80 39.5 144t109 99.5t157.5 35.5t158 -35.5t109 -99t39 -144.5t-39 -145t-109 -100t-158 -36q-87 0 -157 36zM415 176.5q32 34.5 32 95.5q0 60 -32 94t-82 34t-82 -34t-32 -94q0 -61 32 -95.5t82 -34.5t82 34.5zM192 724.5
q54 43.5 139 43.5t139 -43.5t57 -117.5h-116q-1 30 -24 48t-56 18t-56 -18t-24 -48h-116q3 74 57 117.5z" />
    <glyph glyph-name="omacron" unicode="&#x14d;" horiz-adv-x="666" 
d="M176 27q-70 36 -109.5 100t-39.5 145q0 80 39.5 144t109 99.5t157.5 35.5t158 -35.5t109 -99t39 -144.5t-39 -145t-109 -100t-158 -36q-87 0 -157 36zM415 176.5q32 34.5 32 95.5q0 60 -32 94t-82 34t-82 -34t-32 -94q0 -61 32 -95.5t82 -34.5t82 34.5zM134 734h394v-102
h-394v102z" />
    <glyph glyph-name="uni1E53" unicode="&#x1e53;" horiz-adv-x="666" 
d="M176 27q-70 36 -109.5 100t-39.5 145q0 80 39.5 144t109 99.5t157.5 35.5t158 -35.5t109 -99t39 -144.5t-39 -145t-109 -100t-158 -36q-87 0 -157 36zM415 176.5q32 34.5 32 95.5q0 60 -32 94t-82 34t-82 -34t-32 -94q0 -61 32 -95.5t82 -34.5t82 34.5zM134 717h394v-98
h-394v98zM342 904h186l-161 -125h-131z" />
    <glyph glyph-name="uni1E51" unicode="&#x1e51;" horiz-adv-x="666" 
d="M176 27q-70 36 -109.5 100t-39.5 145q0 80 39.5 144t109 99.5t157.5 35.5t158 -35.5t109 -99t39 -144.5t-39 -145t-109 -100t-158 -36q-87 0 -157 36zM415 176.5q32 34.5 32 95.5q0 60 -32 94t-82 34t-82 -34t-32 -94q0 -61 32 -95.5t82 -34.5t82 34.5zM134 717h394v-98
h-394v98zM134 904h186l106 -125h-130z" />
    <glyph glyph-name="uni01EB" unicode="&#x1eb;" horiz-adv-x="666" 
d="M358.5 -43.5q-27.5 -27.5 -27.5 -57.5q0 -20 14.5 -32.5t41.5 -12.5q31 0 59 15l25 -82q-18 -10 -48 -16.5t-59 -6.5q-69 0 -108.5 32t-39.5 85q0 67 64 114q-74 10 -131.5 48t-89.5 97.5t-32 131.5q0 80 39.5 144t109 99.5t157.5 35.5t158 -35.5t109 -99t39 -144.5
q0 -90 -48.5 -158t-133.5 -102q-71 -28 -98.5 -55.5zM251 176.5q32 -34.5 82 -34.5t82 34.5t32 95.5q0 60 -32 94t-82 34t-82 -34t-32 -94q0 -61 32 -95.5z" />
    <glyph glyph-name="oslash" unicode="&#xf8;" horiz-adv-x="666" 
d="M176 27q-70 36 -109.5 100t-39.5 145q0 80 39.5 144t109 99.5t157.5 35.5t158 -35.5t109 -99t39 -144.5t-39 -145t-109 -100t-158 -36q-87 0 -157 36zM415 176.5q32 34.5 32 95.5q0 60 -32 94t-82 34t-82 -34t-32 -94q0 -61 32 -95.5t82 -34.5t82 34.5zM508 607h86
l-441 -677h-86z" />
    <glyph glyph-name="oslashacute" unicode="&#x1ff;" horiz-adv-x="666" 
d="M176 27q-70 36 -109.5 100t-39.5 145q0 80 39.5 144t109 99.5t157.5 35.5t158 -35.5t109 -99t39 -144.5t-39 -145t-109 -100t-158 -36q-87 0 -157 36zM415 176.5q32 34.5 32 95.5q0 60 -32 94t-82 34t-82 -34t-32 -94q0 -61 32 -95.5t82 -34.5t82 34.5zM508 607h86
l-441 -677h-86zM364 759h190l-188 -152h-136z" />
    <glyph glyph-name="otilde" unicode="&#xf5;" horiz-adv-x="666" 
d="M176 27q-70 36 -109.5 100t-39.5 145q0 80 39.5 144t109 99.5t157.5 35.5t158 -35.5t109 -99t39 -144.5t-39 -145t-109 -100t-158 -36q-87 0 -157 36zM415 176.5q32 34.5 32 95.5q0 60 -32 94t-82 34t-82 -34t-32 -94q0 -61 32 -95.5t82 -34.5t82 34.5zM360.5 610.5
q-21.5 10.5 -47.5 28.5q-19 13 -28.5 18t-19.5 5q-20 0 -32 -14t-14 -39h-93q2 73 36 116t91 43q27 0 48 -10t48 -28q19 -13 28.5 -18t19.5 -5q20 0 32 13.5t14 36.5h93q-2 -71 -36 -114t-91 -43q-27 0 -48.5 10.5z" />
    <glyph glyph-name="uni1E4D" unicode="&#x1e4d;" horiz-adv-x="666" 
d="M176 27q-70 36 -109.5 100t-39.5 145q0 80 39.5 144t109 99.5t157.5 35.5t158 -35.5t109 -99t39 -144.5t-39 -145t-109 -100t-158 -36q-87 0 -157 36zM415 176.5q32 34.5 32 95.5q0 60 -32 94t-82 34t-82 -34t-32 -94q0 -61 32 -95.5t82 -34.5t82 34.5zM355.5 610
q-21.5 9 -46.5 24q-11 7 -22 12.5t-19 5.5q-19 0 -30 -11.5t-13 -31.5h-95q1 65 34.5 100.5t92.5 35.5q27 0 48.5 -9t46.5 -24q16 -9 25.5 -13.5t18.5 -4.5q19 0 30.5 12t13.5 31h92q-1 -64 -34 -100t-92 -36q-29 0 -50.5 9zM342 904h186l-161 -125h-131z" />
    <glyph glyph-name="uni1E4F" unicode="&#x1e4f;" horiz-adv-x="666" 
d="M176 27q-70 36 -109.5 100t-39.5 145q0 80 39.5 144t109 99.5t157.5 35.5t158 -35.5t109 -99t39 -144.5t-39 -145t-109 -100t-158 -36q-87 0 -157 36zM415 176.5q32 34.5 32 95.5q0 60 -32 94t-82 34t-82 -34t-32 -94q0 -61 32 -95.5t82 -34.5t82 34.5zM355.5 610
q-21.5 9 -46.5 24q-11 7 -22 12.5t-19 5.5q-19 0 -30 -11.5t-13 -31.5h-95q1 65 34.5 100.5t92.5 35.5q27 0 48.5 -9t46.5 -24q16 -9 25.5 -13.5t18.5 -4.5q19 0 30.5 12t13.5 31h92q-1 -64 -34 -100t-92 -36q-29 0 -50.5 9zM175.5 798.5q-21.5 20.5 -21.5 53.5t21.5 54
t53.5 21q33 0 54.5 -21t21.5 -54t-21.5 -53.5t-54.5 -20.5q-32 0 -53.5 20.5zM379.5 798.5q-21.5 20.5 -21.5 53.5t21.5 54t53.5 21t53.5 -21t21.5 -54t-21.5 -53.5t-53.5 -20.5t-53.5 20.5z" />
    <glyph glyph-name="uni022D" unicode="&#x22d;" horiz-adv-x="666" 
d="M176 27q-70 36 -109.5 100t-39.5 145q0 80 39.5 144t109 99.5t157.5 35.5t158 -35.5t109 -99t39 -144.5t-39 -145t-109 -100t-158 -36q-87 0 -157 36zM415 176.5q32 34.5 32 95.5q0 60 -32 94t-82 34t-82 -34t-32 -94q0 -61 32 -95.5t82 -34.5t82 34.5zM355.5 610
q-21.5 9 -46.5 24q-11 7 -22 12.5t-19 5.5q-19 0 -30 -11.5t-13 -31.5h-95q1 65 34.5 100.5t92.5 35.5q27 0 48.5 -9t46.5 -24q16 -9 25.5 -13.5t18.5 -4.5q19 0 30.5 12t13.5 31h92q-1 -64 -34 -100t-92 -36q-29 0 -50.5 9zM134 889h394v-98h-394v98z" />
    <glyph glyph-name="oe" unicode="&#x153;" horiz-adv-x="1063" 
d="M1033 223h-397q12 -41 47 -64t88 -23q36 0 65.5 11.5t57.5 35.5l103 -104q-39 -43 -99 -65.5t-132 -22.5q-71 0 -128 21.5t-97 60.5q-38 -39 -91.5 -60.5t-119.5 -21.5q-86 0 -155 36t-108.5 100t-39.5 145q0 80 39.5 143.5t108.5 99.5t155 36q65 0 118.5 -21t91.5 -59
q37 38 90 59t116 21q80 0 146 -33.5t105 -96.5t39 -149q0 -26 -3 -49zM671.5 391q-29.5 -25 -37.5 -68h222q-8 43 -36.5 68t-73.5 25t-74.5 -25zM415 176.5q32 34.5 32 95.5q0 60 -32 94t-82 34t-82 -34t-32 -94q0 -61 32 -95.5t82 -34.5t82 34.5z" />
    <glyph glyph-name="p" unicode="p" horiz-adv-x="695" 
d="M536.5 516.5q60.5 -34.5 96 -98t35.5 -147.5t-35.5 -147.5t-96 -98t-134.5 -34.5q-95 0 -151 57v-242h-190v736h181v-54q53 63 160 63q74 0 134.5 -34.5zM444 176.5q32 34.5 32 94.5t-32 94.5t-82 34.5t-82 -34.5t-32 -94.5t32 -94.5t82 -34.5t82 34.5z" />
    <glyph glyph-name="thorn" unicode="&#xfe;" horiz-adv-x="695" 
d="M536.5 516.5q60.5 -34.5 96 -98t35.5 -147.5t-35.5 -147.5t-96 -98t-134.5 -34.5q-95 0 -151 57v-242h-190v936h190v-244q53 53 151 53q74 0 134.5 -34.5zM444 176.5q32 34.5 32 94.5t-32 94.5t-82 34.5t-82 -34.5t-32 -94.5t32 -94.5t82 -34.5t82 34.5z" />
    <glyph glyph-name="q" unicode="q" horiz-adv-x="695" 
d="M634 542v-736h-190v242q-55 -57 -151 -57q-74 0 -134.5 34.5t-96 98t-35.5 147.5t35.5 147.5t96 98t134.5 34.5q107 0 160 -63v54h181zM415 176.5q32 34.5 32 94.5t-32 94.5t-82 34.5t-82 -34.5t-32 -94.5t32 -94.5t82 -34.5t82 34.5z" />
    <glyph glyph-name="r" unicode="r" horiz-adv-x="443" 
d="M317.5 532.5q46.5 18.5 106.5 18.5v-171q-26 3 -43 3q-61 0 -95.5 -33t-34.5 -101v-249h-190v542h181v-65q29 37 75.5 55.5z" />
    <glyph glyph-name="racute" unicode="&#x155;" horiz-adv-x="443" 
d="M317.5 532.5q46.5 18.5 106.5 18.5v-171q-26 3 -43 3q-61 0 -95.5 -33t-34.5 -101v-249h-190v542h181v-65q29 37 75.5 55.5zM278 759h190l-188 -152h-136z" />
    <glyph glyph-name="rcaron" unicode="&#x159;" horiz-adv-x="443" 
d="M317.5 532.5q46.5 18.5 106.5 18.5v-171q-26 3 -43 3q-61 0 -95.5 -33t-34.5 -101v-249h-190v542h181v-65q29 37 75.5 55.5zM454 759l-130 -152h-164l-130 152h126l86 -76l86 76h126z" />
    <glyph glyph-name="rcommaaccent" unicode="&#x157;" horiz-adv-x="443" 
d="M317.5 532.5q46.5 18.5 106.5 18.5v-171q-26 3 -43 3q-61 0 -95.5 -33t-34.5 -101v-249h-190v542h181v-65q29 37 75.5 55.5zM213.5 -80.5q21.5 -18.5 21.5 -48.5q0 -35 -21 -72l-37 -67h-86l26 79q-40 15 -40 60q0 30 21.5 48.5t57.5 18.5t57.5 -18.5z" />
    <glyph glyph-name="uni0211" unicode="&#x211;" horiz-adv-x="443" 
d="M317.5 532.5q46.5 18.5 106.5 18.5v-171q-26 3 -43 3q-61 0 -95.5 -33t-34.5 -101v-249h-190v542h181v-65q29 37 75.5 55.5zM-33 759h170l62 -152h-132zM184 759h170l63 -152h-132z" />
    <glyph glyph-name="uni1E5B" unicode="&#x1e5b;" horiz-adv-x="443" 
d="M317.5 532.5q46.5 18.5 106.5 18.5v-171q-26 3 -43 3q-61 0 -95.5 -33t-34.5 -101v-249h-190v542h181v-65q29 37 75.5 55.5zM99.5 -197q-22.5 21 -22.5 56t22.5 57t56.5 22t56.5 -22t22.5 -57t-22.5 -56t-56.5 -21t-56.5 21z" />
    <glyph glyph-name="uni0213" unicode="&#x213;" horiz-adv-x="443" 
d="M317.5 532.5q46.5 18.5 106.5 18.5v-171q-26 3 -43 3q-61 0 -95.5 -33t-34.5 -101v-249h-190v542h181v-65q29 37 75.5 55.5zM103 724.5q54 43.5 139 43.5t139 -43.5t57 -117.5h-116q-1 30 -24 48t-56 18t-56 -18t-24 -48h-116q3 74 57 117.5z" />
    <glyph glyph-name="uni1E5F" unicode="&#x1e5f;" horiz-adv-x="443" 
d="M317.5 532.5q46.5 18.5 106.5 18.5v-171q-26 3 -43 3q-61 0 -95.5 -33t-34.5 -101v-249h-190v542h181v-65q29 37 75.5 55.5zM-41 -85h394v-102h-394v102z" />
    <glyph glyph-name="s" unicode="s" horiz-adv-x="547" 
d="M124 6.5q-66 15.5 -106 40.5l57 130q37 -23 88 -36.5t101 -13.5q46 0 65.5 9.5t19.5 27.5t-23.5 25.5t-74.5 14.5q-65 8 -110.5 21t-78.5 48t-33 98q0 52 31 92.5t90.5 64t142.5 23.5q59 0 117 -12t97 -34l-57 -129q-72 40 -156 40q-45 0 -66 -10.5t-21 -27.5
q0 -19 23 -26.5t76 -15.5q67 -10 111 -23t76.5 -47.5t32.5 -96.5q0 -51 -31 -91.5t-91.5 -63.5t-145.5 -23q-68 0 -134 15.5z" />
    <glyph glyph-name="sacute" unicode="&#x15b;" horiz-adv-x="547" 
d="M124 6.5q-66 15.5 -106 40.5l57 130q37 -23 88 -36.5t101 -13.5q46 0 65.5 9.5t19.5 27.5t-23.5 25.5t-74.5 14.5q-65 8 -110.5 21t-78.5 48t-33 98q0 52 31 92.5t90.5 64t142.5 23.5q59 0 117 -12t97 -34l-57 -129q-72 40 -156 40q-45 0 -66 -10.5t-21 -27.5
q0 -19 23 -26.5t76 -15.5q67 -10 111 -23t76.5 -47.5t32.5 -96.5q0 -51 -31 -91.5t-91.5 -63.5t-145.5 -23q-68 0 -134 15.5zM304 759h190l-188 -152h-136z" />
    <glyph glyph-name="uni1E65" unicode="&#x1e65;" horiz-adv-x="547" 
d="M124 6.5q-66 15.5 -106 40.5l57 130q37 -23 88 -36.5t101 -13.5q46 0 65.5 9.5t19.5 27.5t-23.5 25.5t-74.5 14.5q-65 8 -110.5 21t-78.5 48t-33 98q0 52 31 92.5t90.5 64t142.5 23.5q59 0 117 -12t97 -34l-57 -129q-72 40 -156 40q-45 0 -66 -10.5t-21 -27.5
q0 -19 23 -26.5t76 -15.5q67 -10 111 -23t76.5 -47.5t32.5 -96.5q0 -51 -31 -91.5t-91.5 -63.5t-145.5 -23q-68 0 -134 15.5zM279 732h186l-161 -125h-131zM211.5 797.5q-22.5 21.5 -22.5 56.5q0 34 22.5 56t56.5 22t56.5 -22t22.5 -56q0 -35 -22.5 -56.5t-56.5 -21.5
t-56.5 21.5z" />
    <glyph glyph-name="uniA78C" unicode="&#xa78c;" horiz-adv-x="312" 
d="M62 690h188l-25 -394h-163v394z" />
    <glyph glyph-name="scaron" unicode="&#x161;" horiz-adv-x="547" 
d="M124 6.5q-66 15.5 -106 40.5l57 130q37 -23 88 -36.5t101 -13.5q46 0 65.5 9.5t19.5 27.5t-23.5 25.5t-74.5 14.5q-65 8 -110.5 21t-78.5 48t-33 98q0 52 31 92.5t90.5 64t142.5 23.5q59 0 117 -12t97 -34l-57 -129q-72 40 -156 40q-45 0 -66 -10.5t-21 -27.5
q0 -19 23 -26.5t76 -15.5q67 -10 111 -23t76.5 -47.5t32.5 -96.5q0 -51 -31 -91.5t-91.5 -63.5t-145.5 -23q-68 0 -134 15.5zM480 759l-130 -152h-164l-130 152h126l86 -76l86 76h126z" />
    <glyph glyph-name="uni1E67" unicode="&#x1e67;" horiz-adv-x="547" 
d="M124 6.5q-66 15.5 -106 40.5l57 130q37 -23 88 -36.5t101 -13.5q46 0 65.5 9.5t19.5 27.5t-23.5 25.5t-74.5 14.5q-65 8 -110.5 21t-78.5 48t-33 98q0 52 31 92.5t90.5 64t142.5 23.5q59 0 117 -12t97 -34l-57 -129q-72 40 -156 40q-45 0 -66 -10.5t-21 -27.5
q0 -19 23 -26.5t76 -15.5q67 -10 111 -23t76.5 -47.5t32.5 -96.5q0 -51 -31 -91.5t-91.5 -63.5t-145.5 -23q-68 0 -134 15.5zM480 729l-131 -122h-162l-131 122h127l85 -59l85 59h127zM211.5 774.5q-22.5 21.5 -22.5 56.5q0 34 22.5 56t56.5 22t56.5 -22t22.5 -56
q0 -35 -22.5 -56.5t-56.5 -21.5t-56.5 21.5z" />
    <glyph glyph-name="scedilla" unicode="&#x15f;" horiz-adv-x="547" 
d="M124 6.5q-66 15.5 -106 40.5l57 130q37 -23 88 -36.5t101 -13.5q46 0 65.5 9.5t19.5 27.5t-23.5 25.5t-74.5 14.5q-65 8 -110.5 21t-78.5 48t-33 98q0 52 31 92.5t90.5 64t142.5 23.5q59 0 117 -12t97 -34l-57 -129q-72 40 -156 40q-45 0 -66 -10.5t-21 -27.5
q0 -19 23 -26.5t76 -15.5q67 -10 111 -23t76.5 -47.5t32.5 -96.5q0 -51 -31 -91.5t-91.5 -63.5t-145.5 -23q-68 0 -134 15.5zM179.5 -230q-26.5 6 -43.5 15l26 75q30 -14 62 -14q50 0 50 28q0 25 -45 25h-37l26 110h99l-14 -60q44 -5 65 -27.5t21 -53.5q0 -48 -43 -76
t-115 -28q-25 0 -51.5 6z" />
    <glyph glyph-name="scircumflex" unicode="&#x15d;" horiz-adv-x="547" 
d="M124 6.5q-66 15.5 -106 40.5l57 130q37 -23 88 -36.5t101 -13.5q46 0 65.5 9.5t19.5 27.5t-23.5 25.5t-74.5 14.5q-65 8 -110.5 21t-78.5 48t-33 98q0 52 31 92.5t90.5 64t142.5 23.5q59 0 117 -12t97 -34l-57 -129q-72 40 -156 40q-45 0 -66 -10.5t-21 -27.5
q0 -19 23 -26.5t76 -15.5q67 -10 111 -23t76.5 -47.5t32.5 -96.5q0 -51 -31 -91.5t-91.5 -63.5t-145.5 -23q-68 0 -134 15.5zM354 607l-86 76l-86 -76h-126l130 152h164l130 -152h-126z" />
    <glyph glyph-name="scommaaccent" unicode="&#x219;" horiz-adv-x="547" 
d="M124 6.5q-66 15.5 -106 40.5l57 130q37 -23 88 -36.5t101 -13.5q46 0 65.5 9.5t19.5 27.5t-23.5 25.5t-74.5 14.5q-65 8 -110.5 21t-78.5 48t-33 98q0 52 31 92.5t90.5 64t142.5 23.5q59 0 117 -12t97 -34l-57 -129q-72 40 -156 40q-45 0 -66 -10.5t-21 -27.5
q0 -19 23 -26.5t76 -15.5q67 -10 111 -23t76.5 -47.5t32.5 -96.5q0 -51 -31 -91.5t-91.5 -63.5t-145.5 -23q-68 0 -134 15.5zM325.5 -80.5q21.5 -18.5 21.5 -48.5q0 -35 -21 -72l-37 -67h-86l26 79q-40 15 -40 60q0 30 21.5 48.5t57.5 18.5t57.5 -18.5z" />
    <glyph glyph-name="uni1E61" unicode="&#x1e61;" horiz-adv-x="547" 
d="M124 6.5q-66 15.5 -106 40.5l57 130q37 -23 88 -36.5t101 -13.5q46 0 65.5 9.5t19.5 27.5t-23.5 25.5t-74.5 14.5q-65 8 -110.5 21t-78.5 48t-33 98q0 52 31 92.5t90.5 64t142.5 23.5q59 0 117 -12t97 -34l-57 -129q-72 40 -156 40q-45 0 -66 -10.5t-21 -27.5
q0 -19 23 -26.5t76 -15.5q67 -10 111 -23t76.5 -47.5t32.5 -96.5q0 -51 -31 -91.5t-91.5 -63.5t-145.5 -23q-68 0 -134 15.5zM196.5 633q-27.5 28 -27.5 71t28 70.5t71 27.5t71 -27.5t28 -70.5t-28 -71t-71 -28q-44 0 -71.5 28z" />
    </font>
</defs>
</svg>
